#TITLE:You are the one;
#SUBTITLE:;
#ARTIST:Winx Club;
#TITLETRANSLIT:;
#SUBTITLETRANSLIT:;
#ARTISTTRANSLIT:;
#CREDIT:;
#BANNER:You are the one.png;
#BACKGROUND:You are the one-bg.png;
#LYRICSPATH:;
#CDTITLE:./CDTITLES/DanceDanceRevolution Winx Club.png;
#MUSIC:You are the one.mp3;
#OFFSET:1.281;
#SAMPLESTART:52.794;
#SAMPLELENGTH:18.720;
#SELECTABLE:YES;
#BPMS:0.000=173.000;
#STOPS:;
#BGCHANGES:;

//---------------dance-single - ----------------
#NOTES:
     dance-single:
     :
     Beginner:
     2:
     0.128,0.139,0.088,0.000,0.000:
0000
0000
0000
0000
,
0000
0000
0000
0000
,
0000
0000
0000
0000
,
0000
0001
0000
1000
,
0000
0100
0000
0000
,
1000
0000
0000
0000
,
0010
0000
0000
0000
,
0100
0000
0000
0000
,
0001
0000
0000
0100
,
0100
0000
0000
0000
,
1000
0000
0000
0000
,
0001
0000
0000
0000
,
0010
0000
1000
0000
,
0000
0001
0001
0000
,
0000
0001
0000
0000
,
0000
1000
0000
0001
,
0000
0010
0000
0000
,
0001
0000
0000
0000
,
0100
0000
0000
0000
,
0010
0000
0000
0000
,
1000
0000
0000
0010
,
0010
0000
0000
0000
,
0001
0000
0000
0000
,
1000
0000
0000
0000
,
0100
0000
0001
0000
,
0000
1000
1000
0000
,
0000
1000
0000
0000
,
1001
0000
0000
0000
,
0000
0000
0010
0000
,
0000
0000
0001
0000
,
0000
0000
1000
0000
,
1001
0000
0000
0000
,
0000
0000
0100
0000
,
0000
0000
1000
0000
,
0000
0000
0001
0000
,
1000
0000
0001
0000
,
0100
0000
0010
0000
,
1001
0000
0000
0000
,
0000
0000
0000
0000
,
1001
0000
0000
0000
,
0001
0000
0001
0000
,
0000
0000
1000
0000
,
0000
0000
0100
0000
,
1001
0000
0000
0000
,
1000
0000
1000
0000
,
0000
0000
0001
0000
,
0000
0000
0100
0000
,
1001
0000
0000
0000
,
0001
0000
0001
0000
,
0000
0000
1000
0000
,
0000
0000
0010
0000
,
1001
0000
0000
0000
,
1000
0000
1000
0000
,
0000
0000
0001
0000
,
0000
0000
0100
0000
,
0000
0000
0000
1001
,
0000
0000
0000
0001
,
0000
0000
0000
1001
,
0000
0000
0000
1000
,
0000
0000
0000
0000
,
0010
0000
0000
0000
,
0000
0000
0000
0000
,
1000
0000
0001
0000
,
0000
0000
0000
0000
,
0100
0000
0000
0000
,
0000
0000
0000
0000
,
0001
0000
1000
0000
,
0000
0001
0000
1000
,
0000
0100
0000
0000
,
1000
0000
0000
0000
,
0010
0000
0000
0000
,
0100
0000
0000
0000
,
0001
0000
0000
0100
,
0100
0000
0000
0000
,
1000
0000
0000
0000
,
0001
0000
0000
0000
,
0010
0000
1000
0000
,
0000
0001
0001
0000
,
0000
0001
0000
0000
,
1001
0000
0000
0000
;

//---------------dance-single - ----------------
#NOTES:
     dance-single:
     :
     Easy:
     4:
     0.191,0.208,0.123,0.184,0.000:
0000
0000
0000
0000
,
0000
0000
0000
0000
,
0000
0000
0000
0000
,
0000
0100
0000
1000
,
0000
0010
0010
0000
,
0001
0000
0100
0000
,
1000
1000
0000
0001
,
0001
0000
1000
0000
,
0010
0000
0000
1000
,
0100
0000
0001
0000
,
0100
0000
0000
0000
,
0002
0000
0003
0000
,
0020
0000
0030
0000
,
0200
0000
0300
0000
,
0001
0000
0000
0000
,
0000
0100
0000
0001
,
0000
0010
0010
0000
,
1000
0000
0100
0000
,
0001
0001
0000
1000
,
1000
0000
0001
0000
,
0010
0000
0000
0001
,
0100
0000
1000
0000
,
0100
0000
0000
0000
,
2000
0000
3000
0000
,
0020
0000
0030
0000
,
0200
0000
0300
0000
,
1000
0000
0000
0000
,
1001
0000
0000
0000
,
0000
0000
0110
0000
,
0000
1000
0001
0000
,
0000
0100
0000
0000
,
1001
0000
0000
0000
,
0000
0000
0110
0000
,
0000
0001
1000
0000
,
0000
0010
0000
0000
,
2000
0000
3000
0000
,
0020
0000
0030
0000
,
2002
0000
3003
0000
,
0000
0000
0000
0000
,
1001
0000
1000
0000
,
0001
0001
1000
0000
,
2000
0000
0000
3000
,
0020
0000
0030
0000
,
1001
0000
0001
0000
,
1000
1000
0001
0000
,
0002
0000
0000
0003
,
0020
0000
0030
0000
,
1001
0000
1000
0000
,
0001
0001
1000
0000
,
2000
0000
0000
3000
,
0200
0000
0300
0000
,
1001
0000
0001
0000
,
1000
1000
0001
0000
,
0002
0000
0000
0003
,
0200
0000
0300
0000
,
0000
0000
0000
1001
,
0000
0000
0000
0110
,
0000
0000
0000
1001
,
0000
0000
0000
0110
,
0000
0000
0000
0000
,
0000
0000
0001
0000
,
0000
0000
0010
0010
,
0000
0000
1000
0001
,
1000
0000
0000
0000
,
0000
0000
1000
0000
,
0000
0000
0100
0100
,
0000
0000
0001
1000
,
0000
0010
0000
1000
,
0000
0100
0100
0000
,
0001
0000
0010
0000
,
1000
1000
0000
0001
,
0001
0000
1000
0000
,
0100
0000
0000
1000
,
0010
0000
0001
0000
,
0010
0000
0000
0000
,
0002
0000
0003
0000
,
0200
0000
0300
0000
,
0020
0000
0030
0000
,
0001
0000
0000
0000
,
1001
0000
0000
0000
;

//---------------dance-single - ----------------
#NOTES:
     dance-single:
     :
     Medium:
     6:
     0.252,0.278,0.149,0.167,0.000:
0000
0000
0000
0000
,
0000
0000
0000
0000
,
0000
0000
0000
0000
,
0000
1000
0000
0001
,
0001
0100
1000
0000
,
0001
0000
0100
0000
,
0010
1000
0000
0100
,
0100
0000
1000
0000
,
0001
0000
0000
0100
,
0010
0000
1000
0100
,
0010
0000
1001
0000
,
1000
0001
1000
0000
,
0010
0100
0010
0000
,
0001
0000
0001
0000
,
1000
1000
1000
0000
,
0000
0001
0000
1000
,
1000
0010
0001
0000
,
1000
0000
0010
0000
,
0100
0001
0000
0010
,
0010
0000
0001
0000
,
1000
0000
0000
0010
,
0100
0000
0001
0010
,
0100
0000
1001
0000
,
0001
1000
0001
0000
,
0100
0010
0100
0000
,
1000
0000
1000
0000
,
0001
0001
0001
0000
,
1001
0000
0100
0000
,
0010
0000
1001
0000
,
0002
0000
0000
0003
,
0200
0000
1300
0000
,
1001
0000
0100
0000
,
0010
0000
1001
0000
,
2000
0000
0000
3000
,
0200
0000
0301
0000
,
0020
0000
2030
0000
,
3200
0000
0320
0000
,
0230
0000
0000
0300
,
0010
0000
1001
0000
,
0110
0000
2000
0000
,
3002
0000
0103
0000
,
1000
0100
0000
1000
,
0000
0001
0100
0000
,
0110
0000
0002
0000
,
2003
0000
3100
0000
,
0001
0100
0000
0001
,
0000
1000
0100
0000
,
0110
0000
2000
0000
,
3002
0000
0013
0000
,
1000
0010
0000
1000
,
0000
0001
0100
0000
,
0110
0000
0002
0000
,
2003
0000
3010
0000
,
0001
0010
0000
0001
,
0000
1000
0010
0010
,
0000
1000
0000
1010
,
0000
0000
0000
1100
,
0000
0001
0000
0011
,
0000
0000
0000
0101
,
0000
0000
0010
0000
,
0000
0000
1000
0000
,
0001
0000
0000
0010
,
0200
0000
0000
0300
,
0000
0000
0100
0000
,
0000
0000
0001
0000
,
1000
0000
0000
0100
,
0020
0000
0000
0030
,
0000
0001
0000
1000
,
1000
0100
0001
0000
,
1000
0000
0100
0000
,
0010
0001
0000
0100
,
0100
0000
0001
0000
,
1000
0000
0000
0100
,
0010
0000
0001
0100
,
0010
0000
1001
0000
,
0001
1000
0001
0000
,
0010
0100
0010
0000
,
1000
0000
1000
0000
,
0001
0001
0001
0000
,
0110
0000
0000
0000
;

//---------------dance-single - ----------------
#NOTES:
     dance-single:
     :
     Hard:
     8:
     0.309,0.312,0.149,0.149,0.000: // measure 1
0000
0000
0000
0000
,  // measure 2
0000
0000
0000
0000
,  // measure 3
0000
0000
0000
0000
,  // measure 4
1000
0010
0100
0100
,  // measure 5
0001
0010
0100
0000
,  // measure 6
0010
0000
1000
0001
,  // measure 7
1000
0100
0000
1000
,  // measure 8
0100
0001
0100
0000
,  // measure 9
1000
0010
0000
0100
,  // measure 10
0001
1000
0100
0010
,  // measure 11
0001
0000
1100
0000
,  // measure 12
0010
0001
0010
0100
,  // measure 13
0010
0100
1000
0000
,  // measure 14
1000
0000
0100
0001
,  // measure 15
0010
0010
0010
0000
,  // measure 16
0001
0010
0100
0100
,  // measure 17
1000
0010
0100
0000
,  // measure 18
0010
0000
0001
1000
,  // measure 19
0001
0100
0000
0001
,  // measure 20
0100
1000
0100
0000
,  // measure 21
0001
0010
0000
0100
,  // measure 22
1000
0001
0100
0010
,  // measure 23
1000
0000
0101
0000
,  // measure 24
0010
1000
0010
0100
,  // measure 25
0010
0100
0001
0000
,  // measure 26
0001
0000
0100
1000
,  // measure 27
0010
0010
0010
0000
,  // measure 28
0110
0000
0001
1000
,  // measure 29
0100
0000
1001
0000
,  // measure 30
0001
0000
0100
0000
,  // measure 31
1000
0000
0010
0000
,  // measure 32
0110
0000
1000
0001
,  // measure 33
0010
0000
1001
0000
,  // measure 34
1000
0000
0010
0000
,  // measure 35
0001
0000
0100
0000
,  // measure 36
1000
0100
0001
0100
,  // measure 37
2000
0000
3002
0000
,  // measure 38
0203
0000
0000
0300
,  // measure 39
0020
0030
1001
0000
,  // measure 40
0210
0000
0301
0000
,  // measure 41
0001
0100
1000
0000
,  // measure 42
0002
0003
0020
0130
,  // measure 43
1000
0001
0100
0000
,  // measure 44
0210
0000
1300
0000
,  // measure 45
1000
0100
0001
0000
,  // measure 46
2000
3000
0020
0130
,  // measure 47
0001
1000
0100
0000
,  // measure 48
0120
0000
0031
0000
,  // measure 49
0001
0010
1000
0000
,  // measure 50
0002
0003
0200
0310
,  // measure 51
1000
0001
0010
0000
,  // measure 52
0120
0000
1030
0000
,  // measure 53
1000
0010
0001
0000
,  // measure 54
2000
3000
0200
0310
,  // measure 55
0000
0020
0100
0130
,  // measure 56
0000
0010
0000
1100
,  // measure 57
0000
1000
0000
0101
,  // measure 58
0000
0010
0000
0101
,  // measure 59
0000
0001
0000
1100
,  // measure 60
0000
0000
1000
0000
,  // measure 61
0001
0000
1000
0000
,  // measure 62
0100
0000
0001
0000
,  // measure 63
0001
0100
0010
1000
,  // measure 64
0001
0000
0001
0000
,  // measure 65
1000
0000
0001
0000
,  // measure 66
0100
0000
1000
0000
,  // measure 67
0100
0000
1000
0001
,  // measure 68
1000
0100
0010
0010
,  // measure 69
0001
0100
0010
0000
,  // measure 70
0100
0000
1000
0001
,  // measure 71
1000
0010
0000
1000
,  // measure 72
0010
0001
0010
0000
,  // measure 73
1000
0100
0000
0010
,  // measure 74
0001
1000
0010
0100
,  // measure 75
0001
0000
1010
0000
,  // measure 76
0100
0001
0100
0010
,  // measure 77
0100
0010
1000
0000
,  // measure 78
1000
0000
0010
0001
,  // measure 79
0100
0100
0100
0000
,  // measure 80
0110
0000
0000
0000
;
