#TITLE:Unbound Mind;
#SUBTITLE:;
#ARTIST:D-crew;
#TITLETRANSLIT:;
#SUBTITLETRANSLIT:;
#ARTISTTRANSLIT:;
#CREDIT:;
#BANNER:Unbound Mind.png;
#BACKGROUND:Unbound Mind-bg.png;
#LYRICSPATH:;
#CDTITLE:./CDTITLES/pop'n music.png;
#MUSIC:Unbound Mind.mp3;
#OFFSET:1.372;
#SAMPLESTART:35.624;
#SAMPLELENGTH:15.640;
#SELECTABLE:YES;
#BPMS:0.000=162.000;
#STOPS:;
#BGCHANGES:;

//---------------dance-single - ----------------
#NOTES:
     dance-single:
     :
     Beginner:
     2:
     0.133,0.204,0.042,0.000,0.000:
0000
0000
0000
0000
,
0000
0000
0000
0000
,
0000
0000
0000
0000
,
0000
0000
0000
0000
,
0000
0000
0000
0000
,
1000
0000
0000
0000
,
0001
0000
0000
0000
,
1000
1000
0000
0000
,
0001
0001
0000
0000
,
1000
0000
0000
0000
,
0001
0000
0000
0000
,
0100
0000
0100
0000
,
0100
0000
0100
0000
,
0001
0000
0000
0000
,
1000
0000
0000
0000
,
0010
0000
0010
0000
,
0010
0000
0010
0000
,
1000
0000
0000
0000
,
0001
0000
0000
0000
,
0100
0000
0100
0000
,
0100
0000
0100
0000
,
0001
0000
0000
0000
,
1000
0000
0000
0000
,
0010
0000
0010
0000
,
0010
0000
0010
0000
,
1000
0000
1000
0000
,
1000
0000
0000
0000
,
0010
0000
0010
0000
,
0010
0000
0000
0000
,
0100
0000
0100
0000
,
0100
0000
0000
0000
,
0010
0000
0100
0000
,
0001
0000
1001
0000
,
0001
0000
0001
0000
,
0001
0000
0000
0000
,
0010
0000
0010
0000
,
0010
0000
0000
0000
,
0100
0000
0000
0000
,
0010
0000
0010
0000
,
1001
0000
0000
0000
,
0100
0000
1001
0000
,
0100
0000
0000
0000
,
0010
0000
0000
0000
,
0100
0000
0000
0000
,
0010
0000
0000
0000
,
1000
0000
0000
0000
,
0001
0000
0100
0000
,
1000
0000
0000
0000
,
0001
0000
0000
0000
,
0010
0000
0000
0000
,
0100
0000
0000
0000
,
0010
0000
0000
0000
,
0100
0000
0000
0000
,
0001
0000
0000
0000
,
1000
0000
0100
0000
,
0001
0000
0000
0000
,
1000
0000
0000
0000
,
1000
0000
0000
0000
,
0001
0000
0000
0000
,
1000
1000
0000
0000
,
0001
0001
0000
0000
,
0001
0000
0000
0000
,
1000
0000
0000
0000
,
0001
0000
0000
0000
,
0100
0000
1001
0000
;

//---------------dance-single - ----------------
#NOTES:
     dance-single:
     :
     Easy:
     3:
     0.220,0.238,0.053,0.169,0.000:
0000
0000
0000
0000
,
0000
0000
0000
0000
,
0000
0000
0000
0000
,
0000
0000
0000
0000
,
0000
0000
0000
0000
,
2000
0000
0000
3000
,
0002
0000
0000
0003
,
1000
1000
0000
0000
,
0001
0001
0000
0000
,
1000
0000
1000
0000
,
0001
0000
0001
0000
,
0100
0100
0100
0000
,
0100
0100
0100
0000
,
0001
0000
0001
0000
,
1000
0000
1000
0000
,
0010
0010
0010
0000
,
0010
0010
0010
0000
,
1000
0000
1000
0000
,
0001
0000
0001
0000
,
0100
0100
0100
0000
,
0100
0100
0100
0000
,
0001
0000
0001
0000
,
1000
0000
1000
0000
,
0010
0010
0010
0000
,
0100
0100
1001
0000
,
1000
0000
1000
0000
,
1000
1000
0100
0100
,
0010
0000
0010
0000
,
0010
0010
0001
0001
,
0100
0000
0100
0000
,
0100
0100
0010
0010
,
0010
0000
0100
0000
,
0001
1000
1001
0000
,
0001
0000
0001
0000
,
0001
0001
0100
0100
,
0010
0000
0010
0000
,
0010
0010
1000
1000
,
0100
0000
0000
0000
,
0010
0000
0100
0000
,
2002
0000
0000
3003
,
0100
0100
1001
0000
,
0200
0000
0300
0000
,
0020
0000
0030
0000
,
0200
0000
0300
0000
,
0020
0000
0030
0000
,
0100
0000
0010
0000
,
0001
0000
0100
0000
,
0010
0000
1000
0000
,
0001
0000
1000
0000
,
0020
0000
0030
0000
,
0200
0000
0300
0000
,
0020
0000
0030
0000
,
0200
0000
0300
0000
,
0010
0000
0100
0000
,
0001
0000
0010
0000
,
0100
0000
1000
0000
,
0010
0000
0010
0000
,
2000
0000
0000
3000
,
0002
0000
0000
0003
,
1000
1000
0000
0000
,
0001
0001
0000
0000
,
0002
0000
0000
0003
,
2000
0000
0000
3000
,
0001
0001
0000
0000
,
0100
0100
1001
0000
;

//---------------dance-single - ----------------
#NOTES:
     dance-single:
     :
     Medium:
     5:
     0.285,0.374,0.179,0.190,0.000:
0000
0000
0000
0000
,
0000
0000
0000
0000
,
0000
0000
0000
0000
,
0000
0000
0000
0000
,
0000
0000
0000
0000
,
0001
0002
0000
0003
,
1000
2000
0000
3000
,
0001
0001
0010
0000
,
1000
0001
1001
0000
,
0001
0000
0010
0000
,
1000
0000
0010
0000
,
0001
0010
0001
0000
,
1000
0010
1000
0000
,
0001
0000
0100
0000
,
1000
0000
0100
0000
,
0001
0100
0001
0000
,
1000
0100
1001
0000
,
0001
0000
0010
0000
,
1000
0000
0010
0000
,
0001
0010
0001
0000
,
1000
0010
1000
0000
,
0001
0000
0100
0000
,
1000
0000
0100
0000
,
0001
0100
0001
0000
,
1001
0110
1001
0000
,
0001
0000
0001
0000
,
0001
0010
0001
0010
,
0100
0000
0100
0000
,
0100
1000
0100
1000
,
0010
0000
0010
0000
,
0010
0100
0010
0100
,
0110
0000
0110
0000
,
1000
0001
1001
0000
,
1000
0000
1000
0000
,
1000
0010
1000
0010
,
0100
0000
0100
0000
,
0100
0001
0100
0001
,
0010
1001
0000
0010
,
0100
0110
0010
0100
,
2002
0000
0000
3003
,
1001
0110
1001
0000
,
0020
0000
0030
1000
,
0020
0000
0030
0001
,
0020
0000
0030
1000
,
0020
0000
0030
0001
,
0010
0000
0100
0100
,
1000
0000
0010
0010
,
0100
0000
0001
0001
,
1000
0000
0001
1001
,
0200
0000
0300
1000
,
0200
0000
0300
0001
,
0200
0000
0300
1000
,
0200
0000
0300
0001
,
0100
0000
0010
0010
,
1000
0000
0100
0100
,
0020
0030
0002
0003
,
0110
0000
0010
0000
,
0001
0002
0000
0003
,
1000
2000
0000
3000
,
0001
0001
0010
0000
,
1000
0001
1000
0000
,
1000
2000
0000
3000
,
0001
0002
0000
0003
,
1000
1000
0010
0000
,
0001
0010
1001
0000
;

//---------------dance-single - ----------------
#NOTES:
     dance-single:
     :
     Hard:
     7:
     0.337,0.374,0.190,0.179,0.000:
0000
0000
0000
0000
,
0000
0000
0000
0000
,
0000
0000
0000
0000
,
0000
0000
0000
0000
,
0000
0000
0000
0000
,
0100
2000
0000
3000
,
0010
0002
0000
0003
,
1000
0001
0100
0000
,
0001
0100
1001
0000
,
1000
1000
0100
0000
,
0001
0001
0100
0000
,
1000
0100
1000
1000
,
0001
0100
0001
0001
,
1000
1000
0010
0000
,
0001
0001
0010
0000
,
1000
0010
1000
1000
,
0001
0010
1001
0000
,
1000
1000
0100
0000
,
0001
0001
0100
0000
,
1000
0100
1000
1000
,
0001
0100
0001
0001
,
1000
1000
0010
0000
,
0001
0001
0010
0000
,
1000
0010
1000
1000
,
1001
0110
1001
0000
,
1000
1000
1000
1000
,
1000
0100
1000
0100
,
0010
0010
0010
0010
,
0010
0001
0010
0001
,
0100
0100
0100
0100
,
0100
0010
0100
0010
,
0011
0000
1100
0000
,
0001
1000
1001
0000
,
0001
0001
0001
0001
,
0001
0100
0001
0100
,
0010
0010
0010
0010
,
0010
1000
0010
1000
,
0100
1100
0000
0010
,
0001
0011
0100
1000
,
2002
0000
0000
3003
,
1001
0110
1001
0000
,
0200
0000
0310
0001
,
0200
0000
0310
1000
,
0200
0000
0310
0001
,
0200
0000
0310
1000
,
0100
0100
0010
0000
,
0001
0001
0100
0000
,
0010
0010
1000
1000
,
0001
0001
1000
1001
,
0020
0000
0130
0001
,
0020
0000
0130
1000
,
0020
0000
0130
0001
,
0020
0000
0130
1000
,
0010
0010
0100
0000
,
0001
0001
0010
0000
,
0200
0300
0001
0001
,
0110
0000
0100
0000
,
0010
2000
0000
3000
,
0010
0002
0000
0003
,
1000
0001
0010
0000
,
0001
1000
0100
0000
,
0100
0002
0000
0003
,
0100
2000
0000
3000
,
0001
1000
0100
0000
,
1000
1100
1001
0000
;
