#TITLE:This is Love;
#SUBTITLE:;
#ARTIST:D-crew;
#TITLETRANSLIT:;
#SUBTITLETRANSLIT:;
#ARTISTTRANSLIT:;
#CREDIT:;
#BANNER:This is Love.png;
#BACKGROUND:This is Love-bg.png;
#LYRICSPATH:;
#CDTITLE:./CDTITLES/beatmaniaIIDX.png;
#MUSIC:This is Love.mp3;
#OFFSET:1.285;
#SAMPLESTART:85.773;
#SAMPLELENGTH:17.080;
#SELECTABLE:YES;
#BPMS:0.000=175.000;
#STOPS:;
#BGCHANGES:;

//---------------dance-single - ----------------
#NOTES:
     dance-single:
     :
     Beginner:
     2:
     0.142,0.254,0.127,0.000,0.000:
0000
0000
0000
0000
,
0000
0000
0000
0000
,
0000
0000
0000
0000
,
0000
0000
0000
0000
,
0000
0000
0000
0000
,
0000
0000
0000
0000
,
0001
0000
0000
0000
,
0010
0000
0000
0000
,
0001
0001
0000
0000
,
1001
0000
0000
0000
,
1000
0000
0000
0000
,
0010
0000
0000
0000
,
1000
0000
0000
0000
,
0001
0000
0000
0000
,
0000
1000
0000
1000
,
0000
0001
0000
0001
,
0000
0100
0000
0100
,
0000
0010
0000
0010
,
0000
1000
0000
0010
,
0000
0001
0000
0010
,
0000
0010
0000
0000
,
1001
0000
0000
0000
,
0001
0000
0001
0000
,
1000
0000
1000
0000
,
0100
0000
0010
0000
,
1001
0000
0000
0000
,
1000
0000
0000
0000
,
0001
0000
0000
0000
,
1001
0000
0000
0000
,
1001
0000
0000
0000
,
0000
0001
0000
0000
,
0000
0000
0000
0000
,
0100
0000
0000
0000
,
0010
0000
0000
0000
,
0000
1000
0000
0000
,
0000
0000
0000
0000
,
0010
0000
0000
0000
,
0100
0000
1001
0000
,
0000
0001
0001
0000
,
0010
0000
1000
0000
,
1000
0000
0001
0000
,
1000
0000
1001
0000
,
0001
0000
0000
0000
,
1000
0000
0000
0000
,
1000
0000
0100
0000
,
0010
0000
1001
0000
,
1000
0000
0000
0000
,
0010
0000
0000
0000
,
1000
0000
0000
0000
,
0000
0000
0000
0000
,
0001
0000
0000
0000
,
0010
0000
0000
0000
,
0001
0000
0000
0000
,
0000
0000
0000
0000
,
0001
0000
0000
0000
,
0001
0000
0000
0000
,
0001
0000
0000
0000
,
0001
0000
0000
0000
,
1000
0000
0000
0000
,
1000
0000
0000
0000
,
1000
0000
0000
0000
,
1000
0000
0000
0000
,
1001
0000
0000
0000
,
0000
0000
0000
0000
,
1000
0000
0000
0000
,
0100
0000
0010
0000
,
0100
0000
0000
0000
,
1001
0000
0000
0000
,
0001
0000
0010
0000
,
0100
0000
0010
0000
,
0100
0000
0000
0000
,
1001
0000
0000
0000
,
1000
0000
0000
0000
,
0001
0000
0100
0000
,
0010
0000
0010
0000
,
1001
0000
0000
0000
,
0001
0000
0010
0000
,
0100
0000
0100
0000
,
0010
0000
0010
0000
,
1001
0000
0100
0000
,
1001
0000
0000
0000
;

//---------------dance-single - ----------------
#NOTES:
     dance-single:
     :
     Easy:
     4:
     0.228,0.366,0.172,0.181,0.000:
0000
0000
0000
0000
,
0000
0000
0000
0000
,
0000
0000
0000
0000
,
0000
0000
0000
0000
,
0000
0000
0000
0000
,
0000
0000
0000
0000
,
1000
0000
0001
0000
,
0100
0000
0010
0000
,
1000
1000
1000
0000
,
1001
0000
0000
0000
,
0001
0000
1000
0000
,
0100
0000
0010
0000
,
0002
0000
0000
0003
,
2000
0000
0000
3000
,
0000
0001
0000
0100
,
0000
1000
0000
0100
,
0000
1001
0000
0000
,
0110
0000
1001
0000
,
0001
0100
0000
0010
,
1000
0100
0000
0010
,
0000
0110
0000
0000
,
1001
0000
0000
0000
,
1000
0100
1000
0000
,
0001
0100
0001
0000
,
1000
0000
0010
0000
,
1001
0000
0000
0000
,
0002
0000
0003
0000
,
2000
0000
3000
0000
,
1001
0000
0000
0000
,
0220
0000
0330
0000
,
0000
1000
0000
1000
,
0100
0000
0001
0000
,
0010
0000
0001
0000
,
0100
0000
0100
0000
,
0000
0001
0000
0001
,
0100
0000
1000
0000
,
0100
0000
1000
0000
,
0100
0000
0110
0000
,
0000
1000
1000
1000
,
0100
0000
0001
0000
,
0002
0003
2000
3000
,
0001
0000
1001
0000
,
2000
0000
3000
0000
,
0002
0000
0003
0000
,
0001
0001
0001
0000
,
1000
1000
1001
0000
,
0002
0000
0003
0000
,
0200
0000
0300
0000
,
0002
0000
0003
0000
,
0001
0000
1000
0000
,
2000
0000
3000
0000
,
0200
0000
0300
0000
,
2000
0000
3000
0000
,
1000
0000
0001
0000
,
1000
0000
1000
0000
,
0010
0000
0010
0000
,
0100
0000
0100
0000
,
1000
0000
1000
0000
,
0001
0000
0001
0000
,
0100
0000
0100
0000
,
0010
0000
0010
0000
,
0001
0000
0001
0000
,
2002
0000
0000
3003
,
0000
0000
0000
0000
,
0001
0000
0100
0000
,
0010
0000
0100
0000
,
0010
0000
0001
0000
,
1001
0000
0000
0000
,
1000
0000
0100
0000
,
0010
0000
0100
0000
,
0010
0000
1000
0000
,
1001
0000
0000
0000
,
0001
0000
0010
0000
,
1000
0000
0010
0000
,
0100
0010
0110
0000
,
1001
0000
0000
0000
,
1000
0000
0100
0000
,
0010
0010
0010
0000
,
0100
0100
0100
0000
,
1001
0010
0010
0010
,
2002
0000
0000
3003
;

//---------------dance-single - ----------------
#NOTES:
     dance-single:
     :
     Medium:
     6:
     0.339,0.439,0.326,0.199,0.000:
0000
0000
0000
0000
,
0000
0000
0000
0000
,
0000
0000
0000
0000
,
0000
0000
0000
0000
,
0000
0000
0000
0000
,
0000
0000
0000
0000
,
0001
0010
1000
0000
,
0010
0001
0100
0000
,
0001
0001
0011
0000
,
1000
0100
0000
1001
,
1000
0010
0001
0000
,
0010
1000
0100
0000
,
2000
0000
0000
3000
,
0020
0000
0031
0001
,
0000
1100
0000
0010
,
0000
0101
0000
0010
,
0000
1001
0000
0100
,
0110
0000
1001
0000
,
1000
0011
0000
0100
,
0001
1010
0000
0100
,
0010
0110
0000
0110
,
1001
0000
0010
0010
,
0001
0010
0001
0000
,
1000
0010
1000
0000
,
0001
0010
0100
0000
,
1001
0000
0010
0000
,
2000
0000
3100
0000
,
0002
0000
0103
0000
,
1001
0000
0010
0100
,
1100
0000
0000
0000
0000
1000
0001
1000
,
0000
0001
0001
0001
,
0010
0000
1000
0000
,
1000
1000
1000
0000
,
0010
0000
0010
0010
,
0000
1000
1000
1000
,
0010
0000
0001
0000
,
0001
0001
0001
0000
,
0010
0000
0110
0010
,
0000
0001
0010
0001
,
0010
0000
1000
0100
,
2000
3000
0002
0003
,
1000
0001
1001
0000
,
0002
0003
0011
0000
,
2000
3000
1010
0000
,
1000
0100
0010
0011
,
0001
0010
1100
0000
,
2000
0000
3100
0000
,
0020
0000
0130
0000
,
2000
0000
3001
0000
,
1000
0000
0001
0000
,
0002
0000
0103
0000
,
0020
0000
0130
0000
,
0002
0000
1003
0000
,
0001
0001
1000
1000
,
0001
0001
0001
0010
,
0100
0100
0100
1000
,
0010
0010
0010
0100
,
0001
0001
0001
0000
,
1000
1000
1000
0100
,
0010
0010
0010
0001
,
0100
0100
0100
0010
,
1000
1000
1000
0000
,
2002
0000
0000
3003
,
0000
0000
0001
0001
,
1000
0001
0010
0000
,
0011
0000
1010
0000
,
0100
0001
1000
0000
,
1001
0000
0000
0000
,
0001
1000
0010
0000
,
1010
0000
0011
0000
,
0200
0300
0002
0003
,
1001
0000
0100
0100
,
1000
0001
0100
0000
,
0011
0000
1100
0000
,
0001
0010
0101
0000
,
1001
0000
0010
0010
,
0002
0003
0020
0030
,
1100
0100
0100
0010
,
0011
0010
0010
0100
,
1001
0010
0010
0100
,
2002
0000
0000
3003
;

//---------------dance-single - ----------------
#NOTES:
     dance-single:
     :
     Hard:
     9:
     0.437,0.548,0.462,0.226,0.000: // measure 1
0000
0000
0000
0000
,  // measure 2
0000
0000
0000
0000
,  // measure 3
0000
0000
0000
0000
,  // measure 4
0000
0000
0000
0000
,  // measure 5
0000
0000
0000
0000
,  // measure 6
0000
0000
0000
0000
,  // measure 7
1000
0100
0001
0010
,  // measure 8
0100
1000
0010
0001
,  // measure 9
1000
1100
1000
1100
,  // measure 10
0001
0010
0001
1001
,  // measure 11
0001
0100
1000
0010
,  // measure 12
0100
0001
0010
1000
,  // measure 13
0002
0000
0023
0000
,  // measure 14
0230
0000
1300
1000
,  // measure 15
1000
0011
0001
0100
,  // measure 16
0001
1010
1000
0100
,  // measure 17
0010
1001
0100
0010
,  // measure 18
0110
0010
1001
0000
,  // measure 19
0001
1100
1000
0010
,  // measure 20
1000
0101
0001
0010
,  // measure 21
0100
0110
0010
0110
,  // measure 22
1001
0000
0110
0100
,  // measure 23
1000
0100
1100
0000
,  // measure 24
0001
0100
0101
0000
,  // measure 25
1000
0100
0010
0001
,  // measure 26
1001
0000
0110
0000
,  // measure 27
0002
0000
0013
0001
,  // measure 28
2000
0000
3010
1000
,  // measure 29
2002
3003
0100
0010
,  // measure 30
0011
0010
0100
1001
,  // measure 31
0000
1000
1000
1000
,  // measure 32
0100
1000
0001
0010
,  // measure 33
0001
0001
0001
1000
,  // measure 34
0100
0010
0100
0100
,  // measure 35
0000
0001
0001
0001
,  // measure 36
0100
0001
1000
0010
,  // measure 37
1000
1000
1000
0001
,  // measure 38
0100
0010
0110
0100
,  // measure 39
0000
1000
0100
1000
,  // measure 40
0100
1000
0001
0010
,  // measure 41
0002
0013
2000
3100
,  // measure 42
0001
1000
1001
0000
,  // measure 43
2000
3001
1100
0000
,  // measure 44
0002
1003
0101
0000
,  // measure 45
0001
0011
0100
1100
,  // measure 46
1000
0100
0011
0000
,  // measure 47
0002
0010
0000
0013
,  // measure 48
0200
0010
0000
0310
,  // measure 49
0002
1000
0000
1003
,  // measure 50
0001
0100
0010
1000
,  // measure 51
2000
0010
0000
3010
,  // measure 52
0200
0010
0000
0310
,  // measure 53
2000
0001
0000
3001
,  // measure 54
1000
1000
0001
0001
,  // measure 55
0001
0010
0100
1000
,  // measure 56
1000
0100
0010
0001
,  // measure 57
0001
0010
0100
1000
,  // measure 58
1000
0100
0010
0001
,  // measure 59
0001
0100
0010
1000
,  // measure 60
1000
0010
0100
0001
,  // measure 61
0001
0100
0010
1000
,  // measure 62
1000
0010
0100
0001
,  // measure 63
2002
0000
0000
3000
,  // measure 64
0000
0000
1000
1003
,  // measure 65
0001
1000
0100
0100
,  // measure 66
1100
0101
1100
0101
,  // measure 67
0010
1000
0001
0010
,  // measure 68
1001
0000
0000
0000
,  // measure 69
1000
0001
0100
0100
,  // measure 70
0101
1100
0101
1100
,  // measure 71
0020
0031
2000
3010
,  // measure 72
1001
0000
0010
0100
,  // measure 73
0001
1000
0010
0010
,  // measure 74
1100
0101
0011
1010
,  // measure 75
1000
0100
1010
0001
,  // measure 76
1001
0000
0100
0010
,  // measure 77
2100
3100
0201
0301
,  // measure 78
0011
0010
0100
1000
,  // measure 79
1100
0100
0010
0001
,  // measure 80
1001
0100
0010
0100
,  // measure 81
2002
0000
0000
3003
;
