#TITLE:The cadet of Magic;
#SUBTITLE:;
#ARTIST:Dormir;
#TITLETRANSLIT:;
#SUBTITLETRANSLIT:;
#ARTISTTRANSLIT:;
#CREDIT:;
#BANNER:The cadet of Magic.png;
#BACKGROUND:;
#LYRICSPATH:;
#CDTITLE:./CDTITLES/pop'n music.png;
#MUSIC:The cadet of Magic.mp3;
#OFFSET:1.570;
#SAMPLESTART:13.601;
#SAMPLELENGTH:15.000;
#SELECTABLE:YES;
#BPMS:0.000=142.000;
#STOPS:;
#BGCHANGES:;

//---------------dance-single - ----------------
#NOTES:
     dance-single:
     :
     Beginner:
     1:
     0.070,0.110,0.030,0.000,0.000: // measure 1
0000
0000
0000
0000
,  // measure 2
0000
0000
0000
0000
,  // measure 3
0000
0000
0000
0000
,  // measure 4
0000
0000
0000
0000
,  // measure 5
0000
0000
0000
0000
,  // measure 6
1000
0000
0000
0000
,  // measure 7
0000
0000
0000
0000
,  // measure 8
0001
0000
0000
0000
,  // measure 9
0010
0000
0010
0000
,  // measure 10
0000
0000
0000
0001
,  // measure 11
0000
0000
0000
0010
,  // measure 12
0000
0000
0000
1000
,  // measure 13
0000
1000
0000
0000
,  // measure 14
0100
0000
0000
0000
,  // measure 15
0010
0000
0000
0000
,  // measure 16
0001
0000
0000
0000
,  // measure 17
0010
0000
0000
0000
,  // measure 18
1000
0000
0000
0000
,  // measure 19
0010
0000
0000
0000
,  // measure 20
0010
0000
0000
0000
,  // measure 21
0001
0000
0000
0000
,  // measure 22
0001
0000
0000
0000
,  // measure 23
0100
0000
0000
0000
,  // measure 24
0100
0000
0000
0000
,  // measure 25
1000
0000
0000
0000
,  // measure 26
0001
0000
0000
0000
,  // measure 27
0000
0000
0000
0000
,  // measure 28
0000
0000
0000
0000
,  // measure 29
0000
0000
0000
0000
,  // measure 30
1000
0000
0000
0000
,  // measure 31
0000
0000
0000
0000
,  // measure 32
0000
0000
0000
0000
,  // measure 33
0000
0000
0000
0000
,  // measure 34
1000
0000
0000
0000
,  // measure 35
0100
0000
0000
0000
,  // measure 36
1000
0000
0000
0000
,  // measure 37
0110
0000
0000
0000
,  // measure 38
1000
0000
0000
0000
,  // measure 39
0010
0000
0000
0000
,  // measure 40
1000
0000
0000
0000
,  // measure 41
0110
0000
0000
0000
,  // measure 42
0001
0000
0000
0000
,  // measure 43
1000
0000
0000
0000
,  // measure 44
0001
0000
0000
0000
,  // measure 45
0001
0000
1000
0000
,  // measure 46
0001
0000
0000
0000
,  // measure 47
0100
0000
0000
0000
,  // measure 48
0001
0000
0000
0000
,  // measure 49
0110
0000
0000
0000
,  // measure 50
0100
0000
0000
0000
,  // measure 51
0010
0000
0000
0000
,  // measure 52
0001
0000
0000
0000
,  // measure 53
1000
0000
0000
0000
,  // measure 54
0100
0000
0000
0000
,  // measure 55
0010
0000
0000
0000
,  // measure 56
0001
0000
0000
0000
,  // measure 57
1000
0000
0000
0000
;

//---------------dance-single - ----------------
#NOTES:
     dance-single:
     :
     Easy:
     2:
     0.163,0.223,0.039,0.404,0.000: // measure 1
0000
0000
0000
0000
,  // measure 2
0000
0000
0000
0000
,  // measure 3
0000
0000
0000
0000
,  // measure 4
0000
0000
0000
0000
,  // measure 5
0000
0000
0000
0000
,  // measure 6
0002
0003
0000
0000
,  // measure 7
0020
0030
0000
0000
,  // measure 8
0002
0003
0000
0000
,  // measure 9
2000
3000
0001
0001
,  // measure 10
2000
0000
3000
0000
,  // measure 11
0200
0000
0300
0000
,  // measure 12
0020
0000
0030
0000
,  // measure 13
2000
0000
0000
0000
,  // measure 14
0002
0000
3003
0000
,  // measure 15
0020
0000
0030
0000
,  // measure 16
0100
0000
0100
0000
,  // measure 17
0200
0000
0300
0000
,  // measure 18
0002
0000
0003
0000
,  // measure 19
0100
0000
0010
0000
,  // measure 20
0200
0000
0300
0000
,  // measure 21
1000
0000
0010
0000
,  // measure 22
2000
0000
3000
0000
,  // measure 23
0010
0000
0100
0000
,  // measure 24
0020
0000
0030
0000
,  // measure 25
0001
0000
0100
0000
,  // measure 26
2000
0000
3000
0000
,  // measure 27
0200
0000
0300
0000
,  // measure 28
0002
0000
0003
0000
,  // measure 29
0020
0000
0030
0000
,  // measure 30
2000
0000
3000
0000
,  // measure 31
0200
0000
0300
0000
,  // measure 32
0002
0000
0003
0000
,  // measure 33
0020
0000
0030
0000
,  // measure 34
0002
0000
0003
0000
,  // measure 35
0020
0000
0030
0000
,  // measure 36
0001
0000
0010
0000
,  // measure 37
0110
0000
0010
0010
,  // measure 38
0002
0000
0003
0000
,  // measure 39
0200
0000
0300
0000
,  // measure 40
0001
0000
0100
0000
,  // measure 41
0110
0000
0100
0100
,  // measure 42
1000
0000
2000
3000
,  // measure 43
0001
0000
0002
0003
,  // measure 44
1000
0000
0001
0000
,  // measure 45
2000
3000
0002
0003
,  // measure 46
2000
0000
3000
0000
,  // measure 47
0020
0000
0030
0000
,  // measure 48
1000
0000
0010
0000
,  // measure 49
0110
0000
0110
0000
,  // measure 50
0020
0000
0030
0000
,  // measure 51
0200
0000
0300
0000
,  // measure 52
2000
0000
3000
0000
,  // measure 53
0002
0000
0003
0000
,  // measure 54
0020
0000
0030
0000
,  // measure 55
0200
0000
0300
0000
,  // measure 56
2000
0000
3000
0000
,  // measure 57
0002
0000
0003
0000
;

//---------------dance-single - ----------------
#NOTES:
     dance-single:
     :
     Medium:
     4:
     0.280,0.391,0.138,0.828,0.000: // measure 1
0000
0000
0000
0000
,  // measure 2
0000
0000
0000
0000
,  // measure 3
0000
0000
0000
0000
,  // measure 4
0000
0000
0000
0000
,  // measure 5
0000
0000
0000
0000
,  // measure 6
0002
0003
2000
3000
,  // measure 7
0020
0030
0200
0300
,  // measure 8
0002
0003
2000
3000
,  // measure 9
1000
0100
0010
0001
,  // measure 10
2000
0000
0020
3030
,  // measure 11
0200
0000
0002
0303
,  // measure 12
0020
0000
0200
0330
,  // measure 13
2000
0000
0000
0000
,  // measure 14
0002
0000
0000
3003
,  // measure 15
0020
0000
0000
0030
,  // measure 16
0100
1000
0001
0010
,  // measure 17
0200
0000
0020
0330
,  // measure 18
0002
0000
0000
0000
,  // measure 19
0200
0300
0020
0033
,  // measure 20
0200
0000
0000
0000
,  // measure 21
2000
3000
0020
0330
,  // measure 22
2000
0000
0000
0000
,  // measure 23
0020
0030
0200
3300
,  // measure 24
0020
0000
0000
0000
,  // measure 25
0002
0003
0200
0330
,  // measure 26
2200
0300
0200
3300
,  // measure 27
0220
0030
0020
0330
,  // measure 28
0202
0300
0200
0303
,  // measure 29
0220
0300
0200
0330
,  // measure 30
2020
0030
0002
3003
,  // measure 31
0220
0030
0002
0303
,  // measure 32
0202
0300
2000
3003
,  // measure 33
0220
0300
2000
3030
,  // measure 34
0002
0003
0020
0030
,  // measure 35
2000
3000
0020
0030
,  // measure 36
0002
0000
0020
0033
,  // measure 37
1010
0000
0011
0010
,  // measure 38
0002
0003
0200
0300
,  // measure 39
2000
3000
0200
0300
,  // measure 40
0002
0000
0200
0303
,  // measure 41
1100
0000
0101
0100
,  // measure 42
2000
3100
2000
3000
,  // measure 43
0002
0103
0002
0003
,  // measure 44
1000
0100
0010
0001
,  // measure 45
2000
3100
0010
0001
,  // measure 46
2000
3000
0020
0030
,  // measure 47
0002
0003
0020
0030
,  // measure 48
2000
0000
0020
3030
,  // measure 49
1100
0000
0011
0000
,  // measure 50
0020
0000
0000
0030
,  // measure 51
0200
0000
0000
0300
,  // measure 52
2000
0000
0000
3000
,  // measure 53
0002
0000
0000
0003
,  // measure 54
0020
0000
0000
0030
,  // measure 55
0200
0000
0000
0300
,  // measure 56
2000
0000
0000
3000
,  // measure 57
0002
0000
0000
0003
;

//---------------dance-single - ----------------
#NOTES:
     dance-single:
     :
     Hard:
     6:
     0.327,0.391,0.177,0.493,0.000: // measure 1
0000
0000
0000
0000
,  // measure 2
0000
0000
0000
0000
,  // measure 3
0000
0000
0000
0000
,  // measure 4
0000
0000
0000
0000
,  // measure 5
0000
0000
0000
0000
,  // measure 6
1000
1000
0001
0001
,  // measure 7
0100
0100
0010
0010
,  // measure 8
1000
1000
0001
0001
,  // measure 9
0001
0010
0100
1000
,  // measure 10
0002
0100
0000
0103
,  // measure 11
0020
1000
0000
1030
,  // measure 12
0200
0010
0000
0310
,  // measure 13
0002
1000
0000
1000
,  // measure 14
2000
0000
0000
3003
,  // measure 15
0200
0000
0000
0300
,  // measure 16
0010
0001
1000
0100
,  // measure 17
0020
0000
0100
0130
,  // measure 18
2000
0000
0000
0000
,  // measure 19
0010
0100
0010
3100
,  // measure 20
0020
0000
0000
0000
,  // measure 21
0001
0100
0001
0130
,  // measure 22
0002
0000
0000
0000
,  // measure 23
0100
0010
0100
0013
,  // measure 24
0200
0000
0000
0000
,  // measure 25
1000
0010
1000
0310
,  // measure 26
0022
0030
0010
0013
,  // measure 27
0220
0300
0100
0130
,  // measure 28
2200
0300
0100
3100
,  // measure 29
0220
0030
0010
0310
,  // measure 30
0102
1000
0100
1003
,  // measure 31
0120
1000
0100
1030
,  // measure 32
2010
0001
0010
3001
,  // measure 33
0210
0001
0010
0301
,  // measure 34
2000
3000
0200
0310
,  // measure 35
0002
0003
0200
0310
,  // measure 36
2000
0000
0100
3100
,  // measure 37
0101
1100
0101
0100
,  // measure 38
2000
3000
0020
0130
,  // measure 39
0002
0003
0020
0130
,  // measure 40
2000
0000
0010
3010
,  // measure 41
0011
1010
0011
0010
,  // measure 42
0002
0000
0013
0000
0000
0001
0001
0000
,  // measure 43
2000
0000
3010
0000
0000
1000
1000
0000
,  // measure 44
0001
0010
0100
1000
,  // measure 45
0002
0013
0200
1300
,  // measure 46
0002
0003
2000
3100
,  // measure 47
2000
3000
0002
0103
,  // measure 48
0002
0000
0100
0103
,  // measure 49
0011
1100
0101
1010
,  // measure 50
0200
0300
0100
0100
,  // measure 51
0020
0030
0010
0010
,  // measure 52
0002
0003
0001
0001
,  // measure 53
2000
3000
1000
1000
,  // measure 54
0200
0300
0100
0100
,  // measure 55
0020
0030
0010
0010
,  // measure 56
0002
0003
0001
0001
,  // measure 57
2000
3000
1000
1000
;
