#TITLE:TRUE♥LOVE (Clubstar's True Club Mix);
#SUBTITLE:;
#ARTIST:jun feat. Schanita;
#TITLETRANSLIT:TRUE LOVE (Clubstar's True Club Mix);
#SUBTITLETRANSLIT:;
#ARTISTTRANSLIT:;
#CREDIT:;
#BANNER:TRUE LOVE (Clubstar's True Club Mix).png;
#BACKGROUND:;
#LYRICSPATH:;
#CDTITLE:./CDTITLES/DanceDanceRevolution HOTTEST PARTY.png;
#MUSIC:TRUE LOVE (Clubstar's True Club Mix).mp3;
#OFFSET:3.497;
#SAMPLESTART:44.472;
#SAMPLELENGTH:14.220;
#SELECTABLE:YES;
#BPMS:0.000=135.000;
#STOPS:;
#BGCHANGES:;

//---------------dance-single - ----------------
#NOTES:
     dance-single:
     :
     Beginner:
     1:
     0.120,0.168,0.143,0.000,0.000:
0000
0000
0000
0000
,
0000
0000
0000
0000
,
0000
0000
0000
0000
,
0000
0000
0000
0000
,
0000
0000
0000
0000
,
0000
0000
0000
0000
,
0000
0000
0000
0000
,
1000
0000
0000
0000
,
1000
0000
0000
0000
,
0001
0000
0000
0000
,
0001
0000
0000
0000
,
1000
0000
0000
0000
,
0001
0000
0000
0000
,
0010
0000
0010
0000
,
1000
0000
0100
0000
,
0001
0000
0000
0000
,
1000
0000
0000
0000
,
0100
0000
0010
0000
,
0001
0000
0100
0000
,
0001
0000
1000
0000
,
1000
0000
0000
0000
,
1000
0000
0001
0000
,
0001
0000
0000
0000
,
0001
0000
1000
0000
,
1000
0000
0100
0000
,
1001
0000
0000
0000
,
0000
0000
0000
0000
,
1001
0000
0100
0000
,
0100
0000
0000
0100
,
0000
1000
0000
1000
,
1000
0000
0000
0000
,
1001
0000
0100
0000
,
0000
0010
0000
0010
,
0010
0000
0000
0000
,
0001
0000
0000
0000
,
1001
0000
0010
0000
,
1000
1000
0000
0000
,
0001
0001
0000
0000
,
0010
0010
0000
0000
,
1001
0000
0100
0000
,
0001
0001
0000
0000
,
1000
1000
0000
0000
,
0001
0000
0000
0000
,
0000
1001
0000
0000
,
0000
1001
0000
0000
,
0000
1001
0000
0000
,
1001
0000
0000
0000
,
0000
1001
0000
0000
,
0000
1001
0000
0000
,
0000
1001
0000
0000
,
1001
0000
0000
0000
,
0001
0000
0000
0000
,
0001
0000
0000
0000
,
1000
0000
0000
0000
,
1000
0000
0000
1001
;

//---------------dance-single - ----------------
#NOTES:
     dance-single:
     :
     Easy:
     3:
     0.182,0.252,0.184,0.143,0.000:
0000
0000
0000
0000
,
0000
0000
0000
0000
,
0000
0000
0000
0000
,
0000
0000
0000
0000
,
0000
0000
0000
0000
,
0000
0000
0000
0000
,
0000
0000
0000
0000
,
1000
0000
0000
0000
,
0001
0000
0000
0000
,
0100
0000
0000
0000
,
0010
0000
0010
0000
,
2000
0000
3100
0000
,
0002
0000
0103
0000
,
0010
0000
0100
0000
,
1000
0100
0100
0000
,
0002
0000
0013
0000
,
2000
0000
3010
0000
,
0100
0000
0010
0000
,
0001
0100
0001
0000
,
0002
0000
1000
1003
,
0000
0010
0000
0010
,
2000
0000
0001
3001
,
0000
0100
0000
0100
,
0002
0000
1000
1003
,
0000
0100
0000
0100
,
2002
0000
0000
0000
,
0000
3003
0000
0000
,
1001
0000
0100
0100
,
0100
0000
0000
0100
,
0000
1000
0000
1000
,
0002
0000
0000
0003
,
1001
0000
0100
0100
,
0000
0010
0000
0010
,
0100
0010
0000
0000
,
2000
0000
0000
3001
,
0110
0000
0010
0000
,
0100
1000
0000
0000
,
0001
1000
0000
0000
,
1000
0010
0000
0000
,
0110
0000
0100
0000
,
0010
0001
0000
0000
,
1000
0001
0000
0000
,
0002
0000
0000
1003
,
0000
0110
0000
1001
,
0000
1001
0000
0110
,
0000
0110
0000
0110
,
2000
0000
0000
3000
,
0000
1001
0000
0110
,
0000
0110
0000
1001
,
0000
0110
0000
0110
,
0002
0000
0000
0003
,
0001
0000
0000
0000
,
1000
0000
0000
0000
,
0010
0000
0010
0000
,
0100
0000
0100
1001
;

//---------------dance-single - ----------------
#NOTES:
     dance-single:
     :
     Medium:
     4:
     0.247,0.363,0.214,0.102,0.000:
0000
0000
0000
0000
,
0000
0000
0000
0000
,
0000
0000
0000
0000
,
0000
0000
0000
0000
,
0000
0000
0000
0000
,
0000
0000
0000
0000
,
0000
0000
0000
0000
,
0001
0000
0000
0001
,
1000
0000
0000
1000
,
0010
0000
0000
0010
,
0100
0000
0100
0000
,
0001
0000
0001
0010
,
1000
0000
1000
0010
,
0100
0000
0100
0010
,
0001
0010
0010
0000
,
1000
0000
1000
0100
,
0001
0000
0001
0100
,
0010
0000
0010
0100
,
1000
0010
1000
0001
,
2000
0010
0001
3001
,
0000
0100
0000
0100
,
0002
0100
1000
1003
,
0000
0010
0000
0010
,
2000
0100
0001
3001
,
0000
0010
0000
0010
,
0002
0000
2000
0000
,
0000
3003
0000
0000
,
1001
0110
0010
0010
,
0000
0010
0000
0010
,
0000
0001
0000
0001
,
2000
0000
0000
3001
,
0110
1001
0010
0010
,
0000
0100
0100
0100
,
0010
0010
0100
0100
,
0002
0000
0000
1003
,
1001
0110
0000
0100
,
0010
0001
0000
0001
,
1000
0001
0000
1000
,
0001
0100
0010
0010
,
1001
0110
0000
0010
,
0100
1000
0000
1000
,
0001
1000
0000
0001
,
2000
0000
0000
3001
,
0010
1001
0100
1001
,
0100
1001
0010
1001
,
0010
0110
0100
0110
,
0002
0000
0000
0013
,
0010
1001
0100
1001
,
0100
1001
0010
1001
,
0010
0110
0100
0110
,
2000
0000
0000
3100
,
1000
0000
0000
1000
,
0001
0000
0000
0001
,
0100
0000
0000
0100
,
0010
0100
0010
1001
;

//---------------dance-single - ----------------
#NOTES:
     dance-single:
     :
     Hard:
     7:
     0.311,0.363,0.296,0.102,0.000: // measure 1
0000
0000
0000
0000
,  // measure 2
0000
0000
0000
0000
,  // measure 3
0000
0000
0000
0000
,  // measure 4
0000
0000
0000
0000
,  // measure 5
0000
0000
0000
0000
,  // measure 6
0000
0000
0000
0000
,  // measure 7
0000
0000
0000
0000
,  // measure 8
1000
0000
0000
0000
0000
1000
1000
0000
,  // measure 9
0001
0000
0000
0000
0000
0001
0001
0000
,  // measure 10
0100
0000
0000
0000
0000
0100
0100
0000
,  // measure 11
0010
0010
0010
0000
,  // measure 12
1000
0001
1000
0100
,  // measure 13
0001
1000
0001
0100
,  // measure 14
0010
1000
0010
0100
,  // measure 15
1000
0000
0100
0010
0000
0000
0000
0000
,  // measure 16
0001
1000
0001
0010
,  // measure 17
1000
0001
1000
0010
,  // measure 18
0100
0001
0100
0010
,  // measure 19
0001
0000
0100
0000
0100
0001
1000
0000
,  // measure 20
0002
0100
1000
0013
,  // measure 21
0000
0000
0010
0000
0000
0100
0010
0000
,  // measure 22
2000
0010
0001
3100
,  // measure 23
0000
0000
0100
0000
0000
0010
0100
0000
,  // measure 24
0002
0010
1000
0103
,  // measure 25
0100
0000
0100
0000
0100
0010
0100
0000
,  // measure 26
2000
0000
0000
0001
0002
0000
0000
0000
,  // measure 27
0000
3003
0000
0000
,  // measure 28
0011
1010
0101
1100
,  // measure 29
0000
0100
0000
0100
,  // measure 30
0000
0000
1000
0000
0000
1000
1000
0000
,  // measure 31
0002
0000
1000
1003
,  // measure 32
1010
0011
1100
0101
,  // measure 33
0000
0000
0010
0000
0010
0010
0010
0000
,  // measure 34
0100
0100
0100
0000
0010
0010
0010
0000
,  // measure 35
2000
0000
0001
3001
,  // measure 36
1001
0011
1000
0010
,  // measure 37
0100
1000
0100
0010
,  // measure 38
0001
0000
1000
0000
0000
0001
0001
0000
,  // measure 39
1000
0000
0010
0000
0100
0100
0100
0000
,  // measure 40
1001
1100
0001
0100
,  // measure 41
0010
0001
0010
0100
,  // measure 42
1000
0000
0001
0000
0000
1000
1000
0000
,  // measure 43
0002
0000
1000
1003
,  // measure 44
1100
1100
0101
0101
,  // measure 45
1000
1100
0001
0101
,  // measure 46
1000
1000
1100
1100
,  // measure 47
2000
0000
0100
3100
,  // measure 48
0011
0011
1010
1010
,  // measure 49
0001
0011
1000
1010
,  // measure 50
0001
0001
0011
0011
,  // measure 51
0002
0000
0010
0013
,  // measure 52
0001
0000
0000
0000
0000
0001
0001
0000
,  // measure 53
1000
0000
0000
0000
0000
1000
1000
0000
,  // measure 54
0010
0000
0000
0000
0000
0010
0010
0000
,  // measure 55
0100
0000
0010
0100
0000
0000
1001
0000
;
