#TITLE:Stand up;
#SUBTITLE:;
#ARTIST:Winx Club;
#TITLETRANSLIT:;
#SUBTITLETRANSLIT:;
#ARTISTTRANSLIT:;
#CREDIT:;
#BANNER:Stand up.png;
#BACKGROUND:Stand up-bg.png;
#LYRICSPATH:;
#CDTITLE:./CDTITLES/DanceDanceRevolution Winx Club.png;
#MUSIC:Stand up.mp3;
#OFFSET:2.576;
#SAMPLESTART:21.394;
#SAMPLELENGTH:16.600;
#SELECTABLE:YES;
#BPMS:0.000=90.000;
#STOPS:;
#BGCHANGES:;

//---------------dance-single - ----------------
#NOTES:
     dance-single:
     :
     Beginner:
     1:
     0.085,0.102,0.028,0.000,0.000:
0000
0000
0000
0000
,
0000
0000
0000
0000
,
0000
0000
0000
0000
,
0000
0000
0000
0000
,
0000
0000
0000
0000
,
1000
0000
0001
0000
,
0100
0000
0001
0000
,
0100
0000
0010
0000
,
0000
0000
1001
0000
,
0001
0000
0001
0000
,
0010
0000
0010
0000
,
1000
0000
1000
0000
,
0001
0001
0001
0000
,
1000
0000
1000
0000
,
0100
0000
0100
0000
,
0001
0000
0001
0000
,
1000
1000
1000
0000
,
0000
0000
0001
0000
,
0000
0000
0010
0000
,
0000
0000
0100
0000
,
0000
0000
1000
0000
,
0001
0000
1000
0000
,
0100
0000
1000
0000
,
0100
0000
0010
0000
,
0000
0000
1001
0000
,
1000
0000
0001
0000
,
0010
0000
0001
0000
,
0010
0000
0100
0000
,
0000
0000
1001
0000
,
0001
0000
0001
0000
,
0100
0000
0100
0000
,
1000
0000
1000
0000
,
0001
0001
0001
0000
,
1000
0000
1000
0000
,
0010
0000
0010
0000
,
0001
0000
0001
0000
,
1000
1000
1000
0000
;

//---------------dance-single - ----------------
#NOTES:
     dance-single:
     :
     Easy:
     2:
     0.141,0.153,0.131,0.000,0.000:
0000
0000
0000
0000
,
0000
0000
0000
0000
,
0000
0000
0000
0000
,
0000
0000
0000
0000
,
0000
0000
0000
0000
,
1000
1000
0100
0100
,
1000
0000
0001
0100
,
0001
0010
0001
0000
,
0110
0000
1001
0000
,
0001
0100
0110
0000
,
1000
0001
1000
0000
,
1000
0100
0110
0000
,
0001
0001
0001
0000
,
1000
0100
0110
0000
,
0001
1000
0001
0000
,
0001
0100
0110
0000
,
1000
1000
1000
0000
,
0000
0000
1000
0100
,
0000
0000
0010
0010
,
0000
0000
0001
0100
,
0000
0000
0100
0100
,
0001
0001
0100
0100
,
0001
0000
1000
0100
,
1000
0010
1000
0000
,
0110
0000
1001
0000
,
1000
1000
0010
0010
,
1000
0000
0001
0010
,
0001
0100
0001
0000
,
0110
0000
1001
0000
,
0001
0010
0110
0000
,
1000
0001
1000
0000
,
1000
0010
0110
0000
,
0001
0001
0001
0000
,
1000
0010
0110
0000
,
0001
1000
0001
0000
,
0001
0010
0110
0000
,
1000
1000
1000
0000
;

//---------------dance-single - ----------------
#NOTES:
     dance-single:
     :
     Medium:
     4:
     0.184,0.205,0.196,0.000,0.000:
0000
0000
0000
0000
,
0000
0000
0000
0000
,
0000
0000
0000
0000
,
0000
0000
0000
0000
,
0000
0000
0000
0000
,
1000
0100
0001
0001
,
0010
0100
0010
0001
,
0001
1000
0100
0010
,
1001
0110
1001
0000
,
0100
0101
1000
0010
,
0100
1010
0100
0010
,
0100
1100
0001
0010
,
0100
0100
0100
0000
,
0100
1100
0001
0010
,
0100
0011
0100
0010
,
0100
0101
1000
0010
,
0100
0100
0100
0000
,
0001
0000
1000
0001
,
0100
0000
0010
0100
,
1000
0000
0001
1000
,
0010
0000
0100
0010
,
0001
0100
1000
1000
,
0010
0100
0010
1000
,
1000
0001
0100
0010
,
1001
0110
1001
0000
,
1000
0010
0001
0001
,
0100
0010
0100
0001
,
0001
1000
0010
0100
,
1001
0110
1001
0000
,
0010
0011
1000
0100
,
0010
1100
0010
0100
,
0010
1010
0001
0100
,
0010
0010
0010
0000
,
0010
1010
0001
0100
,
0010
0101
0010
0100
,
0010
0011
1000
0100
,
0010
0010
0010
0000
;

//---------------dance-single - ----------------
#NOTES:
     dance-single:
     :
     Hard:
     5:
     0.215,0.239,0.224,0.000,0.019:
0000
0000
0000
0000
,
0000
0000
0000
0000
,
0000
0000
0000
0000
,
0000
0000
0000
0000
,
0000
0000
0000
0000
,
1000
0100
1000
0000
0010
0000
0100
0001
,
0100
0010
1000
0100
,
0001
0000
0100
0000
0010
1000
0100
0000
,
0010
0001
0010
0001
0010
0000
0001
0000
,
1100
1010
0100
0010
,
0101
0011
1000
0100
,
1100
1010
0100
0010
,
0100
0100
0100
0000
,
0101
0011
0100
0010
,
1100
1010
0001
0100
,
0101
0011
0100
0010
,
0100
0100
0100
0000
,
1000
0000
0000
0001
0000
0000
0000
0000
1000
0000
0000
0000
0010
0000
0000
0000
,
0100
0000
0000
0010
0000
0000
0000
0000
0100
0000
0000
0000
0001
0000
0000
0000
,
0001
0000
0000
1000
0000
0000
0000
0000
0001
0000
0000
0000
0100
0000
0000
0000
,
0010
0000
0000
0100
0000
0000
0000
0000
0010
0000
0000
0000
0001
0000
0000
0000
,
1000
0010
1000
0000
0100
0000
0010
0001
,
0010
0100
1000
0010
,
0001
0000
0010
0000
0100
1000
0010
0000
,
0100
0001
0100
0000
0100
0000
0001
0000
,
0001
0010
0001
0000
0100
0000
0010
1000
,
0010
0100
0001
0010
,
1000
0000
0010
0000
0100
0001
0010
0000
,
0100
1000
0100
0000
0100
0000
1000
0000
,
0011
0101
0010
0100
,
1010
1100
0001
0010
,
0011
0101
0010
0100
,
0010
0010
0010
0000
,
1010
1100
0010
0100
,
0011
0101
1000
0010
,
1010
1100
0010
0100
,
0010
0010
0010
0000
;
