#TITLE:SUPER HERO;
#SUBTITLE:;
#ARTIST:DJ YOSHITAKA feat.Michaela Thurlow;
#TITLETRANSLIT:;
#SUBTITLETRANSLIT:;
#ARTISTTRANSLIT:;
#CREDIT:;
#BANNER:SUPER HERO.png;
#BACKGROUND:SUPER HERO-bg.png;
#LYRICSPATH:;
#CDTITLE:./CDTITLES/DanceDanceRevolution HOTTEST PARTY 2.png;
#MUSIC:SUPER HERO.mp3;
#OFFSET:1.233;
#SAMPLESTART:47.041;
#SAMPLELENGTH:14.980;
#SELECTABLE:YES;
#BPMS:0.000=180.000;
#STOPS:;
#BGCHANGES:;

//---------------dance-single - ----------------
#NOTES:
     dance-single:
     :
     Beginner:
     2:
     0.138,0.181,0.085,0.000,0.000:
0000
0000
0000
0000
,
0000
0000
0000
0000
,
0000
0000
0000
0000
,
0000
0000
0000
0000
,
0000
0000
0000
0000
,
1000
0000
0000
0000
,
0001
0000
0000
0000
,
1001
0000
0000
0000
,
0000
0000
0000
0000
,
0000
1000
0000
0000
,
0000
0000
0001
0001
,
0001
0000
0001
0000
,
0000
0000
1000
1000
,
0000
0001
0000
0000
,
0000
0000
1000
1000
,
1000
0000
1000
0000
,
0000
0000
0001
0001
,
0000
0000
1001
0000
,
0000
0000
1001
0000
,
0001
0000
1000
0000
,
0000
0000
0000
0000
,
0000
0001
0000
0000
,
1000
0000
0001
0000
,
0000
1000
0000
0000
,
0001
0000
1000
0000
,
0000
0001
0001
0000
,
0000
1000
1000
0000
,
0001
0000
0000
0000
,
1000
0000
1001
0000
,
0000
0000
0001
0000
,
0000
0000
0000
0000
,
0000
0000
1000
0000
,
0000
0000
0000
0000
,
0000
1000
0000
1000
,
0000
0001
0000
0001
,
0000
0000
0000
0000
,
1001
0000
0000
0000
,
0000
0000
1000
0000
,
0000
0001
0001
0001
,
0000
0000
0001
0000
,
1000
1000
1000
0000
,
0000
0001
0000
1000
,
0000
0001
0000
0000
,
0000
1000
0000
0000
,
0000
0000
0000
0000
,
0000
0000
0001
0000
,
0000
1000
1000
1000
,
0000
0000
1000
0000
,
0001
0001
0001
0000
,
0000
1000
0000
0001
,
0000
1000
0000
0000
,
0000
0001
0000
0000
,
0000
0000
0000
0000
,
0000
0000
0001
0000
,
0000
0000
1000
0000
,
0000
0001
0000
0000
,
0000
1000
0000
0000
,
1001
0000
0000
0001
,
0000
0000
1000
0000
,
0000
0000
0000
0000
,
1001
0000
0000
0000
;

//---------------dance-single - ----------------
#NOTES:
     dance-single:
     :
     Easy:
     3:
     0.193,0.254,0.133,0.048,0.000:
0000
0000
0000
0000
,
0000
0000
0000
0000
,
0000
0000
0000
0000
,
0000
0000
0000
0000
,
0000
0000
0000
0000
,
0010
0000
0000
0000
,
0100
0000
0000
0000
,
1001
0000
0000
0000
,
0000
0000
0000
0000
,
0000
1000
0000
0100
,
0000
0000
1000
0001
,
1000
0000
0010
0000
,
0000
0000
0100
0010
,
0000
0001
0000
0100
,
0000
0000
0001
1000
,
0001
0000
0010
0000
,
0000
0000
0100
0010
,
0000
0000
1001
0000
,
0000
0000
1001
0000
,
0000
0000
1000
0000
,
0000
0001
0001
0000
,
0000
0100
0000
1000
,
1000
0000
0010
0000
,
0000
0010
0000
0001
,
0001
0000
0100
0000
,
0000
1000
0010
0010
,
0000
0001
0001
0010
,
0100
0000
0100
0000
,
1001
0000
1001
0000
,
0010
0000
0020
0000
,
0030
0000
0001
0000
,
0100
0000
0200
0000
,
0300
0000
1000
0000
,
0000
1000
0000
0001
,
0000
0001
0000
1000
,
2000
0000
3002
0000
,
1003
0000
0000
0000
,
0010
0000
1000
0000
,
0000
0001
1000
0000
,
0100
0000
0001
0000
,
0000
0100
0100
0000
,
0000
0001
0001
0001
,
0000
0010
0000
0100
,
0000
0000
1000
0000
0000
0000
0000
1001
,
0000
0000
0000
0000
,
0010
0000
0001
0000
,
0000
1000
0001
0000
,
0100
0000
1000
0000
,
0000
0100
0100
0000
,
0000
1000
1000
1000
,
0000
0010
0000
0100
,
0000
0000
0001
0000
0000
0000
0000
1001
,
0000
0000
0000
0000
,
0000
1000
0010
0000
,
0000
0001
0010
0000
,
0000
0100
0100
0000
,
0000
0010
0010
0000
,
1001
0000
0000
0110
,
0000
0000
1001
0000
,
0000
0000
0000
0000
,
1001
0000
0000
0000
;

//---------------dance-single - ----------------
#NOTES:
     dance-single:
     :
     Medium:
     5:
     0.252,0.326,0.133,0.060,0.000:
0000
0000
0000
0000
,
0000
0000
0000
0000
,
0000
0000
0000
0000
,
0000
0000
0000
0000
,
0000
0000
0000
0000
,
0110
0000
0000
0000
,
1001
0000
0000
0000
,
1000
0000
0001
0000
,
0010
0010
0010
0010
,
0000
0001
0100
0100
,
0010
0000
1000
0000
,
0100
0000
0100
0000
,
0000
0001
0100
0000
,
0000
1000
0100
0100
,
0010
0000
0001
0000
,
0100
0000
0100
0000
,
0000
1000
0100
0000
,
0000
1000
1001
0000
,
0000
0001
1001
0000
,
0000
0000
0010
0000
,
0100
0100
0100
0000
,
0000
0001
0000
0010
,
0002
0003
0100
0100
,
0000
1000
0000
0010
,
2000
3000
0100
0100
,
0001
0001
0010
0000
,
1000
0100
0000
0100
,
0110
0000
1001
0000
,
0010
0000
1001
0000
,
0200
0000
0000
0000
1300
0000
0000
0010
,
0000
0010
0000
0010
0000
0000
0000
0000
,
0020
0000
0000
0000
0031
0000
0000
0100
,
0000
0100
0000
0100
0000
0000
0000
0000
,
0000
1000
0100
1000
,
0000
0001
0100
0001
,
1000
1000
0001
0001
,
1001
0000
0000
0000
,
1000
0000
0100
1000
,
0100
0000
0001
0000
,
0001
0000
0100
1000
,
0100
0000
0100
0000
,
0001
0010
0100
0000
,
1000
0000
0001
0000
,
1000
0000
0000
0000
0100
0000
0000
1001
,
0000
0000
0000
0000
,
0001
0000
0100
0001
,
0100
0000
1000
0000
,
1000
0000
0100
0001
,
0100
0000
0100
0000
,
1000
0010
0100
0000
,
0001
0000
1000
0000
,
0001
0000
0000
0000
0100
0000
0000
1001
,
0000
0000
0000
0000
0000
0000
0000
0100
,
0000
0000
0100
0000
0010
0000
0000
0100
,
0000
0100
0010
0000
,
0000
1000
0010
0100
,
0000
0001
0100
0010
,
1000
0000
0000
0100
0000
0000
0001
0000
,
0000
0100
0000
0000
1000
0000
0000
0020
,
0000
0000
0000
0030
,
1001
0000
0000
0000
;

//---------------dance-single - ----------------
#NOTES:
     dance-single:
     :
     Hard:
     7:
     0.337,0.435,0.278,0.121,0.000: // measure 1
0000
0000
0000
0000
,  // measure 2
0000
0000
0000
0000
,  // measure 3
0000
0000
0000
0000
,  // measure 4
0000
0000
0000
0000
,  // measure 5
0000
0000
0000
0000
,  // measure 6
1100
0000
0000
0000
,  // measure 7
0110
0000
0000
0000
,  // measure 8
0101
0000
1010
0000
,  // measure 9
0100
0100
0100
1001
,  // measure 10
0000
1000
0100
1000
,  // measure 11
0010
1000
0001
1000
,  // measure 12
0010
0000
0000
0000
0100
0000
0000
0011
,  // measure 13
0000
0010
0100
1000
,  // measure 14
0000
0001
0100
0001
,  // measure 15
0010
0001
1000
0001
,  // measure 16
0010
0000
0000
0000
0100
0000
0000
1010
,  // measure 17
0000
0000
0010
0000
0100
0000
0001
1000
,  // measure 18
0000
0000
0100
0000
1100
0000
0000
0001
,  // measure 19
0000
0000
0100
0000
0101
0000
0000
1001
,  // measure 20
0000
0000
0010
1000
,  // measure 21
0100
0010
0100
1000
,  // measure 22
0000
0001
0100
0010
,  // measure 23
2000
3010
0100
0000
,  // measure 24
0000
0001
0010
0100
,  // measure 25
2000
3100
0010
0000
,  // measure 26
0100
0100
0010
0100
,  // measure 27
0001
0000
0000
0100
0000
0000
1000
0000
,  // measure 28
1100
0000
0011
0000
,  // measure 29
0100
0010
1001
0000
,  // measure 30
0001
1100
0020
0030
,  // measure 31
0000
0001
0000
0001
0000
0100
0000
0000
,  // measure 32
1000
0101
0020
0030
,  // measure 33
0000
1000
0000
1000
0000
0100
0000
0000
,  // measure 34
0000
1000
0100
0001
,  // measure 35
0100
1000
0100
0001
,  // measure 36
1000
0001
1000
0000
0001
1000
0001
0000
,  // measure 37
1001
0000
0000
0000
,  // measure 38
0011
0000
0100
1000
,  // measure 39
0020
0000
0100
0130
,  // measure 40
1000
0000
0001
0100
,  // measure 41
0001
0010
0100
1000
,  // measure 42
0100
0010
0100
0000
,  // measure 43
0010
0100
0010
0001
,  // measure 44
1000
0000
0001
0000
0100
0000
0000
0110
,  // measure 45
0000
0000
0000
0000
,  // measure 46
1010
0000
0100
0001
,  // measure 47
0020
0000
0100
0130
,  // measure 48
0001
0000
1000
0100
,  // measure 49
1000
0010
0100
0001
,  // measure 50
0100
0010
0100
0000
,  // measure 51
0010
0100
0010
1000
,  // measure 52
0001
0000
1000
0000
0100
0000
0000
0110
,  // measure 53
0000
0000
0000
0000
0000
0000
0000
0002
,  // measure 54
0000
0000
0103
0000
0010
0000
0000
2000
,  // measure 55
0000
0000
3100
0000
0010
0000
0000
0101
,  // measure 56
0000
0000
0000
0000
0010
0000
0000
1010
,  // measure 57
0000
0000
0100
0000
,  // measure 58
0020
0000
0000
1000
0000
0000
0001
0000
,  // measure 59
0000
1000
0000
0000
0130
0000
0000
0200
,  // measure 60
0000
0000
0000
0300
,  // measure 61
1001
0000
0000
0000
;
