#TITLE:REACH THE SKY (Orbit1 remix);
#SUBTITLE:;
#ARTIST:TAYA;
#TITLETRANSLIT:;
#SUBTITLETRANSLIT:;
#ARTISTTRANSLIT:;
#CREDIT:;
#BANNER:REACH THE SKY (Orbit1 remix).png;
#BACKGROUND:REACH THE SKY (Orbit1 remix)-bg.png;
#LYRICSPATH:;
#CDTITLE:./CDTITLES/DanceDanceRevolution HOTTEST PARTY 2.png;
#MUSIC:REACH THE SKY (Orbit1 remix).mp3;
#OFFSET:1.329;
#SAMPLESTART:67.797;
#SAMPLELENGTH:14.980;
#SELECTABLE:YES;
#BPMS:0.000=170.000;
#STOPS:;
#BGCHANGES:;

//---------------dance-single - ----------------
#NOTES:
     dance-single:
     :
     Beginner:
     2:
     0.142,0.189,0.106,0.000,0.000:
0000
0000
0000
0000
,
0000
0000
0000
0000
,
0000
0000
0000
0000
,
0000
0000
0000
0000
,
0000
0000
0000
0000
,
1000
0000
1000
0000
,
0001
0000
0001
0000
,
0010
0000
0000
0000
,
1001
0000
0000
0000
,
0001
0000
0000
0000
,
0010
0000
0000
0000
,
1000
0000
0000
0000
,
0001
0000
0001
0000
,
1000
0000
0000
0000
,
0010
0000
0000
0000
,
1001
0000
0000
0000
,
0000
0000
0000
0000
,
0001
0000
0000
0000
,
0100
0000
0000
0000
,
1000
0000
0000
0000
,
0001
0000
0001
0000
,
0100
0000
0000
0000
,
0010
0000
0000
0000
,
1001
0000
0000
0000
,
0000
0000
0000
0000
,
0100
0000
0000
0000
,
0010
0000
0000
0000
,
1000
0000
0100
0000
,
0100
0000
0100
0000
,
0010
0000
0000
0000
,
0100
0000
0000
0000
,
0010
0000
0010
0000
,
1001
0000
0000
0000
,
0001
0000
0001
0000
,
1000
0000
1000
0000
,
0100
0000
0100
0000
,
0001
0000
0001
0000
,
1000
0000
1000
0000
,
0010
0000
0010
0000
,
0100
0000
0100
0000
,
0000
0010
0010
0010
,
0000
0100
0000
0100
,
0000
0100
0000
1001
,
0000
0010
0000
0010
,
0000
0010
0000
1001
,
0000
0001
0000
0000
,
0000
1000
0000
0000
,
1001
0000
0000
0000
,
0000
0000
0000
0000
,
0001
0000
0001
0000
,
0010
0000
0010
0000
,
1000
0000
1000
0000
,
0001
0000
0001
0000
,
1000
0000
1000
0000
,
0010
0000
0010
0000
,
1001
0000
0000
0000
,
1001
0000
0000
0000
,
0001
0000
0001
0000
,
0100
0000
0100
0000
,
1000
0000
1000
0000
,
0001
0000
0001
0000
,
1001
0000
0000
0000
,
0001
0000
1000
0000
,
0100
0100
0100
0000
,
0100
0000
0100
0000
,
1001
0000
0000
0000
;

//---------------dance-single - ----------------
#NOTES:
     dance-single:
     :
     Easy:
     4:
     0.218,0.283,0.232,0.077,0.000:
0000
0000
0000
0000
,
0000
0000
0000
0000
,
0000
0000
0000
0000
,
0000
0000
0000
0000
,
0000
0000
0000
0000
,
0000
0001
0001
0001
,
0000
1000
1000
1000
,
0000
1000
0100
0001
,
1001
0000
0000
0000
,
1000
0000
1000
0000
,
0010
0000
0010
0000
,
0001
0000
0001
0000
,
1000
0001
1000
0000
,
0001
0000
0001
0000
,
0010
0000
0010
0000
,
1001
0000
0000
0000
,
1001
0000
0000
0000
,
1000
0000
1000
0000
,
0100
0000
0100
0000
,
0001
0000
0001
0000
,
1000
0001
1000
0000
,
0100
0000
0100
0000
,
0010
0000
0010
0000
,
2002
0000
0000
3003
,
0000
0000
0000
0000
,
1000
0000
1000
1001
,
0001
0000
0001
1001
,
0001
0000
0000
0110
,
1000
0000
0000
0110
,
1000
0000
0001
0000
,
0100
0000
1000
1001
,
0001
0000
1001
0000
,
0110
0000
1001
0000
,
1000
0000
0100
0000
,
0010
0000
0001
0000
,
0100
0000
0010
0000
,
1000
0000
0001
0000
,
1000
0000
0100
0000
,
0010
0000
0001
0000
,
0100
0000
0010
0000
,
0000
0110
1001
0110
,
0000
0100
0000
0110
,
0000
0100
0000
1001
,
0000
0010
0000
0110
,
0000
0010
0000
1001
,
2000
0000
0000
3000
,
0002
0000
0000
0003
,
2002
0000
0000
3003
,
0000
0000
0000
0000
,
1000
0000
1000
0000
,
0010
0100
0010
0000
,
0001
0000
0001
0000
,
1000
0001
1000
0000
,
0001
0000
0001
0000
,
0010
0100
0010
0000
,
1001
0000
0000
2002
,
0000
0000
3003
0000
,
1000
0000
1000
0000
,
0100
0010
0100
0000
,
0001
0000
0001
0000
,
1000
0001
1000
0000
,
1001
0000
0010
0000
,
1000
0100
0001
0100
,
0100
0100
0100
0100
,
0100
0000
0100
0000
,
1001
0000
0000
0000
;

//---------------dance-single - ----------------
#NOTES:
     dance-single:
     :
     Medium:
     6:
     0.315,0.377,0.271,0.106,0.000:
0000
0000
0000
0000
,
0000
0000
0000
0000
,
0000
0000
0000
0000
,
0000
0000
0000
0000
,
0000
0000
0000
0000
,
0010
1000
1000
1000
,
0010
0001
0001
0001
,
0010
0001
0010
1000
,
1001
0000
0000
0000
,
0001
0010
0001
0000
,
0100
0010
0100
0000
,
0100
1000
0100
0000
,
0001
1000
0001
0000
,
1000
0010
1000
0000
,
0100
0010
0100
0000
,
1001
0000
0000
0100
,
1001
0000
0000
0000
,
0001
0100
0001
0000
,
0010
0100
0010
0000
,
0010
1000
0010
0000
,
0001
1000
0001
0000
,
0001
0010
0001
0000
,
0100
0010
0100
0000
,
2002
0000
0000
0003
,
0020
0000
0000
3030
,
0010
0010
0010
1001
,
0100
0100
0100
1001
,
1000
1000
1000
0110
,
0001
0001
0001
0110
,
0001
0110
1000
0110
,
0010
0010
0010
1001
,
0110
0000
1001
0000
,
0110
0110
1001
0000
,
0001
0001
0010
0010
,
0100
0100
1000
0000
,
0010
0010
0100
0100
,
0001
0001
1000
0000
,
0001
0001
0010
0010
,
0100
0100
1000
0000
,
0010
0010
0100
0100
,
0000
0110
1001
0110
,
0001
0010
0000
0110
,
1000
0010
0000
1001
,
0001
0100
0000
0110
,
1000
0100
0000
1001
,
0002
0003
0020
0030
,
0200
0300
2000
3000
,
0002
0000
0000
0000
,
2000
0000
0000
3003
,
0001
0010
0001
0001
,
0100
0010
0100
0100
,
1000
0100
1000
1000
,
0001
1000
0001
0001
,
1000
0010
1000
1000
,
0100
0010
0100
0100
,
1001
0000
0000
0110
,
2002
0000
3003
0000
,
0001
0100
0001
0001
,
0010
0100
0010
0010
,
1000
0010
1000
1000
,
0001
1000
0001
0001
,
1001
0010
0100
0100
,
0001
0010
1000
0010
,
0010
0010
0010
0010
,
1000
0001
1000
0001
,
1001
0000
0000
0000
;

//---------------dance-single - ----------------
#NOTES:
     dance-single:
     :
     Hard:
     9:
     0.387,0.472,0.377,0.106,0.000:
0000
0000
0000
0000
,
0000
0000
0000
0000
,
0000
0000
0000
0000
,
0000
0000
0000
0000
,
0000
0000
0000
0000
,
0101
0001
0001
0001
,
1100
1000
1000
1000
,
1100
1000
0101
0001
,
1001
0000
0001
1000
0001
0000
0000
0000
,
1000
0100
1000
0100
,
0010
0100
0010
0100
,
0010
0001
0010
0001
,
1000
0001
1000
1001
,
0001
0100
0001
0100
,
0010
0100
0010
0100
,
1001
0000
0000
0010
,
1001
0000
0000
0000
,
1000
0010
1000
0010
,
0100
0010
0100
0010
,
0100
0001
0100
0001
,
1000
0001
1000
0001
,
1000
0100
1000
0100
,
0010
0100
0010
0100
,
2002
0000
0000
3000
,
0200
0300
1000
1003
,
0100
1000
0100
1100
,
0010
0001
0010
0011
,
0001
0101
1000
1100
,
0001
0011
1000
1010
,
1000
0110
0001
0110
,
0100
0100
0100
1001
,
0110
0110
1001
1001
,
0110
0110
1001
1001
,
1000
0100
0000
0000
0000
1000
0000
0000
,
0010
0001
0010
0001
0000
0000
0000
0000
,
0100
0010
0000
0000
0000
0100
0000
0000
,
1000
0001
1000
0001
0000
0000
0000
0000
,
1000
0100
0000
0000
0000
1000
0000
0000
,
0010
0001
0010
0001
0000
0000
0000
0000
,
0100
0010
0000
0000
0000
0100
0000
0000
,
0100
1100
0101
1100
,
1000
1100
0100
0100
,
0010
0011
0010
0010
,
1000
0010
1010
0000
,
0001
0010
0011
0000
,
2000
3100
0200
0310
,
0020
0031
0002
1003
,
2001
0100
0001
0100
,
0002
0000
0000
3003
,
1000
0000
0100
0000
1000
0100
1000
0000
,
0010
0100
0010
0100
,
0001
0000
0010
0000
0001
0010
0001
0000
,
1000
0001
1000
0001
,
0001
0000
0100
0000
0001
0100
0001
0000
,
0010
0100
0010
0100
,
1001
0000
0000
0110
0000
0000
2002
0000
,
0000
0000
0000
0003
3001
0000
0000
0000
,
1000
0000
0010
0000
1000
0010
1000
0000
,
0100
0010
0100
0010
,
0001
0000
0100
0000
0001
0100
0001
0000
,
1000
0000
0001
0000
1000
0001
1000
0000
,
1001
0000
0100
0000
0010
0100
0010
0000
,
1000
0000
0100
0000
1000
0001
0100
0000
,
0100
0100
0100
0100
,
0001
1000
0001
1000
0001
0010
0100
0000
,
1001
0000
0000
0000
;
