#TITLE:Only a girl;
#SUBTITLE:;
#ARTIST:Winx Club;
#TITLETRANSLIT:;
#SUBTITLETRANSLIT:;
#ARTISTTRANSLIT:;
#CREDIT:;
#BANNER:Only a girl.png;
#BACKGROUND:Only a girl-bg.png;
#LYRICSPATH:;
#CDTITLE:./CDTITLES/DanceDanceRevolution Winx Club.png;
#MUSIC:Only a girl.mp3;
#OFFSET:3.974;
#SAMPLESTART:36.447;
#SAMPLELENGTH:15.780;
#SELECTABLE:YES;
#BPMS:0.000=59.333;
#STOPS:;
#BGCHANGES:;

//---------------dance-single - ----------------
#NOTES:
     dance-single:
     :
     Beginner:
     1:
     0.055,0.075,0.029,0.000,0.000:
0000
0000
0000
0000
,
0000
0000
0000
0000
,
0001
0000
0001
0000
,
1000
0000
1000
0000
,
0010
0000
0000
0000
,
1001
0000
0000
0000
,
1000
0000
1000
0000
,
0001
0000
0001
0000
,
0100
0000
0000
0000
,
1001
0000
1001
0000
,
1000
0000
0001
0000
,
0010
0000
0000
0000
,
1000
0000
0010
0000
,
0001
0000
0100
0000
,
0001
0000
1000
0000
,
1000
0000
0001
0000
,
0010
0010
0000
0000
,
0100
0100
0000
0000
,
0001
0000
0000
0000
,
1000
0000
0000
0000
,
0010
0000
0000
0000
,
0100
0000
0000
0000
,
0001
0000
0000
0000
,
1000
0000
0000
0000
,
0010
0000
0000
0000
,
0100
0000
0000
0000
,
0001
0000
0000
0000
;

//---------------dance-single - ----------------
#NOTES:
     dance-single:
     :
     Easy:
     2:
     0.093,0.127,0.038,0.029,0.000:
0000
0000
0000
0000
,
0000
0000
0000
0000
,
1000
0000
0010
0000
,
0001
0000
0010
0000
,
2000
0000
3000
0100
,
1001
0010
0010
1001
,
0001
0000
0010
0000
,
1000
0000
0010
0000
,
0002
0000
0003
0100
,
1001
0100
0010
1001
,
0001
0001
1000
0010
,
1000
0000
0100
0001
,
0010
0000
0100
0000
,
0001
0000
0010
0001
,
1000
0100
0001
0000
,
0010
0100
1000
0000
,
1000
0010
0001
0000
,
0100
0010
0001
0000
,
1000
0000
0010
0000
,
0001
0000
0010
0000
,
0001
0000
0100
0000
,
1000
0000
0100
0000
,
1000
0000
0010
0000
,
0001
0000
0010
0000
,
1000
0000
0100
0000
,
0001
0000
0100
0000
,
2000
0000
3000
0000
;

//---------------dance-single - ----------------
#NOTES:
     dance-single:
     :
     Medium:
     3:
     0.133,0.165,0.067,0.029,0.000:
0000
0000
0000
0000
,
0000
0000
0000
0000
,
0001
1000
0010
0100
,
1000
0100
0001
1000
,
0002
0000
0013
1000
,
1001
0110
0010
1001
,
1000
0001
0010
0100
,
0001
0100
1000
0001
,
2000
0000
3010
0001
,
1001
0110
0110
1001
,
1000
0010
0001
0100
,
0001
1000
0010
1000
,
0100
0100
0010
0010
,
1000
0010
0100
1000
,
0001
0010
1000
0010
,
0100
0100
0001
0010
,
0001
0010
1000
0010
,
0001
0100
1000
0001
,
0001
0000
0100
0001
,
1000
0000
1000
0100
,
0001
0000
0100
1000
,
1000
0000
0001
0010
,
0001
0000
0100
0001
,
1000
0000
1000
0100
,
0001
0000
0100
1000
,
1000
0000
0001
0010
,
0002
0000
0003
0000
;

//---------------dance-single - ----------------
#NOTES:
     dance-single:
     :
     Hard:
     6:
     0.190,0.241,0.077,0.125,0.101:
0000
0000
0000
0000
,
0000
0000
0000
0000
,
1000
0000
0000
0001
0000
0000
1000
0100
0000
0010
0000
0000
,
0100
0000
0000
0010
0000
0000
1000
0001
0000
0100
0000
0000
,
2000
3200
1300
0001
,
1100
0110
1100
0101
,
0001
0000
0000
1000
0000
0000
0001
0100
0000
0010
0000
0000
,
0100
0000
0000
0010
0000
0000
0001
1000
0000
0100
0000
0000
,
0002
0203
0301
1000
,
0101
0000
0000
0110
0010
0010
0101
0000
0000
1100
0100
0100
,
0001
0000
0000
0100
0010
0001
1000
0000
0000
0010
0000
0000
,
1000
0100
0010
0001
0000
0000
0100
0000
0000
0001
0000
0000
,
0020
0030
0200
0300
2000
3000
0200
0300
,
0001
0000
0000
0100
0000
0000
0010
0000
0000
0001
0010
0001
,
1000
0000
0000
0100
0010
0100
0001
0000
0000
0100
0000
0000
,
0010
1000
0001
0100
0000
0000
0001
0000
0000
0100
0000
0000
,
0200
0300
0002
0003
0020
0030
0200
0300
,
1000
0000
0000
0001
0000
0000
0100
0000
0000
0001
0100
0010
,
1000
0100
0010
1000
,
0001
0100
0010
0001
,
1000
0100
0001
0100
,
0001
0100
1000
0100
,
0001
0010
0100
0001
,
1000
0010
0100
1000
,
0001
0010
1000
0010
,
1000
0000
0000
0010
0000
0000
0001
0000
0000
0010
0000
0001
,
2000
0000
3000
0000
;
