#TITLE:New Magical Definition;
#SUBTITLE:;
#ARTIST:Oh,la,la!;
#TITLETRANSLIT:;
#SUBTITLETRANSLIT:;
#ARTISTTRANSLIT:;
#CREDIT:;
#BANNER:New Magical Definition.png;
#BACKGROUND:New Magical Definition-bg.png;
#LYRICSPATH:;
#CDTITLE:./CDTITLES/pop'n music.png;
#MUSIC:New Magical Definition.mp3;
#OFFSET:1.507;
#SAMPLESTART:5.700;
#SAMPLELENGTH:13.740;
#SELECTABLE:YES;
#BPMS:0.000=153.100;
#STOPS:;
#BGCHANGES:;

//---------------dance-single - ----------------
#NOTES:
     dance-single:
     :
     Beginner:
     2:
     0.111,0.160,0.028,0.000,0.000:
0000
0000
0000
0000
,
0000
0000
0000
0000
,
0000
0000
0000
0000
,
0000
0000
0000
0000
,
0000
0000
0000
0000
,
0100
0000
0000
0000
,
1000
0000
1000
0000
,
0100
0000
0000
0000
,
1000
0000
1000
0000
,
0100
0000
0000
0000
,
0001
0000
0001
0000
,
0010
0000
0000
0000
,
0001
0000
0000
0000
,
0000
0000
1000
0000
,
0000
0000
0100
0000
,
0000
0000
0010
0000
,
0010
0000
0000
0000
,
0000
0000
0001
0000
,
0000
0000
0100
0000
,
0000
0000
0010
0000
,
0010
0000
0000
0000
,
0001
0000
0001
0000
,
1000
0000
1000
0000
,
0001
0000
1000
0000
,
0001
0000
1000
0000
,
1000
0000
0000
0000
,
0010
0000
0000
0000
,
0100
0000
0000
0000
,
0010
0000
0000
0000
,
0000
0000
0000
0010
,
0000
0000
0000
1000
,
0000
0000
0100
0100
,
0000
0000
0000
0000
,
0000
0000
0100
0000
,
0000
0000
1000
0000
,
1000
0000
0100
0000
,
0000
0000
1000
0000
,
1000
0000
0100
0000
,
0000
0000
0001
0000
,
0001
0000
0010
0000
,
0000
0000
0001
0000
,
0000
0000
0010
0000
,
0010
0000
0100
0000
,
0100
0000
0001
0000
,
0000
0000
1000
0000
,
0000
0000
1000
0000
,
0100
0000
0001
0000
,
0100
0000
0000
0000
,
0001
0000
0000
0000
,
0010
0000
0000
0000
,
0100
0000
0100
0000
,
0000
0000
0000
0000
,
1000
0000
0000
0000
,
0010
0000
0000
0000
,
0100
0000
0100
0000
,
0000
0000
0010
0000
,
0000
0000
0000
0000
,
0000
0000
0100
0000
,
0000
0000
0000
0000
,
0000
0000
1001
0000
,
0000
0000
1001
0000
,
0000
0000
0010
0000
,
0000
0000
0001
0000
,
0001
0000
0010
0000
,
0000
0000
0001
0000
,
0001
0000
0010
0000
,
0000
0000
1000
0000
,
1000
0000
0100
0000
,
0100
0000
1000
0000
,
1001
0000
0000
0000
;

//---------------dance-single - ----------------
#NOTES:
     dance-single:
     :
     Easy:
     3:
     0.180,0.255,0.102,0.093,0.000: // measure 1
0000
0000
0000
0000
,  // measure 2
0000
0000
0000
0000
,  // measure 3
0000
0000
0000
0000
,  // measure 4
0000
0000
0000
0000
,  // measure 5
0000
0000
0000
0000
,  // measure 6
0001
0000
0000
0000
,  // measure 7
1000
0001
1000
0000
,  // measure 8
0001
0000
0000
0000
,  // measure 9
1000
0001
1000
0000
,  // measure 10
1000
0000
0000
0000
,  // measure 11
0001
1000
0001
0000
,  // measure 12
1001
0000
0000
0000
,  // measure 13
0001
1000
1001
0000
,  // measure 14
0100
0000
1000
0000
,  // measure 15
0010
0000
0100
0000
,  // measure 16
0010
0000
0001
0000
,  // measure 17
0100
0000
0000
0000
,  // measure 18
0100
0000
0001
0000
,  // measure 19
0010
0000
0100
0000
,  // measure 20
0010
0000
1000
0000
,  // measure 21
0100
0000
0000
0000
,  // measure 22
0001
0001
0001
0000
,  // measure 23
1000
1000
1000
0000
,  // measure 24
1001
0000
1001
0000
,  // measure 25
0010
0000
0100
0000
,  // measure 26
2000
0000
3000
0000
,  // measure 27
0200
0000
0300
0000
,  // measure 28
0020
0000
0030
0000
,  // measure 29
0002
0000
0003
0000
,  // measure 30
0000
1000
1000
0000
,  // measure 31
0000
0100
0000
0100
,  // measure 32
0000
0010
0010
0000
,  // measure 33
0000
0100
0000
0010
,  // measure 34
0000
0000
0001
0000
,  // measure 35
0000
0000
1000
0001
,  // measure 36
1000
0000
0001
0000
,  // measure 37
0000
0000
1000
0001
,  // measure 38
1000
0000
1000
0000
,  // measure 39
0000
0000
0001
1000
,  // measure 40
0001
0000
1001
0000
,  // measure 41
0000
0000
0001
1000
,  // measure 42
1001
0000
2000
0000
,  // measure 43
3000
0000
0002
0000
,  // measure 44
0003
0000
0200
0000
,  // measure 45
0300
0000
0020
0000
,  // measure 46
0030
0000
0002
0000
,  // measure 47
0103
0000
2000
0000
,  // measure 48
3010
0000
0010
0000
,  // measure 49
0001
0000
0100
0000
,  // measure 50
0010
0000
0100
0000
,  // measure 51
1000
0000
0010
0000
,  // measure 52
0000
0000
0010
0000
,  // measure 53
1000
0000
0100
0000
,  // measure 54
0010
0000
0100
0000
,  // measure 55
0001
0000
0010
0000
,  // measure 56
0000
0000
1000
0000
,  // measure 57
0000
0000
0100
0000
,  // measure 58
0000
0000
0010
0000
,  // measure 59
0000
0000
0001
0000
,  // measure 60
0000
0000
0100
0000
,  // measure 61
1001
0000
1001
0000
,  // measure 62
0110
0000
1000
0000
,  // measure 63
0000
0000
0001
1000
,  // measure 64
0001
0000
1000
0000
,  // measure 65
0000
0000
0001
1000
,  // measure 66
0001
0000
0001
0000
,  // measure 67
0000
0000
1000
0001
,  // measure 68
1000
0000
1001
0000
,  // measure 69
0100
0000
1000
0001
,  // measure 70
1001
0000
0000
0000
;

//---------------dance-single - ----------------
#NOTES:
     dance-single:
     :
     Medium:
     5:
     0.230,0.319,0.139,0.056,0.000:
0000
0000
0000
0000
,
0000
0000
0000
0000
,
0000
0000
0000
0000
,
0000
0000
0000
0000
,
0000
0000
0000
0000
,
0001
0000
0010
0000
,
0001
0001
1000
0000
,
0001
0000
1000
0000
,
0001
0001
1000
0000
,
1000
0000
0100
0000
,
1000
1000
0001
0000
,
1000
0000
0110
0000
,
1000
1000
1001
0000
,
0100
0000
1000
0010
,
0010
0000
0100
0010
,
0010
0000
0001
1000
,
1000
0000
0000
0000
,
0010
0000
0001
0100
,
0100
0000
0010
0100
,
0100
0000
1000
0001
,
0001
0000
0000
0000
,
1001
1000
1000
0000
,
1001
0001
0001
0000
,
1001
0000
0110
0000
,
1001
0000
1001
0000
,
0002
0000
0000
0003
,
0020
0000
0000
0030
,
2000
0000
0000
3000
,
0200
0000
0000
0300
,
0000
0010
0000
0100
,
0000
1000
0100
0100
,
0000
0010
0000
0001
,
0000
0100
0010
1000
,
1001
0000
0001
0000
,
0010
0000
0001
0001
,
1000
0000
0001
0000
,
1000
0000
0001
0001
,
1000
0000
1000
0000
,
0100
0000
1000
1000
,
0001
0000
1000
0000
,
0110
0000
1000
1000
,
1001
0000
0010
0000
,
1000
0001
0100
0000
,
1000
0001
0010
0000
,
0100
0000
0100
0000
,
0010
0000
2000
0000
,
3100
0100
0002
0000
,
0103
0100
0100
0000
,
0001
0010
0010
0000
,
0100
0010
0010
0000
,
1000
0001
0001
0000
,
0100
0000
0010
0000
,
1000
0100
0100
0000
,
0010
0100
0100
0000
,
0001
1000
1000
0000
,
0010
0000
0100
0000
,
0000
0000
1000
0000
,
0000
0000
0010
0000
,
0000
0000
0001
0000
,
0000
0000
0001
0000
,
1000
0000
0010
0001
,
0010
0100
1000
0000
,
0100
0000
1000
1000
,
0001
0000
1000
0000
,
0001
0000
1000
1000
,
0001
0000
0001
0000
,
0010
0000
0001
0001
,
1000
0000
0101
0000
,
1100
0000
0001
0101
,
1001
0000
0000
0000
;

//---------------dance-single - ----------------
#NOTES:
     dance-single:
     :
     Hard:
     7:
     0.280,0.351,0.185,0.102,0.000:
0000
0000
0000
0000
,
0000
0000
0000
0000
,
0000
0000
0000
0000
,
0000
0000
0000
0000
,
0000
0000
0000
0000
,
0010
0000
0100
0000
,
0010
0100
1000
0000
,
0010
0000
0100
0000
,
0010
0100
1000
0000
,
0100
0000
0010
0000
,
0100
0010
0001
0000
,
0100
0000
0110
0000
,
0100
0110
1001
0000
,
1000
0000
0100
0001
,
0001
1000
0100
0010
,
0001
1000
0100
0010
,
0010
0100
1000
0000
,
0001
0000
0100
1000
,
1000
0001
0100
0010
,
1000
0001
0100
0010
,
0010
0100
0001
0000
,
1100
1000
0001
0000
,
0101
0001
1000
0000
,
0110
0000
0110
0000
,
1010
1100
0011
0101
,
0002
0000
0000
0003
,
0020
0000
0000
0130
,
0200
0000
1000
1300
,
2000
0001
0001
3001
,
0000
1000
0000
0100
,
0000
0100
0100
0010
,
0010
0010
0001
0001
,
1000
0100
0010
0001
,
1001
0000
0010
0000
,
0100
0000
0010
0100
,
1000
0000
0010
0000
,
0100
0000
0010
0100
,
1000
0000
0100
0000
,
0010
0000
0100
0010
,
0001
0000
0100
0000
,
0110
0000
0100
0110
,
1001
0000
0200
0000
,
0300
0001
0200
0000
,
0300
1000
0002
0000
,
0103
1000
2000
0000
,
3100
0001
0020
1000
,
1030
0100
0020
0001
,
0031
0100
0001
0000
,
0010
1000
1000
0001
,
0010
0100
1000
0001
,
0010
0100
0100
0010
,
0001
0000
1000
0000
,
0010
0001
0001
1000
,
0010
0100
0001
1000
,
0010
0100
0100
0010
,
1000
0000
1000
0000
,
0000
0000
0100
0000
,
0000
0000
0001
0000
,
0000
0000
0010
0000
,
0000
0000
0200
0000
,
1000
0301
1000
0010
,
0001
0100
0100
0000
,
0010
0000
0100
0010
,
1000
0000
0100
0000
,
0010
0000
0100
0010
,
1000
0000
0010
0000
,
0100
0000
0010
0100
,
0001
0000
0011
0000
,
0110
0000
1010
0110
,
1001
0000
0000
0000
;
