#TITLE:MY GIFTS;
#SUBTITLE:;
#ARTIST:D-crew;
#TITLETRANSLIT:;
#SUBTITLETRANSLIT:;
#ARTISTTRANSLIT:;
#CREDIT:;
#BANNER:MY GIFTS.png;
#BACKGROUND:MY GIFTS-bg.png;
#LYRICSPATH:;
#CDTITLE:./CDTITLES/pop'n music.png;
#MUSIC:MY GIFTS.mp3;
#OFFSET:1.176;
#SAMPLESTART:33.816;
#SAMPLELENGTH:16.060;
#SELECTABLE:YES;
#BPMS:0.000=185.000;
#STOPS:;
#BGCHANGES:;

//---------------dance-single - ----------------
#NOTES:
     dance-single:
     :
     Beginner:
     2:
     0.109,0.190,0.082,0.000,0.000:
0000
0000
0000
0000
,
0000
0000
0000
0000
,
0000
0000
0000
0000
,
0000
0000
0000
0000
,
0000
0000
0000
0000
,
0000
0000
0000
0000
,
0000
0000
0000
0000
,
0000
0000
0000
0000
,
0000
0000
0000
0000
,
0000
1000
0000
0000
,
0000
0000
0100
0000
,
0000
0000
0010
0000
,
0000
0000
1000
0000
,
0000
0001
0000
0000
,
0000
0000
0010
0000
,
0000
0000
0100
0000
,
0000
0000
0001
0000
,
1000
0000
0000
0000
,
0000
0000
0000
0000
,
1000
0000
0000
0000
,
0010
0000
0010
0000
,
0010
0000
0000
0000
,
0001
0000
0000
0000
,
1001
0000
0000
0000
,
1001
0000
0000
0000
,
1000
0000
0000
0000
,
1001
0000
0000
0000
,
1000
0000
0000
0000
,
0000
0000
0010
0000
,
0000
0000
0100
0000
,
0000
0000
0000
0000
,
0010
0000
0000
0000
,
0100
0000
0000
0000
,
1000
0000
0000
0000
,
0000
0000
0000
0000
,
0001
0000
0000
0000
,
0000
0000
0100
0000
,
0000
0000
0010
0000
,
0000
0000
0000
0000
,
0000
0000
0010
0010
,
0000
0000
1000
1000
,
0000
0000
0100
0000
,
0000
0001
0001
0000
,
0000
0000
0100
0100
,
0000
0000
0001
0001
,
0000
0000
0000
0000
,
1001
0000
0000
0000
,
0100
0000
0000
0000
,
0000
0000
0000
0000
,
0001
0000
0000
0000
,
0000
0000
0000
0000
,
1000
0000
0000
0000
,
0000
0000
0000
0000
,
0010
0000
0000
0000
,
1001
0000
0000
0000
,
0001
0000
0000
0000
,
0000
0000
0000
0000
,
0001
0000
0000
0000
,
0100
0000
0100
0000
,
0100
0000
0000
0000
,
1000
0000
0000
0000
,
1001
0000
0000
0000
,
1001
0000
0000
0000
,
0001
0000
0000
0000
,
1001
0000
0000
0000
,
0001
0000
0000
0000
,
0000
0000
0000
0000
,
0010
0000
0000
0000
,
0000
0000
0000
0000
,
0001
0000
0000
0000
,
0000
0000
0000
0000
,
0001
0000
0000
0000
,
1000
0000
0001
0000
,
1000
0000
0000
0000
,
0000
0000
0010
0000
,
0000
0000
0100
0000
,
0000
0000
0000
0000
,
0000
0000
0100
0100
,
0000
0000
0001
0001
,
0000
0000
0010
0000
,
0000
1000
1000
0000
,
0000
0000
0010
0010
,
0000
0000
1000
1000
,
0000
0000
1001
0000
;

//---------------dance-single - ----------------
#NOTES:
     dance-single:
     :
     Easy:
     3:
     0.191,0.347,0.091,0.282,0.000:
0000
0000
0000
0000
,
0000
0000
0000
0000
,
0000
0000
0000
0000
,
0000
0000
0000
0000
,
0000
0000
0000
0000
,
0000
0000
0000
0000
,
0000
0000
0000
0000
,
0000
0000
0000
0000
,
0000
0000
0000
0000
,
0000
1000
0000
0001
,
0000
0000
0100
0000
,
0000
0010
0000
0100
,
0000
0001
0000
0000
,
0000
0001
0000
1000
,
0000
0000
0100
0000
,
0000
0010
0000
0100
,
0000
1000
0000
0000
,
0002
0000
2003
0000
,
3001
0000
0000
0000
,
2000
0000
3020
0000
,
1030
0000
1000
0000
,
0000
0000
0000
0000
,
1000
0001
1000
0000
,
2002
0000
3003
0000
,
2002
0000
3003
0000
,
0010
0000
0000
0000
,
0001
0000
1001
0000
,
0020
0000
0000
0000
,
0000
0030
0200
0000
,
0000
0300
2000
0000
,
0000
0000
3000
0000
,
0002
0000
0000
0003
,
2000
0000
0000
3000
,
0200
0000
0000
0000
,
0000
0000
0300
0000
,
0020
0000
0000
0000
,
0000
0030
0200
0000
,
0000
0300
0002
0000
,
0000
0000
0003
0000
,
0100
0000
0001
0000
,
1000
0000
0100
0100
,
0010
0000
0000
0000
,
0001
0100
0100
0000
,
0010
0000
1000
0000
,
0001
0000
0010
0010
,
0000
0000
1001
0000
,
0110
0000
1001
0000
,
0100
0000
0000
0000
,
0000
0000
0000
0000
,
0010
0000
0000
0000
,
0000
0000
0000
0000
,
0001
0000
0000
0000
,
0000
0000
0000
0000
,
1000
0000
0000
0000
,
0100
0000
0100
0000
,
2000
0000
3002
0000
,
1003
0000
0000
0000
,
0002
0000
0203
0000
,
0301
0000
0001
0000
,
0000
0000
0000
0000
,
0001
1000
0001
0000
,
2002
0000
3003
0000
,
2002
0000
3003
0000
,
0100
0000
0000
0000
,
1000
0000
1001
0000
,
0002
0000
0000
0000
,
0000
0000
0000
0003
,
0200
0000
0000
0000
,
0000
0000
0000
0300
,
0020
0000
0000
0000
,
1030
0000
0000
0000
,
0001
0001
1000
0000
,
0001
1000
1000
0000
,
0200
0000
0000
0000
,
0000
0300
0020
0000
,
0000
0030
2000
0000
,
0000
0000
3000
0000
,
0010
0000
1000
0000
,
0001
0000
0010
0010
,
0100
0000
0000
0000
,
1000
0010
0010
0000
,
0100
0000
0001
0000
,
1000
0000
0100
0100
,
0000
0000
1001
0000
,
1000
1000
1000
1000
;

//---------------dance-single - ----------------
#NOTES:
     dance-single:
     :
     Medium:
     6:
     0.303,0.425,0.064,0.592,0.000:
0000
0000
0000
0000
,
0000
0000
0000
0000
,
0000
0000
0000
0000
,
0000
0000
0000
0000
,
0000
0000
0000
0000
,
0000
0000
0000
0000
,
0000
0000
0000
0000
,
0000
0000
0000
0000
,
0000
0000
0000
0000
,
0010
0000
0001
0100
,
0000
0001
0010
0001
,
0000
1000
0000
0100
,
0010
0100
0100
0000
,
0010
0000
1000
0100
,
0000
1000
0010
1000
,
0000
0001
0000
0100
,
0010
0100
0100
0000
,
2000
0000
3200
0000
,
0310
0000
0100
0000
,
0020
0000
0032
0000
,
0103
0000
0001
1000
,
0010
0000
0100
0001
,
1000
0001
1100
0000
,
0220
0330
0001
0000
,
0220
0330
1000
0000
,
1000
0100
0010
0000
,
1000
0100
0001
0000
,
2000
0000
0000
0000
,
0100
3000
0002
0003
,
0200
0300
2000
0000
,
3200
0000
0320
0000
,
0032
0000
0100
0100
,
0023
0000
0200
0030
,
2300
0000
0000
0000
,
0000
0000
3000
0000
,
0002
0000
0000
0000
,
0010
0003
2000
3000
,
0020
0030
0002
0000
,
0023
0000
2030
0000
,
3020
0000
0130
0000
,
2000
0000
3010
0010
,
0200
0300
0020
0030
,
2000
0000
3000
0000
,
0200
0000
0310
0000
,
0002
0000
0103
0100
,
0010
0000
1000
0001
,
0010
0100
1001
0000
,
0020
0000
0000
0000
,
0032
0000
0000
0000
,
2000
0000
0000
0003
,
3200
0000
0000
0000
,
0320
0000
0000
0000
,
0000
0000
0000
0000
,
0032
0000
0000
0000
,
2003
0001
3001
0000
,
0002
0000
0203
0000
,
0310
0000
0100
0000
,
0020
0000
2030
0000
,
3100
0000
1000
0001
,
0010
0000
0100
1000
,
0001
1000
0101
0000
,
0220
0330
1000
0000
,
0220
0330
0001
0000
,
0001
0100
0010
0100
,
0001
0100
1000
0000
,
2000
0000
0000
0000
,
3002
0000
0000
0000
,
0203
0000
0000
0000
,
0302
0000
0000
0000
,
0023
0000
0000
0000
,
0031
0000
1000
0000
,
0010
1000
0100
0000
,
0010
0010
0100
0000
,
2000
0000
0000
0000
,
0010
3000
0002
0003
,
0020
0030
2000
0000
,
3020
0000
0032
0000
,
0023
0000
0130
0000
,
0002
0000
0013
0010
,
0200
0300
0020
0030
,
0002
0000
0003
0000
,
0200
0000
0310
0000
,
2000
0000
3100
0100
,
0010
0000
0001
1000
,
0020
0100
0100
0130
;

//---------------dance-single - ----------------
#NOTES:
     dance-single:
     :
     Hard:
     9:
     0.311,0.347,0.064,0.191,0.000: // measure 1
0000
0000
0000
0000
,  // measure 2
0000
0000
0000
0000
,  // measure 3
0000
0000
0000
0000
,  // measure 4
0000
0000
0000
0000
,  // measure 5
0000
0000
0000
0000
,  // measure 6
0000
0000
0000
0000
,  // measure 7
0000
0000
0000
0000
,  // measure 8
0000
0000
0000
0000
,  // measure 9
0000
0000
0000
0000
,  // measure 10
1000
0001
1000
0100
,  // measure 11
1000
0100
0000
0100
,  // measure 12
0010
0000
0001
0100
,  // measure 13
0010
0000
0100
0000
,  // measure 14
0001
1000
0001
0100
,  // measure 15
0001
0100
0000
0100
,  // measure 16
0010
0000
1000
0100
,  // measure 17
0010
0000
0100
0000
,  // measure 18
0002
0000
0203
0000
,  // measure 19
0310
0000
1000
0000
,  // measure 20
0020
0000
0230
0000
,  // measure 21
1300
0000
0100
0000
,  // measure 22
0010
0001
1000
0100
,  // measure 23
1000
0001
1000
0000
,  // measure 24
0201
0000
0010
0300
,  // measure 25
2100
0000
0010
3000
,  // measure 26
0200
0000
1000
1300
,  // measure 27
1000
0100
0110
0000
,  // measure 28
0001
0001
0010
0001
,  // measure 29
1000
1000
0100
0010
,  // measure 30
0100
0100
0010
0100
,  // measure 31
1000
0000
0001
0000
,  // measure 32
1000
0100
0010
0001
,  // measure 33
1000
0100
0010
0000
,  // measure 34
1000
0001
1000
0000
,  // measure 35
1000
0010
0100
0000
,  // measure 36
1000
1000
0010
1000
,  // measure 37
0001
0001
0100
0010
,  // measure 38
0100
0100
0010
0100
,  // measure 39
0001
0000
1000
0000
,  // measure 40
0010
1000
0001
0000
,  // measure 41
0010
0000
0010
0100
,  // measure 42
1000
0000
0010
0100
,  // measure 43
1000
0010
0100
0000
,  // measure 44
0100
0001
1000
0000
,  // measure 45
0100
0000
0100
0010
,  // measure 46
2000
0000
0010
3100
,  // measure 47
0010
0100
1001
0000
,  // measure 48
0001
0000
0000
0010
0000
0000
0100
0000
,  // measure 49
0010
0000
0000
1000
,  // measure 50
0100
0000
0000
0010
0000
0000
0001
0000
,  // measure 51
0001
0000
0000
0010
,  // measure 52
0100
0000
0000
1000
0000
0000
0001
0000
,  // measure 53
1000
0000
0000
0100
,  // measure 54
0001
0000
0000
1000
0000
0000
0001
0000
,  // measure 55
0001
0000
0000
1000
,  // measure 56
2000
0000
3020
0000
,  // measure 57
0130
0000
0001
0000
,  // measure 58
0200
0000
0320
0000
,  // measure 59
0031
0000
0010
0000
,  // measure 60
0100
1000
0001
0010
,  // measure 61
0001
1000
0001
0000
,  // measure 62
1020
0000
0100
0030
,  // measure 63
0012
0000
0100
0003
,  // measure 64
0020
0000
0001
0031
,  // measure 65
0001
0010
0110
0000
,  // measure 66
0020
0000
0000
0000
,  // measure 67
0000
0000
0000
0000
,  // measure 68
0230
0000
0000
0000
,  // measure 69
2300
0000
0000
0000
,  // measure 70
3200
0000
0000
0000
,  // measure 71
0320
0000
0130
0000
,  // measure 72
0100
0001
1000
0000
,  // measure 73
1000
0001
1000
0001
,  // measure 74
1000
1000
0100
1000
,  // measure 75
0001
0001
0010
0100
,  // measure 76
0010
0010
0100
0010
,  // measure 77
0001
0000
1000
0000
,  // measure 78
0100
1000
0001
0000
,  // measure 79
0100
0000
0100
0010
,  // measure 80
1000
0000
0100
0010
,  // measure 81
1000
0100
0010
0000
,  // measure 82
0010
0001
1000
0000
,  // measure 83
0010
0000
0010
0100
,  // measure 84
2000
0000
0100
3010
,  // measure 85
0100
0001
1000
0100
;
