#TITLE:INTO YOUR HEART (Ruffage remix);
#SUBTITLE:;
#ARTIST:NAOKI feat.YASMINE;
#TITLETRANSLIT:;
#SUBTITLETRANSLIT:;
#ARTISTTRANSLIT:;
#CREDIT:;
#BANNER:INTO YOUR HEART (Ruffage remix).png;
#BACKGROUND:;
#LYRICSPATH:;
#CDTITLE:./CDTITLES/DanceDanceRevolution HOTTEST PARTY 2.png;
#MUSIC:INTO YOUR HEART (Ruffage remix).mp3;
#OFFSET:1.717;
#SAMPLESTART:0.920;
#SAMPLELENGTH:14.980;
#SELECTABLE:YES;
#BPMS:0.000=135.000;
#STOPS:;
#BGCHANGES:;

//---------------dance-single - ----------------
#NOTES:
     dance-single:
     :
     Beginner:
     1:
     0.096,0.132,0.021,0.000,0.000: // measure 1
0000
0000
0000
0000
,  // measure 2
0000
0000
0000
0000
,  // measure 3
0000
0000
0000
0000
,  // measure 4
0000
0000
0000
0000
,  // measure 5
0000
0000
0000
0000
,  // measure 6
0000
0000
0000
0000
,  // measure 7
0100
0000
0000
0000
,  // measure 8
1000
0000
0100
0000
,  // measure 9
0010
0000
0000
0000
,  // measure 10
0001
0000
0000
0000
,  // measure 11
1000
0000
0001
0000
,  // measure 12
1000
0000
0010
0000
,  // measure 13
0000
0000
0001
0000
,  // measure 14
0000
0000
0010
0010
,  // measure 15
0010
0000
0000
0000
,  // measure 16
0001
0000
0010
0000
,  // measure 17
0100
0000
0000
0000
,  // measure 18
1000
0000
0000
0000
,  // measure 19
0001
0000
0000
0000
,  // measure 20
0100
0000
0000
0000
,  // measure 21
0001
0000
0001
0000
,  // measure 22
0010
0000
0000
0000
,  // measure 23
1000
0000
0000
0000
,  // measure 24
0100
0000
0000
0000
,  // measure 25
1001
0000
0000
0000
,  // measure 26
0000
0000
0000
0000
,  // measure 27
0000
0100
0100
0000
,  // measure 28
0000
1000
1000
0000
,  // measure 29
0000
0010
0010
0000
,  // measure 30
0000
0001
0001
0000
,  // measure 31
0100
0000
0000
0000
,  // measure 32
0001
0000
0000
0000
,  // measure 33
1000
0000
0000
0000
,  // measure 34
0000
0000
0000
0000
,  // measure 35
0001
0000
1000
0000
,  // measure 36
0001
0000
0010
0000
,  // measure 37
0000
0000
1000
0000
,  // measure 38
0000
0000
0010
0010
,  // measure 39
0010
0000
0000
0000
,  // measure 40
1000
0000
0010
0000
,  // measure 41
0100
0000
0000
0000
,  // measure 42
0001
0000
0000
0000
,  // measure 43
1000
0000
0001
0000
,  // measure 44
1000
0000
0100
0000
,  // measure 45
0000
0000
0001
0000
,  // measure 46
0000
0000
0100
0100
,  // measure 47
0100
0000
0000
0000
,  // measure 48
0001
0000
0100
0000
,  // measure 49
0000
1000
0000
0001
,  // measure 50
0000
0100
0000
0000
,  // measure 51
1001
0000
0000
0000
;

//---------------dance-single - ----------------
#NOTES:
     dance-single:
     :
     Easy:
     2:
     0.140,0.189,0.021,0.032,0.000: // measure 1
0000
0000
0000
0000
,  // measure 2
0000
0000
0000
0000
,  // measure 3
0000
0000
0000
0000
,  // measure 4
0000
0000
0000
0000
,  // measure 5
0000
0000
0000
0000
,  // measure 6
0000
0000
0000
0000
,  // measure 7
0001
0000
0000
1000
,  // measure 8
1000
0000
0100
0000
,  // measure 9
0001
0000
0000
1000
,  // measure 10
0010
0000
0000
0000
,  // measure 11
0010
0010
0001
0000
,  // measure 12
1000
0000
0100
0000
,  // measure 13
0000
0000
0001
0001
,  // measure 14
0000
0000
0100
1000
,  // measure 15
1000
0000
0000
0001
,  // measure 16
0001
0000
0100
0000
,  // measure 17
1000
0000
0000
0001
,  // measure 18
0010
0000
0000
0000
,  // measure 19
0001
0000
0001
0000
,  // measure 20
0100
0000
1000
0000
,  // measure 21
0100
0000
0100
0000
,  // measure 22
0010
0000
0000
0000
,  // measure 23
1000
0000
1000
0000
,  // measure 24
0100
0000
0001
0000
,  // measure 25
0020
0000
0000
0030
,  // measure 26
0000
0000
1001
0000
,  // measure 27
0000
0001
0010
0001
,  // measure 28
0000
0000
0001
0001
,  // measure 29
0000
1000
0010
1000
,  // measure 30
0000
0000
1000
1000
,  // measure 31
0000
0001
0100
0001
,  // measure 32
0000
1000
0001
0000
,  // measure 33
1000
0000
0000
0000
,  // measure 34
0010
0000
0000
0000
,  // measure 35
0100
0100
1000
0000
,  // measure 36
0001
0000
0010
0000
,  // measure 37
0000
0000
1000
1000
,  // measure 38
0000
0000
0010
0001
,  // measure 39
0001
0000
0000
1000
,  // measure 40
1000
0000
0100
0000
,  // measure 41
0001
0000
0000
1000
,  // measure 42
0010
0000
0000
0000
,  // measure 43
0010
0010
0001
0000
,  // measure 44
1000
0000
0100
0000
,  // measure 45
0000
0000
0001
0001
,  // measure 46
0000
0000
0100
1000
,  // measure 47
1000
0000
0000
0001
,  // measure 48
0001
0000
0010
0000
,  // measure 49
0000
0100
0100
0000
,  // measure 50
0001
1000
0001
0000
,  // measure 51
2002
0000
0000
0000
,  // measure 52
0000
3003
0000
0000
;

//---------------dance-single - ----------------
#NOTES:
     dance-single:
     :
     Medium:
     3:
     0.187,0.216,0.032,0.063,0.000: // measure 1
0000
0000
0000
0000
,  // measure 2
0000
0000
0000
0000
,  // measure 3
0000
0000
0000
0000
,  // measure 4
0000
0000
0000
0000
,  // measure 5
0000
0000
0000
0000
,  // measure 6
0000
0000
0000
0000
,  // measure 7
0010
0000
1000
0100
,  // measure 8
0100
0000
0010
0001
,  // measure 9
0100
0000
0010
0010
,  // measure 10
0100
0000
0000
0000
,  // measure 11
1000
0001
0100
0000
,  // measure 12
0010
1000
0100
0000
,  // measure 13
0010
0000
0010
0001
,  // measure 14
0100
0000
0001
1000
,  // measure 15
0010
0000
0001
0100
,  // measure 16
0100
0000
0010
1000
,  // measure 17
0100
0000
0100
0000
,  // measure 18
0010
0000
1001
0000
,  // measure 19
0001
0000
0100
0000
,  // measure 20
0010
0000
1000
0000
,  // measure 21
0001
0010
0001
0000
,  // measure 22
1000
0000
0001
0000
,  // measure 23
1000
0000
0010
0000
,  // measure 24
0100
0000
0001
0000
,  // measure 25
2000
0000
0002
3003
,  // measure 26
0000
0100
0000
0110
,  // measure 27
0000
1000
0001
0010
,  // measure 28
0000
0000
0100
0100
,  // measure 29
0000
0001
1000
0010
,  // measure 30
0000
0000
0100
0100
,  // measure 31
0000
1000
0001
0100
,  // measure 32
0001
0001
1000
1000
,  // measure 33
0002
0000
0000
0003
,  // measure 34
0200
0000
0000
0300
,  // measure 35
0001
1000
0100
0000
,  // measure 36
0010
0001
0100
0000
,  // measure 37
0010
0000
0010
1000
,  // measure 38
0100
0000
1000
0001
,  // measure 39
0010
0000
1000
0100
,  // measure 40
0100
0000
0010
0001
,  // measure 41
0100
0000
0010
0010
,  // measure 42
0100
0000
0000
0000
,  // measure 43
1000
0001
0010
0000
,  // measure 44
0100
1000
0010
0000
,  // measure 45
0100
0000
0100
0001
,  // measure 46
0010
0000
0001
1000
,  // measure 47
0100
0000
0001
0010
,  // measure 48
0010
0000
0100
1000
,  // measure 49
0001
0001
1000
0000
,  // measure 50
0100
0100
0010
0000
,  // measure 51
2002
0000
0000
0000
,  // measure 52
0000
3003
0000
0000
;

//---------------dance-single - ----------------
#NOTES:
     dance-single:
     :
     Hard:
     5:
     0.239,0.270,0.042,0.063,0.000: // measure 1
0000
0000
0000
0000
,  // measure 2
0000
0000
0000
0000
,  // measure 3
0000
0000
0000
0000
,  // measure 4
0000
0000
0000
0000
,  // measure 5
0000
0000
0000
0000
,  // measure 6
0000
0000
0000
0000
,  // measure 7
1000
0000
0000
0100
0000
0000
0010
0000
,  // measure 8
0100
0000
0000
0001
0000
0000
0010
0000
,  // measure 9
0100
0000
1000
0100
,  // measure 10
0010
0000
0001
0001
,  // measure 11
1000
1000
0100
0010
,  // measure 12
0100
0010
0010
0001
,  // measure 13
0001
0000
0000
0001
0100
0000
1000
0000
,  // measure 14
0100
0000
0000
0000
0010
0001
0010
0000
,  // measure 15
0001
0000
0000
0100
0000
0000
0010
0000
,  // measure 16
0100
0000
0000
1000
0000
0000
0010
0000
,  // measure 17
0100
0000
0001
0100
,  // measure 18
0010
0000
1000
1000
,  // measure 19
0001
0000
1000
0100
,  // measure 20
0010
0001
0010
0100
,  // measure 21
1000
0000
1000
0001
,  // measure 22
0100
0000
0100
0100
,  // measure 23
1000
0000
0001
0010
,  // measure 24
0100
1000
0100
0010
,  // measure 25
0002
0000
0020
0033
,  // measure 26
0000
0100
0100
0010
,  // measure 27
0011
0000
1000
1000
,  // measure 28
0100
0010
0100
0010
,  // measure 29
1100
0000
0001
0001
,  // measure 30
0010
0100
0010
0100
,  // measure 31
0101
0000
1000
1000
,  // measure 32
0001
0100
0010
1000
,  // measure 33
0200
0000
0020
0330
,  // measure 34
0000
0000
1000
0001
,  // measure 35
1000
1000
0010
0100
,  // measure 36
0010
0100
0100
0001
,  // measure 37
0001
0000
0000
0001
0010
0000
1000
0000
,  // measure 38
0010
0000
0000
0000
0100
0001
0100
0000
,  // measure 39
1000
0000
0000
0100
0000
0000
0010
0000
,  // measure 40
0100
0000
0000
0001
0000
0000
0010
0000
,  // measure 41
0100
0000
1000
0100
,  // measure 42
0010
0000
0001
0001
,  // measure 43
0001
0001
0100
0010
,  // measure 44
0100
0010
0010
1000
,  // measure 45
1000
0000
0000
1000
0100
0000
0001
0000
,  // measure 46
0100
0000
0000
0000
0010
1000
0010
0000
,  // measure 47
0001
0000
0000
0010
0000
0000
0100
0000
,  // measure 48
0010
0000
0000
1000
0000
0000
0100
0000
,  // measure 49
0010
0001
1000
0001
,  // measure 50
0100
0010
0010
0100
,  // measure 51
2002
0000
0000
0000
,  // measure 52
0000
3003
0000
0000
;
