#TITLE:I'm Screaming LOVE;
#SUBTITLE:;
#ARTIST:Creative Life;
#TITLETRANSLIT:;
#SUBTITLETRANSLIT:;
#ARTISTTRANSLIT:;
#CREDIT:;
#BANNER:I'm Screaming LOVE.png;
#BACKGROUND:I'm Screaming LOVE-bg.png;
#LYRICSPATH:;
#CDTITLE:./CDTITLES/beatmaniaIIDX.png;
#MUSIC:I'm Screaming LOVE.mp3;
#OFFSET:1.554;
#SAMPLESTART:63.915;
#SAMPLELENGTH:16.440;
#SELECTABLE:YES;
#BPMS:0.000=147.000;
#STOPS:;
#BGCHANGES:;

//---------------dance-single - ----------------
#NOTES:
     dance-single:
     :
     Beginner:
     2:
     0.125,0.180,0.072,0.000,0.000:
0000
0000
0000
0000
,
0000
0000
0000
0000
,
0000
0000
0000
0000
,
0000
0000
0000
0000
,
0000
0000
0000
0000
,
0001
0000
0000
0000
,
0010
0000
0000
0000
,
0001
0000
0000
0000
,
1000
0000
0000
0000
,
1000
0000
0000
0000
,
0010
0000
0000
0000
,
1000
0000
0000
0000
,
0001
0000
0000
0000
,
0001
0000
0010
0000
,
0001
0000
0000
0000
,
1000
0000
0100
0000
,
1000
0000
1001
0000
,
0010
0000
0010
0000
,
0010
0000
0000
0000
,
0010
0000
0010
0000
,
0100
0000
0000
0000
,
0010
0000
0010
0000
,
0100
0000
0100
0000
,
1001
0000
0000
0000
,
0000
0000
0000
0000
,
1000
0000
0000
0000
,
0001
0000
1000
0000
,
0001
0000
0000
0000
,
0001
0000
0000
0000
,
0001
0000
0010
0000
,
1000
0000
0000
0000
,
1000
0000
0010
0000
,
0010
0000
1001
0000
,
0001
0000
0000
0000
,
0100
0000
0000
0000
,
1000
0000
0000
0000
,
0010
0000
0010
0000
,
1000
0000
0000
0000
,
0100
0000
0000
0000
,
0001
0000
0000
0000
,
0010
0010
0010
0000
,
0001
0000
0000
0000
,
1000
0000
0100
0000
,
0001
0000
0000
0000
,
0100
0000
0000
1001
,
0000
0001
0000
0000
,
0000
1000
0000
0000
,
0001
0000
1000
0000
,
0001
0000
1000
0000
,
1000
0000
0000
0000
,
0001
0000
0100
0000
,
1000
0000
0000
0000
,
1001
0000
0100
0000
,
0001
0000
0010
0000
,
1000
0000
0010
0000
,
0001
0000
1000
0000
,
0001
0000
1000
0000
,
0001
0000
0000
0000
,
1000
0000
0000
0000
,
0010
0000
0000
0000
,
0010
0000
1001
0000
,
1000
0000
0000
0000
,
0001
0000
0000
0000
,
0001
0000
0100
0000
,
1001
0000
0000
0000
,
0010
0000
0010
0000
,
0100
0000
0100
0000
,
1001
0000
0000
0000
;

//---------------dance-single - ----------------
#NOTES:
     dance-single:
     :
     Easy:
     3:
     0.198,0.277,0.152,0.134,0.000: // measure 1
0000
0000
0000
0000
,  // measure 2
0000
0000
0000
0000
,  // measure 3
0000
0000
0000
0000
,  // measure 4
0000
0000
0000
0000
,  // measure 5
0000
0000
0000
0000
,  // measure 6
1000
0000
0100
0000
,  // measure 7
1000
0000
0100
0000
,  // measure 8
2000
0000
3000
0000
,  // measure 9
0002
0000
0003
0000
,  // measure 10
0001
0000
0010
0000
,  // measure 11
0001
0000
0010
0000
,  // measure 12
0002
0000
0003
0000
,  // measure 13
2000
0000
3000
0000
,  // measure 14
1000
0000
0100
0000
,  // measure 15
0100
0000
1000
0000
,  // measure 16
0010
0000
0001
0000
,  // measure 17
0010
0000
1001
0000
,  // measure 18
0100
0100
0100
0000
,  // measure 19
0001
0000
1000
0000
,  // measure 20
0010
0010
1000
0000
,  // measure 21
0010
0010
0001
0000
,  // measure 22
0110
0000
1001
0000
,  // measure 23
0010
0010
0010
0010
,  // measure 24
2002
0000
0000
0000
,  // measure 25
0000
0000
0000
3003
,  // measure 26
0001
0000
0000
0000
,  // measure 27
1000
1000
0001
0000
,  // measure 28
1000
0000
0000
0000
,  // measure 29
1000
1000
0001
0001
,  // measure 30
1000
0000
0100
0000
,  // measure 31
0001
0001
1000
1000
,  // measure 32
0001
0000
0100
0000
,  // measure 33
0110
0000
1001
0000
,  // measure 34
1000
0000
0000
0000
,  // measure 35
0010
0000
0000
0000
,  // measure 36
0001
0000
0000
0000
,  // measure 37
0100
0100
0100
0000
,  // measure 38
0001
0000
0001
0000
,  // measure 39
0010
0000
0010
0000
,  // measure 40
1000
0000
1000
0000
,  // measure 41
0100
0100
0100
0000
,  // measure 42
1000
0000
0010
0000
,  // measure 43
0001
0000
0010
0000
,  // measure 44
1000
0000
0001
0000
,  // measure 45
0010
0000
0000
1001
,  // measure 46
0000
1000
0000
1000
,  // measure 47
0000
0001
0000
0001
,  // measure 48
1000
0000
0001
0000
,  // measure 49
0010
0000
0100
0000
,  // measure 50
0001
0000
0010
0000
,  // measure 51
1000
0000
0010
0000
,  // measure 52
0001
0000
1000
0000
,  // measure 53
1001
0010
0010
0010
,  // measure 54
1000
0000
0110
0000
,  // measure 55
0001
0000
0110
0000
,  // measure 56
1000
0000
0001
0000
,  // measure 57
0100
0000
0010
0000
,  // measure 58
2000
0000
0000
3000
,  // measure 59
0002
0000
0000
0003
,  // measure 60
0200
0000
0000
0300
,  // measure 61
0100
0000
1001
0000
,  // measure 62
0002
0000
0003
0000
,  // measure 63
2000
0000
3000
0000
,  // measure 64
1001
0000
0110
0000
,  // measure 65
2002
0000
3003
0000
,  // measure 66
0110
0000
1001
0000
,  // measure 67
0010
0010
0010
0010
,  // measure 68
2002
0000
0000
0000
,  // measure 69
0000
0000
0000
3003
;

//---------------dance-single - ----------------
#NOTES:
     dance-single:
     :
     Medium:
     5:
     0.261,0.400,0.170,0.170,0.000:
0000
0000
0000
0000
,
0000
0000
0000
0000
,
0000
0000
0000
0000
,
0000
0000
0000
0000
,
0000
0000
0000
0000
,
0001
0000
0010
0000
,
0001
0001
0010
0000
,
0002
0000
0003
0000
,
2000
0000
3000
0000
,
1000
0000
0100
0000
,
1000
1000
0100
0000
,
2000
0000
3000
0000
,
0002
0000
0003
0000
,
0001
0000
0001
0010
,
0010
0000
0001
0010
,
0100
0000
1000
0010
,
0100
0000
1001
0000
,
0010
0010
0010
0100
,
0010
1000
0001
0000
,
0100
0001
0100
0000
,
1000
0010
1000
0000
,
1001
0010
0110
0100
,
1001
0010
0010
0010
,
2002
0000
0000
0003
,
0001
0000
0001
3000
,
1000
0000
0010
0000
,
0001
0001
1000
0000
,
1000
0000
0001
0000
,
0001
0001
1000
1000
,
0001
1000
0010
0000
,
1000
1000
0001
0010
,
1000
0100
0010
0000
,
0110
0000
1001
0000
,
0001
0000
0010
0000
,
0100
0000
0010
0000
,
1000
0000
0010
0000
,
0010
0010
0010
0000
,
1000
0100
1000
0000
,
0100
0010
0100
0000
,
0001
0010
0001
0000
,
0010
0010
0010
0000
,
0001
0010
1000
0010
,
0001
0000
0100
0000
,
0001
0010
1000
0010
,
1000
0000
0010
1001
,
0000
0001
0000
0001
,
0000
1000
0000
1000
,
0001
0010
1000
1000
,
0100
0010
0010
0010
,
1000
0010
0001
0010
,
1000
0000
0100
0000
,
1000
0010
0001
0010
,
1001
0010
0100
0010
,
0001
0001
0011
0000
,
1000
1000
1100
0000
,
0001
0000
1000
0000
,
0010
0000
0100
0000
,
0002
0000
0000
0003
,
2000
0000
0000
3000
,
0020
0100
0000
0130
,
0010
0010
1001
0000
,
2000
0000
3000
0010
,
0002
0000
0003
0100
,
2002
3003
0220
0330
,
2002
0000
3003
0000
,
1001
0010
0110
0100
,
1001
0010
0010
0010
,
2002
0000
0000
0000
,
0000
0000
0000
3003
;

//---------------dance-single - ----------------
#NOTES:
     dance-single:
     :
     Hard:
     8:
     0.351,0.431,0.251,0.188,0.000:
0000
0000
0000
0000
,
0000
0000
0000
0000
,
0000
0000
0000
0000
,
0000
0000
0000
0000
,
0000
0000
0000
0000
,
1000
1000
0100
0100
,
1000
1000
1000
0000
0100
0000
0100
0000
,
2000
3000
0200
0300
,
0002
0000
0003
0000
,
0001
0001
0010
0010
,
0001
0001
0001
0000
0010
0000
0010
0000
,
0002
0003
0020
0030
,
2000
0000
3000
0000
,
1000
0000
0010
0000
1000
0001
0100
0000
,
0100
0100
1000
0100
,
0010
1000
0001
0100
,
0010
0010
1001
0000
,
0100
0100
0100
0010
,
0100
0100
1001
0000
,
0010
0000
0000
1000
0100
0000
0000
0001
,
0100
0000
0010
0010
,
1100
0100
0110
0100
,
0011
1100
0110
0100
,
2002
0000
0000
3000
,
1000
1000
1000
1003
,
0001
1000
0100
0000
,
1000
0100
1000
0000
0001
0000
0000
0000
,
0001
1000
0100
0100
,
1000
0100
1000
0000
0001
0000
0001
0000
,
1000
0001
0100
0100
,
0001
0100
0001
0000
1000
0100
1000
0000
,
0001
0010
0100
0100
,
0110
0110
1001
0000
,
1000
0100
1000
0000
,
0010
0100
0010
0000
,
0001
0100
0001
1000
,
0100
0100
0100
0000
,
0001
0010
0001
0001
,
0010
0100
0010
0010
,
1000
0100
1000
0001
,
0100
0100
0100
0100
0100
0000
0000
0000
,
1000
0100
0001
0100
,
1000
0000
0001
0000
0010
0100
0100
0000
,
1000
0100
0001
0100
,
1000
0001
0100
1001
,
0000
1000
0000
0100
,
0000
0001
0000
0100
,
1000
0000
0100
0000
0001
0001
0100
0000
,
0001
0000
0010
0000
0100
0100
0100
0000
,
0001
0100
1000
0100
,
0001
0000
1000
0000
0010
0100
0100
0000
,
0001
0100
1000
0100
,
1001
0100
0010
0110
,
1000
1100
0001
0101
,
0010
0011
0100
1100
,
1000
0001
0100
0010
,
1000
0001
0100
0100
,
2000
0000
0100
3100
,
0002
0000
0010
0013
,
0200
1000
1000
1300
,
0001
0100
1001
0000
,
0002
0000
0103
0010
,
2000
0000
3010
0100
,
0022
0033
0220
0330
,
2200
0000
3300
0000
,
1100
0100
0110
0100
,
0011
1100
0110
0100
,
2002
0000
0000
0000
,
0000
0000
0000
3003
;
