#TITLE:HEALEN;
#SUBTITLE:;
#ARTIST:positive - MA;
#TITLETRANSLIT:;
#SUBTITLETRANSLIT:;
#ARTISTTRANSLIT:;
#CREDIT:;
#BANNER:HEALEN.png;
#BACKGROUND:;
#LYRICSPATH:;
#CDTITLE:./CDTITLES/beatmania.png;
#MUSIC:HEALEN.mp3;
#OFFSET:1.665;
#SAMPLESTART:49.960;
#SAMPLELENGTH:16.940;
#SELECTABLE:YES;
#BPMS:0.000=133.000;
#STOPS:;
#BGCHANGES:;

//---------------dance-single - ----------------
#NOTES:
     dance-single:
     :
     Beginner:
     1:
     0.077,0.125,0.000,0.000,0.000: // measure 1
0000
0000
0000
0000
,  // measure 2
0000
0000
0000
0000
,  // measure 3
0000
0000
0000
0000
,  // measure 4
0000
0000
0000
0000
,  // measure 5
0000
0000
0000
0000
,  // measure 6
0001
0000
0000
0000
,  // measure 7
0000
0000
0000
0000
,  // measure 8
1000
0000
0000
0000
,  // measure 9
0000
0000
0000
0000
,  // measure 10
0001
0000
0000
0000
,  // measure 11
0010
0000
0000
0000
,  // measure 12
1000
0000
0000
0000
,  // measure 13
0100
0000
0100
0000
,  // measure 14
1000
0000
0000
0000
,  // measure 15
0100
0000
0000
0000
,  // measure 16
1000
0000
1000
0000
,  // measure 17
1000
0000
0100
0000
,  // measure 18
0001
0000
0000
0000
,  // measure 19
0100
0000
0000
0000
,  // measure 20
0001
0000
0001
0000
,  // measure 21
0001
0000
0010
0000
,  // measure 22
1000
0000
0000
0000
,  // measure 23
0000
0000
0000
0000
,  // measure 24
0001
0000
0000
0000
,  // measure 25
0000
0000
0000
0000
,  // measure 26
0010
0000
0000
0000
,  // measure 27
0000
0000
0000
0000
,  // measure 28
0100
0000
0000
0000
,  // measure 29
0000
0000
0000
0000
,  // measure 30
1000
0000
0100
0000
,  // measure 31
0010
0000
0000
0000
,  // measure 32
0001
0000
0010
0000
,  // measure 33
0100
0000
0000
0000
,  // measure 34
1000
0000
1000
0000
,  // measure 35
0010
0000
0010
0000
,  // measure 36
0001
0000
0001
0000
,  // measure 37
0010
0000
0010
0000
,  // measure 38
1000
0000
1000
0000
,  // measure 39
1000
0000
1000
0000
,  // measure 40
1000
0000
0000
0000
;

//---------------dance-single - ----------------
#NOTES:
     dance-single:
     :
     Easy:
     2:
     0.132,0.204,0.013,0.090,0.000: // measure 1
0000
0000
0000
0000
,  // measure 2
0000
0000
0000
0000
,  // measure 3
0000
0000
0000
0000
,  // measure 4
0000
0000
0000
0000
,  // measure 5
0000
0000
0000
0000
,  // measure 6
0002
0000
0000
0000
,  // measure 7
0000
0000
0003
0000
,  // measure 8
2000
0000
0000
0000
,  // measure 9
0000
0000
3000
0000
,  // measure 10
0001
0000
0000
0000
,  // measure 11
0010
0000
0000
0000
,  // measure 12
1000
0000
0000
0000
,  // measure 13
0100
0010
0100
1001
,  // measure 14
1000
0000
0100
0000
,  // measure 15
1000
0000
0001
0000
,  // measure 16
0100
0000
1000
0000
,  // measure 17
1000
1000
0100
0000
,  // measure 18
0001
0000
0100
0000
,  // measure 19
0001
0000
1000
0000
,  // measure 20
0100
0000
0001
0000
,  // measure 21
0001
0001
0010
0000
,  // measure 22
2000
0010
0000
0010
,  // measure 23
0000
0010
3000
0000
,  // measure 24
0002
0100
0000
0100
,  // measure 25
0000
0100
0003
0000
,  // measure 26
0002
0010
0000
0010
,  // measure 27
0000
0010
0003
0000
,  // measure 28
2000
0100
0000
0100
,  // measure 29
0000
0100
3000
0000
,  // measure 30
1000
1000
0100
0000
,  // measure 31
0010
0000
0000
0000
,  // measure 32
0001
0001
0010
0000
,  // measure 33
0100
0000
0000
0000
,  // measure 34
1000
0000
1000
0000
,  // measure 35
0010
0010
0000
0010
,  // measure 36
0001
0000
0100
1000
,  // measure 37
1000
0100
0010
0010
,  // measure 38
2000
0000
0000
0000
,  // measure 39
0000
0000
0000
0000
,  // measure 40
0000
0000
0000
3000
;

//---------------dance-single - ----------------
#NOTES:
     dance-single:
     :
     Medium:
     3:
     0.183,0.230,0.026,0.116,0.000: // measure 1
0000
0000
0000
0000
,  // measure 2
0000
0000
0000
0000
,  // measure 3
0000
0000
0000
0000
,  // measure 4
0000
0000
0000
0000
,  // measure 5
0000
0000
0000
0000
,  // measure 6
0022
0000
0000
0000
,  // measure 7
0000
0000
0033
0000
,  // measure 8
2200
0000
0000
0000
,  // measure 9
0000
0000
3300
0000
,  // measure 10
1000
1000
0000
1000
0000
0100
0000
0100
,  // measure 11
0000
0010
0000
0010
0000
0001
0000
0001
,  // measure 12
0000
0010
0000
0100
0000
1000
0000
0000
,  // measure 13
0001
1000
0001
1000
,  // measure 14
0001
0010
0001
0000
,  // measure 15
0001
0001
0010
0000
,  // measure 16
0010
0001
0010
0000
,  // measure 17
0001
0100
0010
1000
,  // measure 18
1000
0010
1000
0000
,  // measure 19
1000
1000
0010
0000
,  // measure 20
0010
1000
0010
0000
,  // measure 21
1000
0010
0100
0001
,  // measure 22
0002
0010
0000
1000
,  // measure 23
0000
0010
0003
0100
,  // measure 24
2000
0010
0000
0010
,  // measure 25
0000
0100
3000
0000
,  // measure 26
2000
0100
0000
0001
,  // measure 27
0000
0100
3000
0010
,  // measure 28
0002
0100
0000
0100
,  // measure 29
0000
0010
0003
0000
,  // measure 30
0001
0001
1000
0010
,  // measure 31
0010
0000
0000
0000
,  // measure 32
1000
1000
0001
0100
,  // measure 33
0100
0000
0000
0000
,  // measure 34
0001
0010
0001
0001
,  // measure 35
0100
0100
1000
0100
,  // measure 36
1000
1000
0010
0001
,  // measure 37
0001
0000
0010
0000
0000
1000
0000
1000
,  // measure 38
0002
0000
0000
0000
,  // measure 39
0000
0000
0000
0000
,  // measure 40
0000
0000
0000
0003
;

//---------------dance-single - ----------------
#NOTES:
     dance-single:
     :
     Hard:
     5:
     0.255,0.281,0.103,0.116,0.000: // measure 1
0000
0000
0000
0000
,  // measure 2
0000
0000
0000
0000
,  // measure 3
0000
0000
0000
0000
,  // measure 4
0000
0000
0000
0000
,  // measure 5
0000
0000
0000
0000
,  // measure 6
2200
0000
0000
3000
,  // measure 7
0000
0000
1000
1300
,  // measure 8
0022
0000
0000
0030
,  // measure 9
0000
0000
0010
0013
,  // measure 10
0001
0001
0000
0010
0000
0100
0000
1000
,  // measure 11
0000
0001
0000
0100
0000
0010
0000
1000
,  // measure 12
0000
0100
0000
0010
0000
0001
0000
1000
,  // measure 13
0001
1000
0000
1000
0001
1000
0100
0000
,  // measure 14
1000
0100
1000
0001
,  // measure 15
1000
0100
1000
0010
,  // measure 16
0100
1000
0100
0001
,  // measure 17
1000
0000
0100
0000
1000
0100
0001
0000
,  // measure 18
0001
0100
0001
1000
,  // measure 19
0001
0100
0001
0010
,  // measure 20
0100
0001
0100
1000
,  // measure 21
0001
0000
0100
0000
0001
0100
1000
0000
,  // measure 22
2001
0000
0100
0001
,  // measure 23
0000
0100
3100
0011
,  // measure 24
0102
0000
0100
1000
,  // measure 25
0000
0010
0013
0000
,  // measure 26
1002
0000
0100
1000
,  // measure 27
0000
0100
0103
1010
,  // measure 28
2100
0000
0100
0001
,  // measure 29
0000
0010
3010
0000
,  // measure 30
1000
0001
0010
0100
,  // measure 31
0010
0100
0100
0000
,  // measure 32
0001
1000
0100
0010
,  // measure 33
0100
0010
0010
0000
,  // measure 34
1000
0000
0100
0000
1000
0100
1000
0000
,  // measure 35
0010
0100
0010
0000
0001
0000
0001
0000
,  // measure 36
0001
0010
0100
0000
1000
0000
1000
0000
,  // measure 37
1000
0010
0100
0000
0000
0001
0000
0001
,  // measure 38
2000
0100
0000
0100
,  // measure 39
0000
0100
0000
0100
,  // measure 40
0000
0100
0000
3100
;
