#TITLE:Fly;
#SUBTITLE:;
#ARTIST:Winx Club;
#TITLETRANSLIT:;
#SUBTITLETRANSLIT:;
#ARTISTTRANSLIT:;
#CREDIT:;
#BANNER:Fly.png;
#BACKGROUND:BIG-BANG STARS-bg.png;
#LYRICSPATH:;
#CDTITLE:./CDTITLES/DanceDanceRevolution Winx Club.PNG;
#MUSIC:Fly.mp3;
#OFFSET:1.204;
#SAMPLESTART:1.360;
#SAMPLELENGTH:16.360;
#SELECTABLE:YES;
#DISPLAYBPM:92.000;
#BPMS:0.000=92.000;
#STOPS:;
#BGCHANGES:;

//---------------dance-single - ----------------
#NOTES:
     dance-single:
     :
     Hard:
     5:
     0.225,0.249,0.103,0.159,0.000: // measure 1
0000
0000
0000
0000
,  // measure 2
0000
0000
0000
0000
,  // measure 3
0000
0000
0000
0000
,  // measure 4
0000
0000
0000
0000
,  // measure 5
0000
0000
0000
0000
,  // measure 6
1000
0010
0100
0010
,  // measure 7
0200
0000
0010
0301
,  // measure 8
1000
0200
0000
1300
,  // measure 9
0010
0001
0010
0100
,  // measure 10
0020
0130
1000
1100
,  // measure 11
0010
0001
0010
0101
,  // measure 12
1001
0000
0000
0000
1000
0100
0010
0000
,  // measure 13
0001
1000
0100
1000
,  // measure 14
0020
0000
0100
0130
,  // measure 15
0002
0023
0230
1300
,  // measure 16
1001
0000
0000
0000
0001
0100
0010
0000
,  // measure 17
1000
0001
0100
0001
,  // measure 18
0020
0001
0001
0130
,  // measure 19
1010
1100
0011
0101
,  // measure 20
2000
0000
0100
0100
,  // measure 21
0000
0000
0001
3100
,  // measure 22
0020
0000
1000
0100
,  // measure 23
0100
0000
0001
0130
,  // measure 24
0001
0010
0100
0010
,  // measure 25
0200
0000
0010
1300
,  // measure 26
0001
0200
0000
0301
,  // measure 27
0010
1000
0010
0100
,  // measure 28
1000
0010
0100
0010
,  // measure 29
0200
0000
0010
0301
,  // measure 30
1000
0200
0000
1300
,  // measure 31
0010
0001
0010
0100
,  // measure 32
0020
0130
1000
1100
,  // measure 33
0010
0001
0010
0101
,  // measure 34
2000
0000
0010
0000
0100
0100
3001
0000
,  // measure 35
0010
0000
0001
0010
0001
0000
0100
0000
,  // measure 36
0010
0000
1000
0010
1000
0000
0100
0000
,  // measure 37
0100
0000
0001
0100
0001
0000
0010
0000
,  // measure 38
0002
0000
0010
0000
0100
0100
1003
0000
,  // measure 39
0010
0000
1000
0010
1000
0000
0100
0000
,  // measure 40
0010
0000
0001
0010
0001
0000
0100
0000
,  // measure 41
0100
0000
1000
0100
1000
0000
0010
0000
,  // measure 42
1001
0000
0000
0000
;

//---------------dance-single - ----------------
#NOTES:
     dance-single:
     :
     Medium:
     4:
     0.165,0.172,0.056,0.103,0.000:
0000
0000
0000
0000
,
0000
0000
0000
0000
,
0000
0000
0000
0000
,
0000
0000
0000
0000
,
0000
0000
0000
0000
,
1000
0000
0001
0010
,
0200
0000
1000
1300
,
0001
0000
0100
1000
,
0100
0010
0010
0100
,
0000
0000
0010
1001
,
1000
0100
0010
0001
,
1001
0000
0100
0010
,
0100
0000
0001
0001
,
2000
0000
0200
3300
,
0010
0001
0100
0000
,
1001
0000
0100
0010
,
0100
0000
1000
1000
,
0020
0000
0002
0033
,
1000
0010
0100
1001
,
0002
0000
0100
0000
,
1000
0000
0000
0003
,
2000
0000
0001
0001
,
0000
0000
0100
3100
,
1000
0000
0001
0100
,
0020
0000
1000
1030
,
0001
0000
0010
1000
,
0010
0100
0100
0010
,
0001
0000
1000
0010
,
0200
0000
0001
0301
,
1000
0000
0100
0001
,
0100
0010
0010
0100
,
0000
0000
0010
1001
,
0001
0100
0010
1000
,
0200
0010
0000
1300
,
0000
0001
0010
0001
,
0000
1000
0100
1000
,
0000
0001
0010
0001
,
0020
0100
0000
0031
,
0000
1000
0100
1000
,
0000
0001
0010
0001
,
0000
1000
0010
1000
,
1001
0000
0000
0000
;

//---------------dance-single - ----------------
#NOTES:
     dance-single:
     :
     Easy:
     2:
     0.139,0.172,0.047,0.093,0.000:
0000
0000
0000
0000
,
0000
0000
0000
0000
,
0000
0000
0000
0000
,
0000
0000
0000
0000
,
0000
0000
0000
0000
,
0000
0000
0001
0001
,
2000
0000
0000
3100
,
0001
0000
0100
0000
,
0001
1000
0001
1000
,
1001
0000
0010
0000
,
2000
3000
0020
0030
,
1001
0000
1000
0001
,
0000
0000
0100
0100
,
0020
0000
0000
0030
,
1000
0100
1000
0000
,
1001
0000
0001
1000
,
0000
0000
0010
0010
,
0100
0000
0100
0000
,
0001
0010
0100
1000
,
0002
0000
0000
0000
,
0000
0000
0000
0003
,
0200
0000
0000
0000
,
0000
0010
0010
0310
,
0000
0000
1000
1000
,
0002
0000
0000
0103
,
1000
0000
0100
0000
,
1000
0001
1000
0001
,
0000
0000
1000
1000
,
0002
0000
0000
0013
,
1000
0000
0010
0000
,
1000
0001
1000
0001
,
1001
0000
0010
1000
,
0002
0003
0020
0030
,
0100
0000
1000
0001
,
0000
1000
1000
0100
,
0000
0001
0001
0100
,
0000
1000
1000
0010
,
0010
0000
0001
1000
,
0000
0001
0001
0010
,
0000
1000
1000
0010
,
0000
0001
0001
0100
,
1001
0000
0000
0000
;

//---------------dance-single - ----------------
#NOTES:
     dance-single:
     :
     Beginner:
     1:
     0.091,0.113,0.028,0.000,0.000:
0000
0000
0000
0000
,
0000
0000
0000
0000
,
0000
0000
0000
0000
,
0000
0000
0000
0000
,
0000
0000
0000
0000
,
1000
0000
0100
0000
,
0100
0000
0000
0000
,
0010
0000
0001
0000
,
1000
1000
1000
0000
,
1001
0000
0000
0000
,
0000
0000
0000
0000
,
0000
0000
0001
0001
,
0001
0000
0010
0000
,
0100
0000
1000
1000
,
1000
0000
0000
0000
,
0000
0000
1000
1000
,
1000
0000
0100
0000
,
0010
0000
0100
0000
,
0001
0001
1000
1000
,
0001
0000
0000
0000
,
0000
0000
0010
0000
,
0000
0000
0000
1001
,
0000
0001
0000
0001
,
1000
0000
0010
0000
,
0010
0000
0000
0000
,
0100
0000
0001
0000
,
0001
0001
0001
0000
,
0001
0000
0010
0000
,
0010
0000
0000
0000
,
0100
0000
1000
0000
,
1000
1000
1000
0000
,
1001
0000
0000
0000
,
0000
0000
0000
0000
,
0000
0001
0000
1000
,
0000
0100
0100
0000
,
0000
0010
0010
0000
,
0000
0100
0100
0000
,
0000
1000
0000
0001
,
0000
0010
0010
0000
,
0000
0100
0100
0000
,
0000
0010
0010
0000
;
