#TITLE:Enchanix;
#SUBTITLE:;
#ARTIST:Winx Club;
#TITLETRANSLIT:;
#SUBTITLETRANSLIT:;
#ARTISTTRANSLIT:;
#CREDIT:;
#BANNER:Enchanix.png;
#BACKGROUND:Enchanix-bg.png;
#LYRICSPATH:;
#CDTITLE:./CDTITLES/DanceDanceRevolution Winx Club.PNG;
#MUSIC:Enchanix.mp3;
#OFFSET:1.128;
#SAMPLESTART:35.630;
#SAMPLELENGTH:11.560;
#SELECTABLE:YES;
#DISPLAYBPM:150.000;
#BPMS:0.000=150.000;
#STOPS:;
#BGCHANGES:;

//---------------dance-single - ----------------
#NOTES:
     dance-single:
     :
     Hard:
     5:
     0.303,0.476,0.375,0.103,0.000:
0000
0000
0000
0000
,
0000
0000
0000
0000
,
0000
0000
0000
0000
,
0000
0000
0000
0000
,
0000
0000
0000
0000
,
1001
0010
0100
1001
,
1000
0000
0100
0000
,
1000
0001
1000
0001
,
1000
0000
1000
0100
,
1001
0100
0110
1001
,
0001
0000
0100
0000
,
0001
1000
0001
1000
,
0001
0000
0001
0100
,
1001
0010
0110
1001
,
0000
1000
1000
0100
,
0000
0001
0001
0100
,
0000
1000
0001
0010
,
0000
0001
1000
0010
,
0000
1000
1000
0100
,
0001
0001
0100
0010
,
1000
0100
0010
0000
0011
0000
1100
0000
,
0001
0100
0010
0000
1010
0000
0101
0000
,
1001
0000
0000
0000
,
2000
0000
0000
3000
,
0002
0000
0000
0003
,
0200
0000
0000
0300
,
0020
0000
0000
0030
,
1001
0010
0100
1001
,
0001
0000
0010
0000
,
0001
1000
0001
1000
,
0001
0000
0001
0010
,
1001
0010
0110
1001
,
1000
0000
0010
0000
,
1000
0001
1000
0001
,
1000
0000
1000
0100
,
1001
0100
0110
1001
,
0000
0001
0001
0010
,
0000
1000
1000
0010
,
0000
0001
1000
0100
,
0000
1000
0001
0100
,
0000
0001
0001
0010
,
1000
1000
0010
0100
,
0001
0010
0100
0000
1100
0000
0011
0000
,
1000
0010
0100
0000
0101
0000
1010
0000
,
1001
0000
0000
0000
,
2200
0000
0000
3300
0202
0000
0000
0303
,
1001
0000
0000
0000
;

//---------------dance-single - ----------------
#NOTES:
     dance-single:
     :
     Medium:
     4:
     0.262,0.387,0.349,0.103,0.000:
0000
0000
0000
0000
,
0000
0000
0000
0000
,
0000
0000
0000
0000
,
0000
0000
0000
0000
,
0000
0000
0000
0000
,
1001
0010
0010
1001
,
0001
0000
0010
0000
,
0001
0001
1000
1000
,
0001
0000
0001
0010
,
1001
0000
0110
1001
,
1000
0000
0010
0000
,
1000
1000
0001
0001
,
1000
0000
1000
0010
,
1001
0000
0110
1001
,
0000
0001
0000
0010
,
0000
1000
0000
0010
,
0000
0001
0000
0100
,
0000
1000
0000
0100
,
0000
0001
0000
0010
,
1000
0000
1000
0100
,
0001
0100
0110
1001
,
1000
0100
0110
0001
,
1001
0000
0000
0000
,
0002
0000
0000
0003
,
2000
0000
0000
3000
,
0020
0000
0000
0030
,
0200
0000
0000
0300
,
1001
0100
0100
1001
,
1000
0000
0100
0000
,
1000
1000
0001
0001
,
1000
0000
1000
0100
,
1001
0000
0110
1001
,
0001
0000
0100
0000
,
0001
0001
1000
1000
,
0001
0000
0001
0100
,
1001
0000
0110
1001
,
0000
1000
0000
0100
,
0000
0001
0000
0100
,
0000
1000
0000
0010
,
0000
0001
0000
0010
,
0000
1000
0000
0100
,
0001
0000
0001
0010
,
1000
0010
0110
1001
,
0001
0010
0110
1000
,
1001
0000
0000
0000
,
0022
0033
2020
3030
,
1001
0000
0000
0000
;

//---------------dance-single - ----------------
#NOTES:
     dance-single:
     :
     Easy:
     2:
     0.151,0.238,0.220,0.078,0.000:
0000
0000
0000
0000
,
0000
0000
0000
0000
,
0000
0000
0000
0000
,
0000
0000
0000
0000
,
0000
0000
0000
0000
,
1001
0000
0000
1001
,
1000
0000
0000
0000
,
1000
0000
0001
0000
,
1000
0000
0100
0000
,
0100
0000
0000
1001
,
0001
0000
0000
0000
,
0001
0000
1000
0000
,
0001
0000
0000
0000
,
1001
0000
0000
1001
,
0000
0000
0000
1000
,
0000
0000
0000
0100
,
0000
0000
0000
0001
,
0000
0000
0000
0100
,
0000
0000
0000
1000
,
0000
0000
0000
0001
,
0010
0000
0110
0000
,
0100
0000
0110
0000
,
1001
0000
0000
0000
,
2000
0000
3000
0000
,
0002
0000
0003
0000
,
2000
0000
3000
0000
,
0002
0000
0003
0000
,
1001
0000
0000
1001
,
0001
0000
0000
0000
,
0001
0000
1000
0000
,
0001
0000
0010
0000
,
0010
0000
0000
0000
,
1001
1000
0000
0000
,
1000
0000
0001
0000
,
1000
0000
0000
0000
,
1001
0000
0000
1001
,
0000
0000
0000
0001
,
0000
0000
0000
0010
,
0000
0000
0000
1000
,
0000
0000
0000
0010
,
0000
0000
0000
0001
,
0000
0000
0000
1000
,
0100
0000
0110
0000
,
0010
0000
0110
0000
,
1001
0000
0000
0000
,
2000
3000
0002
0003
,
1001
0000
0000
0000
;

//---------------dance-single - ----------------
#NOTES:
     dance-single:
     :
     Beginner:
     1:
     0.092,0.178,0.116,0.000,0.000:
0000
0000
0000
0000
,
0000
0000
0000
0000
,
0000
0000
0000
0000
,
0000
0000
0000
0000
,
0000
0000
0000
0000
,
1001
0000
0000
0000
,
0001
0000
0000
0000
,
0000
0000
0000
0000
,
0010
0000
0000
0000
,
1001
0000
0000
0000
,
1000
0000
0000
0000
,
0000
0000
0000
0000
,
0010
0000
0000
0000
,
1001
0000
0000
0000
,
0001
0000
0000
0000
,
0010
0000
0000
0000
,
1000
0000
0000
0000
,
0010
0000
0000
0000
,
0001
0000
0000
0000
,
1000
0000
0000
0000
,
0010
0000
0010
0000
,
0010
0000
0000
0000
,
1001
0000
0000
0000
,
0001
0000
0000
0000
,
1000
0000
0000
0000
,
0001
0000
0000
0000
,
1000
0000
0000
0000
,
1001
0000
0000
0000
,
1000
0000
0000
0000
,
0000
0000
0000
0000
,
0100
0000
0000
0000
,
1001
0000
0000
0000
,
0001
0000
0000
0000
,
0000
0000
0000
0000
,
0100
0000
0000
0000
,
1001
0000
0000
0000
,
1000
0000
0000
0000
,
0100
0000
0000
0000
,
0001
0000
0000
0000
,
0100
0000
0000
0000
,
1000
0000
0000
0000
,
0001
0000
0000
0000
,
0100
0000
0100
0000
,
0100
0000
0000
0000
,
1001
0000
0000
0000
,
0001
0000
1000
0000
,
1001
0000
0000
0000
;
