#TITLE:Enchanix (Shining so bright);
#SUBTITLE:;
#ARTIST:Winx Club;
#TITLETRANSLIT:;
#SUBTITLETRANSLIT:;
#ARTISTTRANSLIT:;
#CREDIT:;
#BANNER:Enchanix (Shining so bright).png;
#BACKGROUND:;
#LYRICSPATH:;
#CDTITLE:./CDTITLES/DanceDanceRevolution Winx Club.png;
#MUSIC:Enchanix (Shining so bright).mp3;
#OFFSET:1.619;
#SAMPLESTART:2.846;
#SAMPLELENGTH:14.800;
#SELECTABLE:YES;
#BPMS:0.000=160.000;
#STOPS:;
#BGCHANGES:;

//---------------dance-single - ----------------
#NOTES:
     dance-single:
     :
     Beginner:
     1:
     0.125,0.158,0.075,0.000,0.000: // measure 1
0000
0000
0000
0000
,  // measure 2
0000
0000
0000
0000
,  // measure 3
0000
0000
0000
0000
,  // measure 4
0000
0000
0000
0000
,  // measure 5
0000
0000
0000
0000
,  // measure 6
0000
0000
0000
0000
,  // measure 7
0000
0000
0000
0000
,  // measure 8
1000
0000
0000
0000
,  // measure 9
0001
0000
0001
0000
,  // measure 10
0010
0000
0000
0000
,  // measure 11
0000
1000
1000
0000
,  // measure 12
0001
0000
0000
0000
,  // measure 13
0000
0010
0000
0010
,  // measure 14
0010
0000
0000
0000
,  // measure 15
0000
1001
0000
0000
,  // measure 16
1000
0000
0000
0000
,  // measure 17
0001
0000
0001
0000
,  // measure 18
0100
0000
0000
0000
,  // measure 19
0000
1000
1000
0000
,  // measure 20
0001
0000
0000
0000
,  // measure 21
0000
0100
0000
0100
,  // measure 22
0100
0000
0000
0000
,  // measure 23
0000
0001
0001
0000
,  // measure 24
1000
0000
0000
0000
,  // measure 25
0000
0010
0000
0010
,  // measure 26
0010
0000
0000
0000
,  // measure 27
0010
0000
0010
0000
,  // measure 28
1000
0000
0000
0000
,  // measure 29
1000
0000
0000
0000
,  // measure 30
0001
0000
0000
0000
,  // measure 31
1000
0000
0000
0000
,  // measure 32
0001
0000
0000
0000
,  // measure 33
1000
0000
0000
0000
,  // measure 34
1000
0000
1000
0000
,  // measure 35
0001
0000
0001
0000
,  // measure 36
1001
0000
0000
0000
,  // measure 37
0001
0000
0001
0000
,  // measure 38
0100
0000
0000
0000
,  // measure 39
0000
0001
0001
0000
,  // measure 40
1001
0000
0000
0000
,  // measure 41
1000
0000
1000
0000
,  // measure 42
0010
0000
0000
0000
,  // measure 43
0000
0001
0001
0000
,  // measure 44
1001
0000
0000
0000
,  // measure 45
0010
0000
0000
0010
,  // measure 46
0010
0000
0000
0000
,  // measure 47
0000
0010
0000
0000
,  // measure 48
1001
0000
0000
0000
,  // measure 49
0001
0000
0001
0000
,  // measure 50
0010
0000
0000
0000
,  // measure 51
0000
0001
0001
0000
,  // measure 52
1000
0000
0000
0000
,  // measure 53
1000
0000
1000
0000
,  // measure 54
0100
0000
0000
0000
,  // measure 55
0000
0001
0001
0000
,  // measure 56
1001
0000
0000
0000
,  // measure 57
0010
0000
0000
0010
,  // measure 58
0010
0000
0000
0000
,  // measure 59
0010
0000
0010
0000
,  // measure 60
1001
0000
0000
0000
;

//---------------dance-single - ----------------
#NOTES:
     dance-single:
     :
     Easy:
     3:
     0.183,0.221,0.096,0.160,0.000:
0000
0000
0000
0000
,
0000
0000
0000
0000
,
0000
0000
0000
0000
,
0000
0000
0000
0000
,
0000
0000
0000
0000
,
0000
0000
0000
0000
,
0000
0000
0000
0000
,
1000
0000
0000
0000
,
0100
0000
0001
0001
,
0020
0000
0000
0030
,
1000
0000
0010
0000
,
0002
0000
0000
0003
,
0000
0010
0000
0010
,
0200
0000
0000
0300
,
0000
0010
0000
1001
,
1000
0000
0000
0000
,
0010
0000
0001
0001
,
0200
0000
0000
0300
,
1000
0000
0100
0000
,
0001
0000
0000
0000
,
0100
0000
1000
1000
,
0020
0000
0000
0030
,
0001
0000
0010
0000
,
2000
0000
0000
3000
,
0000
0010
0000
0010
,
0200
0000
0000
0000
,
0000
0010
0000
0310
,
1000
0000
0001
0000
,
0001
0000
0001
0000
,
1000
0000
0001
0000
,
0001
0000
0001
0000
,
1000
0000
0001
0000
,
0001
0000
0001
0000
,
0001
0000
0001
0000
,
0000
1000
0000
1000
,
1001
0000
0000
0000
,
0010
0001
0001
0001
,
0200
0000
0000
0300
,
0001
0000
0100
0000
,
1001
0000
0000
0000
,
0100
1000
1000
1000
,
0020
0000
0000
0030
,
0001
0000
0010
0000
,
2001
0000
0000
3000
,
0010
0010
0000
0010
,
0200
0000
0000
0300
,
0000
0010
0000
1001
,
1001
0000
0000
0000
,
0100
0001
0001
0001
,
0020
0000
0000
0030
,
0001
0000
0010
0000
,
1001
0000
0000
0000
,
0010
1000
1000
1000
,
0200
0000
0000
0300
,
0001
0000
0100
0000
,
2001
0000
0000
3000
,
0100
0100
0000
0100
,
0020
0000
0000
0000
,
0000
0100
0000
0130
,
1001
0000
0000
0000
;

//---------------dance-single - ----------------
#NOTES:
     dance-single:
     :
     Medium:
     4:
     0.303,0.316,0.096,0.353,0.000:
0000
0000
0000
0000
,
0000
0000
0000
0000
,
0000
0000
0000
0000
,
0000
0000
0000
0000
,
0000
0000
0000
0000
,
0000
0000
0000
0000
,
0000
0000
0000
0000
,
0001
0200
0300
0001
,
0020
0030
1000
1000
,
0200
0300
0010
0010
,
0001
0000
0100
0010
,
2000
0000
0001
3001
,
0000
0100
0000
0100
,
0020
0100
0000
0130
,
0000
0100
0100
1001
,
0001
0020
0030
0001
,
0200
0300
1000
1000
,
0020
0030
0100
0100
,
0001
0000
0010
0100
,
1000
0200
0300
1000
,
0020
0030
0001
0001
,
0200
0300
0010
0010
,
1000
0000
0100
0010
,
0002
0000
1000
1003
,
0000
0100
0000
0100
,
0020
0100
0000
0100
,
0000
0100
0100
0130
,
0001
1000
0000
1000
,
0000
1000
0100
1000
,
0001
1000
0000
1000
,
0000
1000
0100
1000
,
0001
1000
0000
1000
,
0000
1000
0100
1000
,
0000
1000
0000
1000
,
0000
0001
0001
0001
,
1001
0020
0030
0001
,
0200
1300
1000
1000
,
0020
0030
0100
0100
,
0001
0000
0010
0100
,
1001
0200
0300
1000
,
0020
0031
0001
0001
,
0200
0300
0010
0010
,
1000
0000
0100
0010
,
2002
3000
0200
0303
,
0100
0100
0000
0100
,
0020
0100
0000
0130
,
0000
0100
0100
1001
,
1001
0020
0030
1000
,
0200
0301
0001
0001
,
0020
0030
0100
0100
,
1000
0000
0010
0100
,
1001
0200
0300
0001
,
0020
1030
1000
1000
,
0200
0300
0010
0010
,
0001
0000
0100
0010
,
2002
0003
0200
3300
,
0100
0100
0000
0100
,
0020
0100
0000
0100
,
0000
0100
0100
0130
,
1001
0000
0000
0000
;

//---------------dance-single - ----------------
#NOTES:
     dance-single:
     :
     Hard:
     6:
     0.367,0.410,0.096,0.428,0.000:
0000
0000
0000
0000
,
0000
0000
0000
0000
,
0000
0000
0000
0000
,
0000
0000
0000
0000
,
0000
0000
0000
0000
,
0000
0000
0000
0000
,
0000
0000
0000
0000
,
0001
0002
0103
0200
,
0320
0000
1000
1030
,
0200
0000
0010
0310
,
0001
0001
0100
0010
,
2000
0000
0001
0001
,
0100
3100
0001
0100
,
0020
0100
0000
0130
,
0000
0100
0010
1001
,
0001
0002
0013
0020
,
0230
0000
1000
1300
,
0020
0000
0100
0130
,
0001
0001
0010
0100
,
1000
2000
3100
0200
,
0320
0000
0001
0031
,
0200
0000
0010
0310
,
1000
1000
0100
0010
,
0002
0000
1000
1000
,
0100
0103
1000
0100
,
0020
0100
0000
0100
,
0100
0100
0100
0130
,
0001
1000
0100
1000
,
0100
0000
1000
0000
0100
0100
1000
0001
,
0000
1000
0100
1000
,
0100
0000
1000
0000
0100
0100
1000
0001
,
0000
1000
0100
1000
,
0100
0000
1000
0000
0100
0100
1000
0001
,
0000
1000
1000
1000
,
0001
0001
0001
0001
,
1100
0200
0310
0020
,
0230
1000
1000
1300
,
0020
0000
0100
0130
,
0001
0001
0010
0100
,
0011
0020
0130
0200
,
0320
0001
0001
0031
,
0200
0000
0010
0310
,
1000
1000
0100
0010
,
0022
0030
2000
3000
,
0100
0103
1000
0100
,
0020
0100
0000
0130
,
0100
0010
0100
1001
,
0101
0200
0310
0020
,
0230
0001
0001
0301
,
0020
0000
0100
0130
,
1000
1000
0010
0100
,
1010
0020
0130
0200
,
0320
1000
1000
1030
,
0200
0000
0010
0310
,
0001
0001
0100
0010
,
2020
0030
0002
0003
,
0100
3100
0001
0100
,
0020
0100
0000
0100
,
0100
0100
0100
0130
,
1001
0000
0000
0000
;
