#TITLE:Dimanche;
#SUBTITLE:;
#ARTIST:Orange Lounge;
#TITLETRANSLIT:;
#SUBTITLETRANSLIT:;
#ARTISTTRANSLIT:;
#CREDIT:;
#BANNER:Dimanche.png;
#BACKGROUND:Dimanche-bg.png;
#LYRICSPATH:;
#CDTITLE:./CDTITLES/pop'n music.PNG;
#MUSIC:Dimanche.mp3;
#OFFSET:1.372;
#SAMPLESTART:35.170;
#SAMPLELENGTH:16.040;
#SELECTABLE:YES;
#DISPLAYBPM:164.000;
#BPMS:0.000=164.000;
#STOPS:;
#BGCHANGES:;

//---------------dance-single - ----------------
#NOTES:
     dance-single:
     :
     Hard:
     7:
     0.318,0.345,0.043,0.085,0.000:
0000
0000
0000
0000
,
0000
0000
0000
0000
,
0000
0000
0000
0000
,
0000
0000
0000
0000
,
0000
0000
0000
0000
,
0100
1000
0001
0010
,
0001
1000
0100
0010
,
0100
1000
0001
0010
,
0001
1000
0000
0010
,
0001
0100
0010
1000
,
0001
1000
0010
0100
,
0001
0100
0010
1000
,
0001
1000
0010
0100
,
0001
0100
0010
1000
,
0001
1000
0010
0100
,
0001
0100
0010
1000
,
0001
1000
0010
0100
,
1000
0000
0001
0000
0000
0010
0000
0100
,
0000
1000
0000
0001
,
1000
0000
0001
0000
0000
0010
0000
0100
,
0000
0000
0000
0000
,
1000
0000
0001
0000
0000
0010
0000
0100
,
0000
1000
0000
0001
,
1000
0000
0001
0000
0000
0010
0000
0100
,
0000
0000
0000
0000
,
0100
0100
0001
1000
,
0010
0010
0100
0001
,
1000
1000
0001
0001
,
1000
0000
0100
0000
,
0100
0100
0001
1000
,
0010
0010
0100
0001
,
1000
1000
0001
0001
,
1000
0010
0100
0000
,
0010
0010
1000
0001
,
0100
0100
0010
1000
,
0001
0001
1000
1000
,
0001
0000
0010
0000
,
0010
0010
1000
0001
,
0100
0100
0010
1000
,
0001
0001
1000
1000
,
0001
0000
0010
1001
,
0100
0000
0010
0010
,
0001
1000
0001
0010
,
0001
0000
1000
1000
,
0100
0010
0001
0001
,
1000
0000
0100
0100
,
0010
0000
0001
0001
,
1100
0000
0011
0000
0000
0010
0000
0100
,
0000
0000
0000
0000
,
0002
0000
0000
0103
,
0200
0000
0000
0310
,
0020
0000
0000
1030
,
2000
0000
0000
3001
,
0002
0000
0000
0103
,
0200
0000
0000
0310
,
0020
0000
0000
1030
,
2000
0000
0000
3000
,
1000
0100
1000
0001
,
0010
0001
1000
0100
,
0010
0001
0010
0100
,
1000
0001
0010
0110
,
1000
0100
1000
0001
,
0010
0001
1000
0100
,
0010
0001
0010
0100
,
1000
0000
1000
0000
0001
0010
0001
0000
;

//---------------dance-single - ----------------
#NOTES:
     dance-single:
     :
     Medium:
     4:
     0.240,0.310,0.000,0.085,0.000:
0000
0000
0000
0000
,
0000
0000
0000
0000
,
0000
0000
0000
0000
,
0000
0000
0000
0000
,
0000
0000
0000
0000
,
0010
0000
0001
0000
,
1000
0100
0000
0001
,
0010
0000
0001
0000
,
0001
0100
0000
1000
,
0001
0000
0001
1000
,
0010
0000
1000
1000
,
0001
0000
0001
1000
,
0010
0000
1000
1000
,
0001
0000
0001
1000
,
0010
0000
1000
1000
,
0001
0000
0001
1000
,
0010
0000
1000
1000
,
0001
0001
0000
0000
,
0010
0010
1000
1000
,
0001
0001
0000
0000
,
0000
0000
0000
0000
,
0001
0001
0000
0000
,
0010
0010
1000
1000
,
0001
0001
0000
0000
,
0000
0000
0000
0000
,
0100
0000
1000
0000
,
0100
0010
1000
0000
,
0001
1000
0001
0000
,
0000
0001
0001
0000
,
0100
0000
1000
0000
,
0100
0010
1000
0000
,
0001
1000
0001
0000
,
0000
0001
0001
0000
,
0010
0000
0001
0000
,
0010
0100
0001
0000
,
1000
0001
1000
0000
,
0000
1000
1000
0000
,
0010
0000
0001
0000
,
0010
0100
0001
0000
,
1000
0001
1000
0000
,
0000
1000
1000
0000
,
1000
0000
0001
0001
,
0100
0001
0100
0001
,
0010
0000
0010
0000
,
0100
0100
0100
0100
,
1000
0001
0100
0000
,
0010
0000
1000
0000
,
1000
0000
0001
0000
0000
1000
0000
0001
,
0000
0000
0000
0000
,
2000
0000
0000
3000
,
0002
0000
0000
0003
,
0200
0000
0000
0300
,
0020
0000
0000
0030
,
2000
0000
0000
3000
,
0002
0000
0000
0003
,
0200
0000
0000
0300
,
0020
0000
0000
0030
,
0001
0001
0010
0010
,
0100
1000
0001
1000
,
0010
1000
0100
0010
,
0001
1000
0100
0010
,
0001
0001
0010
0010
,
0100
1000
0001
1000
,
0010
1000
0100
0010
,
0000
0000
0010
0010
;

//---------------dance-single - ----------------
#NOTES:
     dance-single:
     :
     Easy:
     2:
     0.155,0.207,0.000,0.043,0.000:
0000
0000
0000
0000
,
0000
0000
0000
0000
,
0000
0000
0000
0000
,
0000
0000
0000
0000
,
0000
0000
0000
0000
,
0010
0010
0000
0000
,
0001
0001
0000
0000
,
0100
0100
0000
0000
,
1000
1000
0000
0000
,
0100
0000
1000
0000
,
0010
0000
0001
0000
,
0100
0000
1000
0000
,
0010
0000
0001
0000
,
0100
0000
1000
0000
,
0010
0000
0001
0000
,
0100
0000
1000
0000
,
0010
0000
0001
0000
,
1000
0000
0000
0000
,
0001
0010
0000
0001
,
1000
0000
0000
0000
,
0000
0000
0000
0000
,
1000
0000
0000
0000
,
0001
0010
0000
0001
,
1000
0000
0000
0000
,
0000
0000
0000
0000
,
0001
0000
0010
0000
,
0100
0000
1000
0000
,
0001
0000
1000
0000
,
0001
0000
0001
0000
,
0001
0000
0010
0000
,
0100
0000
1000
0000
,
0001
0000
1000
0000
,
0001
0000
0001
0000
,
1000
0000
0100
0000
,
0010
0000
0001
0000
,
1000
0000
0001
0000
,
1000
0000
1000
0000
,
1000
0000
0100
0000
,
0010
0000
0001
0000
,
1000
0000
0001
0000
,
1000
0000
1000
0000
,
0000
0000
0100
0000
,
0001
0000
0001
0000
,
0010
0000
0000
0000
,
1000
0001
1000
0000
,
0000
0000
0010
0000
,
0000
0000
0000
0000
,
0100
0010
0000
0000
,
0000
0000
0000
0000
,
0002
0000
0000
0000
,
0000
0000
0000
0003
,
2000
0000
0000
0000
,
0000
0000
0000
3000
,
0002
0000
0000
0000
,
0000
0000
0000
0003
,
2000
0000
0000
0000
,
0000
0000
0000
3000
,
0100
0000
0100
0000
,
0010
0000
1000
0000
,
0001
0000
0100
0000
,
0001
1000
0001
0000
,
0100
0000
0100
0000
,
0010
0000
1000
0000
,
0001
0000
0100
0000
,
0001
0000
0100
0100
;

//---------------dance-single - ----------------
#NOTES:
     dance-single:
     :
     Beginner:
     1:
     0.093,0.137,0.000,0.000,0.000:
0000
0000
0000
0000
,
0000
0000
0000
0000
,
0000
0000
0000
0000
,
0000
0000
0000
0000
,
0000
0000
0000
0000
,
0100
0000
0000
0000
,
1000
0000
0000
0000
,
0100
0000
0000
0000
,
0001
0000
0000
0000
,
0010
0000
0000
0000
,
0100
0000
0000
0000
,
0010
0000
0000
0000
,
0100
0000
0000
0000
,
0010
0000
0000
0000
,
0100
0000
0000
0000
,
0010
0000
0000
0000
,
0100
0000
0000
0000
,
0001
0000
0000
0000
,
1000
0000
1000
0000
,
0001
0000
0000
0000
,
0000
0000
0000
0000
,
0001
0000
0000
0000
,
1000
0000
1000
0000
,
0001
0000
0000
0000
,
0000
0000
0000
0000
,
1000
0000
0000
0000
,
0100
0000
0100
0000
,
0001
0000
0000
0000
,
0010
0000
0010
0000
,
1000
0000
0000
0000
,
0100
0000
0100
0000
,
0001
0000
0000
0000
,
0010
0000
0010
0000
,
0001
0000
0000
0000
,
0010
0000
0010
0000
,
1000
0000
0000
0000
,
0100
0000
0100
0000
,
0001
0000
0000
0000
,
0010
0000
0010
0000
,
1000
0000
0000
0000
,
0100
0000
0100
0000
,
0000
0000
0000
0000
,
0000
0000
0010
0000
,
0000
0000
0000
0000
,
0000
0000
1000
0000
,
0000
0000
0000
0000
,
0001
0000
0000
0000
,
0100
0100
0000
0000
,
0000
0000
0000
0000
,
1000
0000
0000
0000
,
0000
0000
0000
0000
,
0001
0000
0000
0000
,
0000
0000
0000
0000
,
1000
0000
0000
0000
,
0000
0000
0000
0000
,
0001
0000
0000
0000
,
0000
0000
0000
0000
,
0010
0000
0000
0000
,
0001
0000
0000
0000
,
0100
0000
0000
0000
,
1000
0000
0000
0000
,
0010
0000
0000
0000
,
0001
0000
0000
0000
,
0100
0000
0000
0000
,
0000
0000
0010
0000
;
