#TITLE:DOUBLE TORNARD;
#SUBTITLE:;
#ARTIST:evo-X;
#TITLETRANSLIT:;
#SUBTITLETRANSLIT:;
#ARTISTTRANSLIT:;
#CREDIT:;
#BANNER:DOUBLE TORNARD.png;
#BACKGROUND:;
#LYRICSPATH:;
#CDTITLE:./CDTITLES/DanceDanceRevolution HOTTEST PARTY.png;
#MUSIC:DOUBLE TORNARD.mp3;
#OFFSET:2.677;
#SAMPLESTART:63.183;
#SAMPLELENGTH:12.540;
#SELECTABLE:YES;
#BPMS:0.000=153.000;
#STOPS:184.000=0.784
;
#BGCHANGES:;

//---------------dance-single - ----------------
#NOTES:
     dance-single:
     :
     Beginner:
     1:
     0.111,0.183,0.009,0.000,0.000: // measure 1
0000
0000
0000
0000
,  // measure 2
0000
0000
0000
0000
,  // measure 3
0000
0000
0000
0000
,  // measure 4
0000
0000
0000
0000
,  // measure 5
0000
0000
0000
0000
,  // measure 6
0000
0000
0000
0000
,  // measure 7
0001
0000
0000
0000
,  // measure 8
1000
0000
0000
0000
,  // measure 9
0010
0000
0000
0000
,  // measure 10
1000
1000
1000
0000
,  // measure 11
0001
0000
0000
0000
,  // measure 12
1000
0000
0000
0000
,  // measure 13
0100
0000
0000
0000
,  // measure 14
1000
1000
1000
1000
,  // measure 15
1000
0000
0000
0000
,  // measure 16
0100
0000
0000
0000
,  // measure 17
1000
0000
0000
0000
,  // measure 18
0100
0000
0000
0000
,  // measure 19
0001
0000
0000
0000
,  // measure 20
0010
0000
0000
0000
,  // measure 21
0001
0000
0000
0000
,  // measure 22
0010
0000
0100
0000
,  // measure 23
1000
0000
0000
0000
,  // measure 24
0001
0000
0000
0000
,  // measure 25
0010
0000
0000
0000
,  // measure 26
0001
0001
0001
0000
,  // measure 27
1000
0000
0000
0000
,  // measure 28
0001
0000
0000
0000
,  // measure 29
0010
0000
0000
0000
,  // measure 30
0001
0001
0001
0001
,  // measure 31
0001
0000
0000
0000
,  // measure 32
0010
0000
0000
0000
,  // measure 33
0001
0000
0000
0000
,  // measure 34
0010
0000
0000
0000
,  // measure 35
1000
0000
0000
0000
,  // measure 36
0100
0000
0000
0000
,  // measure 37
1000
0000
0000
0000
,  // measure 38
0100
0000
0010
0000
,  // measure 39
0001
0000
0100
0000
,  // measure 40
0100
0000
0000
0000
,  // measure 41
1000
0000
0010
0000
,  // measure 42
0010
0000
0000
0000
,  // measure 43
1000
0000
0010
0000
,  // measure 44
0010
0000
0000
0000
,  // measure 45
0001
0000
0100
0000
,  // measure 46
0100
0000
0000
0000
,  // measure 47
0001
0000
0000
0000
,  // measure 48
0100
0000
1000
0000
,  // measure 49
0000
0000
0000
0000
,  // measure 50
0100
0000
0001
0001
,  // measure 51
0000
0000
0100
0000
,  // measure 52
0000
0000
1000
1000
,  // measure 53
0000
0000
0010
0000
,  // measure 54
0000
0000
0000
1000
,  // measure 55
0000
0100
0000
0001
,  // measure 56
0000
0000
0000
1000
,  // measure 57
0000
0010
0000
0001
,  // measure 58
0000
0000
0000
0001
,  // measure 59
0000
0010
0000
1000
,  // measure 60
0000
0000
0000
0001
,  // measure 61
0000
0100
0000
1000
,  // measure 62
0000
0000
0000
0000
,  // measure 63
0000
0000
0000
0000
,  // measure 64
0000
0000
1000
0000
,  // measure 65
1000
0000
0001
0000
,  // measure 66
0000
1001
0000
0000
;

//---------------dance-single - ----------------
#NOTES:
     dance-single:
     :
     Easy:
     3:
     0.160,0.213,0.037,0.168,0.000: // measure 1
0000
0000
0000
0000
,  // measure 2
0000
0000
0000
0000
,  // measure 3
0000
0000
0000
0000
,  // measure 4
0000
0000
0000
0000
,  // measure 5
0000
0000
0000
0000
,  // measure 6
0000
0000
0000
0000
,  // measure 7
0020
0000
0000
0030
,  // measure 8
0200
0000
0000
0300
,  // measure 9
0010
0000
1000
0000
,  // measure 10
1000
0001
0001
0000
,  // measure 11
0020
0000
0000
0030
,  // measure 12
0200
0000
0000
0300
,  // measure 13
0010
0000
1000
0000
,  // measure 14
1000
0001
0001
1000
,  // measure 15
0002
0000
0003
0000
,  // measure 16
1000
0000
0000
0000
,  // measure 17
2000
0000
3000
0000
,  // measure 18
0100
0000
0000
0000
,  // measure 19
0002
0000
0003
0000
,  // measure 20
0001
0000
0000
0000
,  // measure 21
2000
0000
3000
0000
,  // measure 22
0010
0000
1001
0000
,  // measure 23
0200
0000
0000
0300
,  // measure 24
0020
0000
0000
0030
,  // measure 25
0100
0000
0001
0000
,  // measure 26
0001
1000
1000
0000
,  // measure 27
0200
0000
0000
0300
,  // measure 28
0020
0000
0000
0030
,  // measure 29
0100
0000
0001
0000
,  // measure 30
0001
1000
1000
0001
,  // measure 31
2000
0000
3000
0000
,  // measure 32
0001
0000
0000
0000
,  // measure 33
0002
0000
0003
0000
,  // measure 34
0010
0000
0000
0000
,  // measure 35
2000
0000
3000
0000
,  // measure 36
0001
0000
0000
0000
,  // measure 37
0002
0000
0003
0000
,  // measure 38
0100
0000
1001
0000
,  // measure 39
1000
0000
0010
0000
,  // measure 40
0100
0000
0001
0000
,  // measure 41
0001
0000
0100
0000
,  // measure 42
0010
0000
1000
0000
,  // measure 43
0001
0000
0100
0000
,  // measure 44
0010
0000
1000
0000
,  // measure 45
1000
0000
0010
0000
,  // measure 46
0100
0000
0001
0000
,  // measure 47
1000
0000
0002
0000
,  // measure 48
0000
0003
0001
0000
,  // measure 49
0000
0000
2000
0000
,  // measure 50
0000
3000
0001
0001
,  // measure 51
1000
0000
0000
0001
,  // measure 52
0001
0000
1000
1000
,  // measure 53
0001
0000
0000
1000
,  // measure 54
1000
0000
0000
0010
,  // measure 55
0001
0000
0000
0001
,  // measure 56
0100
0000
0000
0010
,  // measure 57
1000
0000
0000
1000
,  // measure 58
0010
0000
0000
0100
,  // measure 59
1000
0000
0000
1000
,  // measure 60
0010
0000
0000
0100
,  // measure 61
0001
0000
0000
0001
,  // measure 62
0100
0000
0000
0000
,  // measure 63
0000
0000
0000
0000
,  // measure 64
0000
0000
1000
0000
,  // measure 65
0001
0000
0110
0000
,  // measure 66
0000
1001
0000
0000
;

//---------------dance-single - ----------------
#NOTES:
     dance-single:
     :
     Medium:
     4:
     0.233,0.274,0.009,0.299,0.000: // measure 1
0000
0000
0000
0000
,  // measure 2
0000
0000
0000
0000
,  // measure 3
0000
0000
0000
0000
,  // measure 4
0000
0000
0000
0000
,  // measure 5
0000
0000
0000
0000
,  // measure 6
0000
0000
0000
0000
,  // measure 7
2000
0000
0020
3030
,  // measure 8
0002
0000
0200
0303
,  // measure 9
1000
0001
1000
0000
,  // measure 10
0010
0100
0100
0000
,  // measure 11
2000
0000
0020
3030
,  // measure 12
0002
0000
0200
0303
,  // measure 13
1000
0001
1000
0000
,  // measure 14
0010
0100
0010
0100
,  // measure 15
0020
0000
1030
0000
,  // measure 16
0001
0000
0100
0000
,  // measure 17
0020
0000
0031
0000
,  // measure 18
1000
0000
0100
0000
,  // measure 19
0200
0000
0301
0000
,  // measure 20
1000
0000
0010
0000
,  // measure 21
0200
0000
1300
0000
,  // measure 22
0001
0000
0010
0100
,  // measure 23
0002
0000
0200
0303
,  // measure 24
2000
0000
0020
3030
,  // measure 25
0001
1000
0001
0000
,  // measure 26
0100
0010
0010
0000
,  // measure 27
0002
0000
0200
0303
,  // measure 28
2000
0000
0020
3030
,  // measure 29
0001
1000
0001
0000
,  // measure 30
0100
0010
0100
0010
,  // measure 31
0200
0000
0301
0000
,  // measure 32
1000
0000
0010
0000
,  // measure 33
0200
0000
1300
0000
,  // measure 34
0001
0000
0010
0000
,  // measure 35
0020
0000
1030
0000
,  // measure 36
0001
0000
0100
0000
,  // measure 37
0020
0000
0031
0000
,  // measure 38
1000
0000
0100
0010
,  // measure 39
0001
0010
0100
0000
,  // measure 40
0001
0100
0010
0000
,  // measure 41
1000
0010
0100
0000
,  // measure 42
1000
0100
0010
0000
,  // measure 43
0001
0010
0100
0000
,  // measure 44
0001
0100
0010
0000
,  // measure 45
1000
0010
0100
0000
,  // measure 46
1000
0100
0010
0000
,  // measure 47
0001
0000
0100
0000
,  // measure 48
0100
0000
1000
0000
,  // measure 49
0000
0000
0100
0000
,  // measure 50
0100
0000
1000
0100
,  // measure 51
1000
0100
0010
0001
,  // measure 52
0010
0000
0001
0100
,  // measure 53
0001
0100
0010
1000
,  // measure 54
0010
0000
0200
0000
,  // measure 55
0310
0000
0002
0000
,  // measure 56
0013
0000
0020
0000
,  // measure 57
0130
0000
2000
0000
,  // measure 58
3100
0000
0020
0000
,  // measure 59
0130
0000
2000
0000
,  // measure 60
3100
0000
0200
0000
,  // measure 61
0310
0000
0002
0000
,  // measure 62
0013
0000
0000
0000
,  // measure 63
0000
0000
0000
0000
,  // measure 64
0000
0000
0100
0000
,  // measure 65
0100
0000
0010
0100
,  // measure 66
0010
1001
0000
0000
;

//---------------dance-single - ----------------
#NOTES:
     dance-single:
     :
     Hard:
     6:
     0.281,0.335,0.103,0.196,0.000: // measure 1
0000
0000
0000
0000
,  // measure 2
0000
0000
0000
0000
,  // measure 3
0000
0000
0000
0000
,  // measure 4
0000
0000
0000
0000
,  // measure 5
0000
0000
0000
0000
,  // measure 6
0000
0000
0000
0000
,  // measure 7
0200
0000
0010
0301
,  // measure 8
0020
0000
0100
1030
,  // measure 9
0001
0010
0100
0010
,  // measure 10
0100
1000
0001
0000
,  // measure 11
0200
0000
0010
0301
,  // measure 12
0020
0000
0100
1030
,  // measure 13
0001
0010
0100
0010
,  // measure 14
0100
1000
0100
0000
0010
0001
0010
0000
,  // measure 15
0200
0000
1300
0000
,  // measure 16
0100
0001
0010
0000
,  // measure 17
0200
0000
1300
0000
,  // measure 18
0100
0001
0010
0000
,  // measure 19
0020
0000
0031
0000
,  // measure 20
0010
1000
0100
0000
,  // measure 21
0020
0000
0031
0000
,  // measure 22
0010
1000
0100
1001
,  // measure 23
0020
0000
0100
1030
,  // measure 24
0200
0000
0010
0301
,  // measure 25
1000
0100
0010
0100
,  // measure 26
0010
0001
1000
0000
,  // measure 27
0020
0000
0100
1030
,  // measure 28
0200
0000
0010
0301
,  // measure 29
1000
0100
0010
0100
,  // measure 30
0010
0001
0010
0000
0100
1000
0100
0000
,  // measure 31
0020
0000
0031
0000
,  // measure 32
0010
1000
0100
0000
,  // measure 33
0020
0000
0031
0000
,  // measure 34
0010
1000
0100
0000
,  // measure 35
0200
0000
1300
0000
,  // measure 36
0100
0001
0010
0000
,  // measure 37
0200
0000
1300
0000
,  // measure 38
0100
0001
0010
1001
,  // measure 39
0010
0000
0000
1000
0100
0000
0000
0000
,  // measure 40
0100
0000
0010
0100
,  // measure 41
0010
0000
0000
0001
0100
0000
0000
0000
,  // measure 42
0100
0000
0010
0100
,  // measure 43
0010
0000
0000
0001
0100
0000
0000
0000
,  // measure 44
0100
0000
0010
0100
,  // measure 45
0010
0000
0000
1000
0100
0000
0000
0000
,  // measure 46
0100
0000
0010
0100
,  // measure 47
1001
0000
0001
0000
,  // measure 48
0100
0000
1001
0000
,  // measure 49
0100
0000
1000
0000
,  // measure 50
0100
0000
1100
0100
,  // measure 51
0010
0100
0100
0010
,  // measure 52
0001
0000
0101
0100
,  // measure 53
0010
0100
0100
0010
,  // measure 54
1000
0000
2000
0000
,  // measure 55
3010
0100
0001
0010
,  // measure 56
0100
1000
2000
0000
,  // measure 57
3100
0010
0001
0100
,  // measure 58
0010
1000
0002
0000
,  // measure 59
0013
0100
1000
0010
,  // measure 60
0100
0001
0002
0000
,  // measure 61
0103
0010
1000
0100
,  // measure 62
0010
0001
0200
0000
,  // measure 63
0000
0000
0300
0000
,  // measure 64
0000
0000
1001
0000
,  // measure 65
0110
0000
0000
0000
0011
0000
0000
1100
,  // measure 66
0000
1001
0000
0000
;
