#TITLE:CODENAME APRIL;
#SUBTITLE:;
#ARTIST:TOMOSUKE;
#TITLETRANSLIT:;
#SUBTITLETRANSLIT:;
#ARTISTTRANSLIT:;
#CREDIT:;
#BANNER:CODENAME APRIL.png;
#BACKGROUND:BIG-BANG STARS-bg.png;
#LYRICSPATH:;
#CDTITLE:./CDTITLES/pop'n music.PNG;
#MUSIC:CODENAME APRIL.mp3;
#OFFSET:1.163;
#SAMPLESTART:15.220;
#SAMPLELENGTH:15.080;
#SELECTABLE:YES;
#DISPLAYBPM:190.000;
#BPMS:0.000=190.000;
#STOPS:;
#BGCHANGES:;

//---------------dance-single - ----------------
#NOTES:
     dance-single:
     :
     Hard:
     7:
     0.307,0.322,0.073,0.219,0.000: // measure 1
0000
0000
0000
0000
,  // measure 2
0000
0000
0000
0000
,  // measure 3
0000
0000
0000
0000
,  // measure 4
0000
0000
0000
0000
,  // measure 5
0000
0000
0000
0000
,  // measure 6
0100
0010
0010
0001
,  // measure 7
0100
0000
0001
0001
,  // measure 8
1000
0001
0100
0010
,  // measure 9
1000
0000
0000
0000
,  // measure 10
0100
0010
0010
1000
,  // measure 11
0100
0000
1000
1000
,  // measure 12
0001
1000
0100
0010
,  // measure 13
0001
0000
0000
1000
,  // measure 14
0100
0000
1000
0001
,  // measure 15
0020
0000
1030
0100
,  // measure 16
0010
0000
0001
1000
,  // measure 17
0200
0000
0301
0010
,  // measure 18
0001
0010
0001
0100
,  // measure 19
0010
0001
0100
0000
,  // measure 20
0010
0100
0000
0010
,  // measure 21
1001
1001
0000
0000
,  // measure 22
0100
0010
0010
1000
,  // measure 23
0100
0000
1000
1000
,  // measure 24
0001
1000
0100
0010
,  // measure 25
0001
0000
0000
0000
,  // measure 26
0100
0010
0010
0001
,  // measure 27
0100
0000
0001
0001
,  // measure 28
1000
0001
0100
0010
,  // measure 29
1000
0000
0000
0001
,  // measure 30
0100
0000
0001
1000
,  // measure 31
0020
0000
0031
0100
,  // measure 32
0010
0000
1000
0001
,  // measure 33
0200
0000
1300
0010
,  // measure 34
1000
0010
1000
0100
,  // measure 35
0010
1000
0100
0000
,  // measure 36
0010
0100
0000
0010
,  // measure 37
1001
1001
0000
0000
,  // measure 38
0010
0001
0200
0000
,  // measure 39
0301
0010
0002
0000
,  // measure 40
0103
1000
0020
0000
,  // measure 41
1030
0100
2000
0000
,  // measure 42
3100
0001
0020
0000
,  // measure 43
0031
0100
0002
0000
,  // measure 44
0013
1000
0200
0000
,  // measure 45
1300
0010
0010
0000
,  // measure 46
0000
0000
0001
0000
0100
0000
0000
0010
,  // measure 47
0000
0000
1000
0100
,  // measure 48
0000
0000
1000
0000
0100
0000
0000
0010
,  // measure 49
0000
0000
0001
0100
,  // measure 50
0000
0000
0001
0000
0010
0000
0000
0100
,  // measure 51
0000
0000
1000
0010
,  // measure 52
0000
0000
1000
0000
0010
0000
0000
0100
,  // measure 53
0000
0000
0000
0000
,  // measure 54
1001
0000
0010
0100
,  // measure 55
1000
0000
0100
0001
,  // measure 56
0100
1000
0100
0001
,  // measure 57
0100
1000
0001
0000
,  // measure 58
0100
1000
1000
0000
,  // measure 59
0001
0010
0010
0000
,  // measure 60
1000
0001
1000
0000
,  // measure 61
0011
0000
1100
0000
,  // measure 62
0002
0000
0000
0003
,  // measure 63
0200
0000
0000
0300
,  // measure 64
0020
0000
0000
1000
0000
1000
0030
0200
,  // measure 65
0000
0000
0000
0002
0000
0000
0303
0000
,  // measure 66
2000
0000
0000
0000
0000
0000
0000
3200
,  // measure 67
0000
0000
0000
0300
,  // measure 68
0020
0000
0000
0001
0000
0001
0000
0230
,  // measure 69
0000
0000
0000
2000
0000
0000
3300
0000
;

//---------------dance-single - ----------------
#NOTES:
     dance-single:
     :
     Medium:
     5:
     0.232,0.285,0.083,0.188,0.000:
0000
0000
0000
0000
,
0000
0000
0000
0000
,
0000
0000
0000
0000
,
0000
0000
0000
0000
,
0000
0000
0000
0000
,
0000
1000
0100
0010
,
0001
0000
0100
0001
,
1000
0000
0001
0000
,
0100
0000
0000
0000
,
0000
0001
0100
0010
,
1000
0000
0100
1000
,
0001
0000
1000
0000
,
0100
0000
0000
0000
,
0001
0000
0010
0000
,
0200
0000
0301
0001
,
1000
0000
0100
0000
,
0020
0000
1030
1000
,
0010
0000
0100
0000
,
0010
0001
0010
0000
,
1000
0000
0001
0000
,
1001
1001
0000
0000
,
0000
0001
0010
0100
,
1000
0000
0010
1000
,
0001
0000
1000
0000
,
0010
0000
0000
0000
,
0000
1000
0010
0100
,
0001
0000
0010
0001
,
1000
0000
0001
0000
,
0010
0000
0000
0000
,
1000
0000
0100
0000
,
0020
0000
1030
1000
,
0001
0000
0010
0000
,
0200
0000
0301
0001
,
0100
0000
0010
0000
,
0100
1000
0100
0000
,
0001
0000
1000
0000
,
1001
1001
0000
0000
,
0000
1000
0200
0000
,
0300
0001
0020
0000
,
0030
1000
0020
0000
,
0030
0001
0200
0000
,
0300
1000
0200
0000
,
0300
0001
0020
0000
,
0030
1000
0020
0000
,
0030
0001
0100
0000
,
0000
0010
0100
0000
,
0000
0000
1000
0010
,
0000
0100
0010
0000
,
0000
0000
0001
0100
,
0000
0010
0100
0000
,
0000
0000
1000
0010
,
0000
0100
0010
0000
,
0000
0000
0000
0000
,
1001
0000
0010
0000
,
0110
0000
1000
0000
,
0001
0100
0001
0000
,
0002
0000
0003
0000
,
0200
0000
0301
0000
,
0020
0000
1030
0000
,
0100
0000
0100
0000
,
0101
0000
1010
0000
,
0200
0000
0300
0000
,
0020
0000
0000
0030
,
0000
0000
0100
0000
,
0010
0000
1000
0000
,
0020
0000
0030
0000
,
0200
0000
0000
0300
,
0000
0000
0010
0000
,
0100
0000
0001
0000
;

//---------------dance-single - ----------------
#NOTES:
     dance-single:
     :
     Easy:
     3:
     0.149,0.213,0.104,0.094,0.000:
0000
0000
0000
0000
,
0000
0000
0000
0000
,
0000
0000
0000
0000
,
0000
0000
0000
0000
,
0000
0000
0000
0000
,
0000
0100
0000
0001
,
0000
0000
0001
0000
,
0100
0000
1000
0000
,
0100
0000
0000
0000
,
0000
0010
0000
1000
,
0000
0000
1000
0000
,
0010
0000
0001
0000
,
0010
0000
0000
0000
,
1000
0000
0000
0000
,
0002
0000
0003
0000
,
0001
0000
0000
0000
,
2000
0000
3000
0000
,
0010
0000
0000
0000
,
0001
0000
0000
0000
,
1000
0000
0000
0000
,
1001
1001
0000
0000
,
0000
0010
0000
1000
,
0000
0000
1000
0000
,
0010
0000
0001
0000
,
0010
0000
0000
0000
,
0000
0100
0000
0001
,
0000
0000
0001
0000
,
0100
0000
1000
0000
,
0100
0000
0000
0000
,
0001
0000
0010
0000
,
2000
0000
3000
0000
,
1000
0000
0000
0000
,
0002
0000
0003
0000
,
0100
0000
0000
0000
,
1000
0000
0000
0000
,
0001
0000
0000
0000
,
1001
1001
0000
0000
,
0000
0000
1000
0000
,
0000
0000
0001
0000
,
0000
0000
0100
0000
,
0000
0000
0010
0000
,
0000
0000
1000
0000
,
0000
0000
0001
0000
,
0000
0000
0010
0000
,
0000
0000
0100
0000
,
0000
0000
0110
0000
,
0000
0000
0001
0001
,
0000
0110
0000
0000
,
0000
0000
1000
1000
,
0000
0110
0000
0000
,
0000
0000
0001
0001
,
0000
0110
0000
0000
,
0000
0000
0000
0000
,
1001
0000
0001
0000
,
1000
0000
0000
0000
,
0100
0000
0001
0000
,
0200
0000
0300
0000
,
0002
0000
0000
0003
,
2000
0000
0000
3000
,
0010
0000
0010
0000
,
0100
0000
1001
0000
,
0001
0000
0000
0000
,
0020
0000
0000
0030
,
0000
0000
0100
0000
,
0010
0000
0000
0000
,
1000
0000
0000
0000
,
0200
0000
0000
0300
,
0000
0000
0010
0000
,
0100
0000
0000
0000
;

//---------------dance-single - ----------------
#NOTES:
     dance-single:
     :
     Beginner:
     2:
     0.095,0.142,0.042,0.000,0.000:
0000
0000
0000
0000
,
0000
0000
0000
0000
,
0000
0000
0000
0000
,
0000
0000
0000
0000
,
0000
0000
0000
0000
,
0000
1000
0000
0000
,
0000
0000
0001
0000
,
1000
0000
0000
0000
,
1000
0000
0000
0000
,
0000
0001
0000
0000
,
0000
0000
1000
0000
,
0001
0000
0000
0000
,
0001
0000
0000
0000
,
1000
0000
0000
0000
,
0100
0000
0000
0000
,
0001
0000
0000
0000
,
0010
0000
0000
0000
,
0100
0000
0100
0000
,
0100
0000
0000
0000
,
0000
0000
0000
0000
,
1001
0000
0000
0000
,
0000
0001
0000
0000
,
0000
0000
1000
0000
,
0001
0000
0000
0000
,
0001
0000
0000
0000
,
0000
1000
0000
0000
,
0000
0000
0001
0000
,
1000
0000
0000
0000
,
1000
0000
0000
0000
,
0001
0000
0000
0000
,
0010
0000
0000
0000
,
1000
0000
0000
0000
,
0100
0000
0000
0000
,
0010
0000
0010
0000
,
0010
0000
0000
0000
,
0000
0000
0000
0000
,
1001
0000
0000
0000
,
0000
0000
1000
0000
,
0000
0000
0001
0000
,
0000
0000
1000
0000
,
0000
0000
0001
0000
,
0000
0000
1000
0000
,
0000
0000
0001
0000
,
0000
0000
1000
0000
,
0000
0000
0001
0000
,
0000
0000
0000
0000
,
0000
0000
0100
0100
,
0000
0000
0000
0000
,
0000
0000
0010
0010
,
0000
0000
0000
0000
,
0000
0000
0100
0100
,
0000
0000
0000
0000
,
0000
0000
0000
0000
,
1001
0000
0000
0000
,
0010
0000
0000
0000
,
1000
0000
0000
0000
,
1000
0000
0000
0000
,
0000
0001
0001
0000
,
0000
1000
1000
0000
,
0000
0000
0001
0000
,
0000
0000
1001
0000
,
0000
0000
0000
0000
,
0100
0000
0000
0000
,
0000
0000
0000
0000
,
0100
0000
0000
0000
,
0000
0000
0000
0000
,
0100
0000
0000
0000
,
0000
0000
0000
0000
,
0100
0000
0000
0000
;
