#TITLE:BIG-BANG STARS;
#SUBTITLE:;
#ARTIST:co-ping;
#TITLETRANSLIT:;
#SUBTITLETRANSLIT:;
#ARTISTTRANSLIT:;
#CREDIT:;
#BANNER:BIG-BANG STARS.png;
#BACKGROUND:BIG-BANG STARS-bg.png;
#LYRICSPATH:;
#CDTITLE:./CDTITLES/GuitarFreaks&DrumMania.PNG;
#MUSIC:BIG-BANG STARS.mp3;
#OFFSET:1.854;
#SAMPLESTART:62.910;
#SAMPLELENGTH:15.680;
#SELECTABLE:YES;
#DISPLAYBPM:125.000;
#BPMS:0.000=125.000;
#STOPS:;
#BGCHANGES:;

//---------------dance-single - ----------------
#NOTES:
     dance-single:
     :
     Hard:
     6:
     0.264,0.335,0.184,0.258,0.000: // measure 1
0000
0000
0000
0000
,  // measure 2
0000
0000
0000
0000
,  // measure 3
0000
0000
0000
0000
,  // measure 4
0000
0000
0000
0000
,  // measure 5
0000
0000
0000
0000
,  // measure 6
0000
0100
0000
1001
,  // measure 7
0000
1000
0001
0110
,  // measure 8
0000
0100
0010
0100
,  // measure 9
2000
3000
0200
0300
,  // measure 10
0002
0003
0020
0030
,  // measure 11
2000
3000
0020
0030
,  // measure 12
0200
0000
0000
0000
,  // measure 13
0020
0000
0000
0330
,  // measure 14
0000
0000
0000
1000
,  // measure 15
0010
0000
0001
0010
,  // measure 16
0100
0000
0000
1000
0100
0000
1000
0000
,  // measure 17
0001
0000
0000
0010
0000
0000
0100
0000
,  // measure 18
0010
0100
0001
0001
,  // measure 19
0010
0000
1000
0010
,  // measure 20
0100
0000
0000
0001
0100
0000
0001
0000
,  // measure 21
1000
0000
0000
0010
0000
0000
0100
0000
,  // measure 22
0010
0100
1000
0100
,  // measure 23
0000
0010
0001
0000
0010
0000
0002
0000
,  // measure 24
0000
0103
1000
0010
,  // measure 25
0000
0100
0001
0000
0100
0000
0002
0000
,  // measure 26
0000
0013
1000
0100
,  // measure 27
0000
0010
1000
0000
0010
0000
2000
0000
,  // measure 28
0000
3100
0001
0010
,  // measure 29
0000
0100
1000
0000
0100
0000
2000
0000
,  // measure 30
0000
0002
3003
1010
,  // measure 31
0000
0000
0101
0011
,  // measure 32
0000
0000
1100
0101
,  // measure 33
0000
0000
1010
0002
,  // measure 34
0000
0200
0303
1100
,  // measure 35
0000
0100
1010
0011
,  // measure 36
0000
0010
0101
1010
,  // measure 37
0000
0010
1100
0100
,  // measure 38
0000
0100
0000
0000
,  // measure 39
0001
0000
1000
0100
,  // measure 40
0002
0000
0020
0033
,  // measure 41
0100
1000
0001
0100
,  // measure 42
0010
0000
1000
0000
0001
1000
0001
0000
,  // measure 43
2000
0000
0200
3300
,  // measure 44
0000
0000
0000
0210
,  // measure 45
0000
0300
0001
1000
,  // measure 46
0100
0010
0100
2000
,  // measure 47
0000
3100
0020
0000
0000
0031
0100
0000
,  // measure 48
0010
1000
1100
0120
,  // measure 49
0000
0030
1000
0001
,  // measure 50
0010
0100
0010
0002
,  // measure 51
0000
0013
0200
0000
0000
1300
0020
0000
,  // measure 52
0100
0100
0100
0100
,  // measure 53
0130
0000
1001
0000
0100
0000
0001
1000
,  // measure 54
0010
0000
1001
0000
0010
0000
1000
0001
,  // measure 55
0100
0000
1001
0000
0100
0000
1000
0001
,  // measure 56
0010
2000
0000
0020
,  // measure 57
3030
0000
0000
0000
;

//---------------dance-single - ----------------
#NOTES:
     dance-single:
     :
     Medium:
     4:
     0.216,0.232,0.092,0.248,0.000: // measure 1
0000
0000
0000
0000
,  // measure 2
0000
0000
0000
0000
,  // measure 3
0000
0000
0000
0000
,  // measure 4
0000
0000
0000
0000
,  // measure 5
0000
0000
0000
0000
,  // measure 6
0000
0100
0000
0010
,  // measure 7
0000
1000
0100
0100
,  // measure 8
0000
0001
1000
0001
,  // measure 9
2000
3000
0200
0300
,  // measure 10
0020
0030
0002
0003
,  // measure 11
0020
0030
0200
0300
,  // measure 12
2000
0000
0000
3000
,  // measure 13
0002
0000
0000
0003
,  // measure 14
0000
0000
0000
1000
,  // measure 15
0000
0100
0001
0001
,  // measure 16
0000
0100
0100
1000
,  // measure 17
0000
0001
1000
0010
,  // measure 18
0010
0100
0100
0001
,  // measure 19
0000
0010
1000
1000
,  // measure 20
0000
0010
0010
0001
,  // measure 21
0000
1000
0001
0100
,  // measure 22
0100
0010
0010
0100
,  // measure 23
1000
0001
0000
0001
,  // measure 24
0010
0100
0000
0100
,  // measure 25
0001
1000
0000
1000
,  // measure 26
0010
0100
0000
0010
,  // measure 27
1000
0001
0000
0001
,  // measure 28
0100
0010
0000
0100
,  // measure 29
0001
1000
0000
2000
,  // measure 30
0000
0002
3003
0001
,  // measure 31
0000
0000
1100
1000
,  // measure 32
0000
0000
0011
0001
,  // measure 33
0000
0000
1010
0002
,  // measure 34
0000
2000
3003
1001
,  // measure 35
0000
0010
0000
1001
,  // measure 36
0000
0100
0000
1001
,  // measure 37
0000
0100
0000
0100
,  // measure 38
0000
0100
0000
0000
,  // measure 39
1000
0000
1000
0100
,  // measure 40
0020
0000
0200
0330
,  // measure 41
0001
0000
1000
0100
,  // measure 42
1000
0000
0001
0001
,  // measure 43
0200
0000
0020
0330
,  // measure 44
0000
0000
0000
0002
,  // measure 45
0000
1003
0001
1000
,  // measure 46
0010
0100
0001
2000
,  // measure 47
3000
0200
0300
0020
,  // measure 48
0000
0030
1001
2000
,  // measure 49
0000
3001
1000
0001
,  // measure 50
0010
0100
1000
0002
,  // measure 51
0003
0200
0300
0002
,  // measure 52
0200
0000
0000
0000
,  // measure 53
0303
1001
0000
0100
,  // measure 54
0100
1001
0000
0100
,  // measure 55
0100
1001
0000
0010
,  // measure 56
0010
0020
0000
0200
,  // measure 57
0330
0000
0000
0000
;

//---------------dance-single - ----------------
#NOTES:
     dance-single:
     :
     Easy:
     2:
     0.160,0.180,0.129,0.230,0.000: // measure 1
0000
0000
0000
0000
,  // measure 2
0000
0000
0000
0000
,  // measure 3
0000
0000
0000
0000
,  // measure 4
0000
0000
0000
0000
,  // measure 5
0000
0000
0000
0000
,  // measure 6
0000
0010
0000
0100
,  // measure 7
0000
0001
0000
0010
,  // measure 8
0000
0100
0000
1000
,  // measure 9
0002
0000
0003
0000
,  // measure 10
0020
0000
0030
0000
,  // measure 11
0200
0000
0300
0000
,  // measure 12
2000
0000
0000
3000
,  // measure 13
0200
0000
0000
0300
,  // measure 14
0000
0000
0000
0100
,  // measure 15
0000
1000
0000
0001
,  // measure 16
0000
0001
0000
0100
,  // measure 17
0000
0000
0000
1000
,  // measure 18
0001
1000
0001
0010
,  // measure 19
0000
0001
0000
1000
,  // measure 20
0000
1000
0000
0010
,  // measure 21
0000
0000
0000
0001
,  // measure 22
1000
0001
1000
0002
,  // measure 23
0000
0003
0000
0000
,  // measure 24
1000
0100
1000
2000
,  // measure 25
0000
3000
0000
0000
,  // measure 26
0001
0100
0001
0002
,  // measure 27
0000
0003
0000
0000
,  // measure 28
1000
0010
1000
0002
,  // measure 29
0000
0003
0000
0220
,  // measure 30
0000
0000
0330
0000
,  // measure 31
0000
0000
1001
0000
,  // measure 32
0000
0000
1001
0000
,  // measure 33
0000
0000
1001
2002
,  // measure 34
0000
0000
3003
0000
,  // measure 35
0000
0110
0010
0000
,  // measure 36
0000
0110
0100
0000
,  // measure 37
0000
0110
0010
1000
,  // measure 38
0000
0001
0000
0000
,  // measure 39
0100
0000
0000
0000
,  // measure 40
0220
0000
0000
0330
,  // measure 41
0000
0001
1000
0000
,  // measure 42
0000
0010
0100
0000
,  // measure 43
2002
0000
0000
3003
,  // measure 44
0000
0000
0000
0200
,  // measure 45
0000
0300
0001
0001
,  // measure 46
0000
0000
0100
1000
,  // measure 47
0000
0002
0003
2000
,  // measure 48
0000
3000
0000
0020
,  // measure 49
0000
0030
1000
1000
,  // measure 50
0000
0000
0010
0001
,  // measure 51
0000
2000
3000
0020
,  // measure 52
0000
0000
0000
0030
,  // measure 53
0000
1001
0000
0010
,  // measure 54
0000
1001
0000
0100
,  // measure 55
0000
1001
0000
0010
,  // measure 56
0000
0220
0000
0000
,  // measure 57
0330
0000
0000
0000
;

//---------------dance-single - ----------------
#NOTES:
     dance-single:
     :
     Beginner:
     1:
     0.083,0.101,0.028,0.000,0.000:
0000
0000
0000
0000
,
0000
0000
0000
0000
,
0000
0000
0000
0000
,
0000
0000
0000
0000
,
0000
0000
0000
0000
,
0000
1000
0000
0000
,
0000
0100
0000
0000
,
0000
0001
0000
0001
,
0001
0000
0000
0000
,
0100
0000
0000
0000
,
0010
0000
0000
0000
,
1000
0000
0000
0000
,
0001
0000
0000
0000
,
0000
0000
0000
0001
,
0000
0000
0000
0010
,
0000
0000
0000
0100
,
0000
0100
0000
0010
,
0000
0100
0000
1000
,
0000
0000
0000
0100
,
0000
0000
0000
0010
,
0000
0010
0000
0100
,
0000
0010
0000
0001
,
0000
0000
0000
0001
,
0000
0000
0000
1000
,
0000
0000
0000
1000
,
0000
0000
0000
0001
,
0000
0000
0000
0001
,
0000
0000
0000
1000
,
0000
0000
0000
0000
,
0000
0000
0000
0000
,
0000
0001
0001
0000
,
0000
1000
1000
0000
,
0000
0001
0001
0000
,
0000
0000
0000
0000
,
0000
0100
0100
0000
,
0000
0010
0010
0000
,
0000
0100
0100
0000
,
0000
0000
0000
0000
,
0001
0000
0000
0000
,
0000
0000
0000
0000
,
0000
0010
0010
0000
,
0000
1000
0000
0001
,
0000
0000
0000
0000
,
0000
0000
0000
1000
,
0000
0001
0001
0000
,
0000
0010
0000
1000
,
0000
0000
0000
0100
,
0000
0000
0000
0001
,
0000
1000
1000
0000
,
0000
0100
0000
0001
,
0000
0000
0000
0010
,
0000
0000
0000
0000
,
0000
0000
0000
1001
,
0000
0000
0000
1001
,
0000
0000
0000
1001
;
