#TITLE:777;
#SUBTITLE:;
#ARTIST:EeL;
#TITLETRANSLIT:;
#SUBTITLETRANSLIT:;
#ARTISTTRANSLIT:;
#CREDIT:;
#BANNER:777.png;
#BACKGROUND:777-bg.png;
#LYRICSPATH:;
#CDTITLE:./CDTITLES/pop'n music.PNG;
#MUSIC:777.mp3;
#OFFSET:1.118;
#SAMPLESTART:30.050;
#SAMPLELENGTH:16.280;
#SELECTABLE:YES;
#DISPLAYBPM:200.000;
#BPMS:0.000=200.000;
#STOPS:;
#BGCHANGES:;

//---------------dance-single - ----------------
#NOTES:
     dance-single:
     :
     Hard:
     9:
     0.332,0.375,0.114,0.162,0.000:
0000
0000
0000
0000
,
0000
0000
0000
0000
,
0000
0000
0000
0000
,
0000
0000
0000
0000
,
0000
0000
0000
0000
,
0000
0000
0000
0000
,
1000
0000
0010
0000
,
0100
1000
1000
0100
,
0001
0001
0100
0000
,
1000
0001
0100
0000
,
1000
1000
0001
0001
,
0010
0000
0100
0100
,
1000
0000
1000
0100
,
0010
0000
0001
0001
,
1000
1000
0001
0001
,
0010
0000
0100
0100
,
1000
0000
1000
0100
,
1000
0010
0100
0000
,
0001
0001
1000
1000
,
0010
0000
0100
0100
,
0001
0000
0001
0100
,
0010
0000
1000
1000
,
0001
0001
1000
1000
,
0010
0000
0100
0100
,
0001
0000
0001
0100
,
0001
0010
0100
0000
,
2000
0000
0010
3010
,
0200
0000
0010
0300
,
0010
0000
1000
0000
,
0001
1000
0001
1000
,
0002
0000
0010
0013
,
0200
0000
0010
0300
,
0010
0000
0001
0000
,
1000
0001
1000
0000
,
2000
0000
0100
3100
,
0020
0000
0100
0030
,
0100
0000
1000
0000
,
0001
1000
0001
0000
,
0002
0000
0100
0103
,
0100
1001
0000
0000
,
0010
0000
0100
0010
,
0001
0100
0010
0000
,
0100
0100
1000
0000
,
0010
0100
1000
0000
,
0010
0000
0100
0010
,
1000
0100
0010
0000
,
0100
0100
0001
0000
,
0010
0100
0001
0000
,
0000
1010
0000
1100
,
0000
0110
0000
0000
,
0000
0011
0000
0101
,
0000
1001
0000
0000
,
0000
0101
0000
0011
,
0000
0110
0000
0000
,
0000
1100
0000
1010
,
1000
0010
0100
0001
,
2000
0100
0000
3001
,
0020
0000
0030
0000
,
0002
0010
0000
1003
,
0200
0000
0300
0000
,
2000
0010
0000
3001
,
0020
0000
0030
0000
,
0002
0100
0000
1003
,
0200
0000
0300
0000
,
0001
0000
0100
0000
,
0001
0001
0100
0100
,
0020
0000
1030
0000
,
0000
0000
0000
0000
,
1000
0000
0100
0000
,
1000
1000
0100
0100
,
0020
0000
0031
0000
,
0100
0000
0000
0000
,
0001
0000
0001
0010
,
0010
0000
0100
0100
,
1000
0000
0001
0000
,
0000
0000
0000
0000
,
1000
0000
1000
0010
,
0010
0000
0100
0100
,
0001
1000
1000
0000
,
0000
0000
0000
0000
,
0010
0100
0010
0100
,
0001
1000
0001
0000
,
0001
0100
0001
0000
,
0010
1000
0001
0000
,
0100
0010
0100
0010
,
1000
0001
1000
0000
,
1000
0010
1000
0000
,
0010
0001
1000
0000
;

//---------------dance-single - ----------------
#NOTES:
     dance-single:
     :
     Medium:
     6:
     0.285,0.372,0.086,0.200,0.000:
0000
0000
0000
0000
,
0000
0000
0000
0000
,
0000
0000
0000
0000
,
0000
0000
0000
0000
,
0000
0000
0000
0000
,
0000
0000
0000
0000
,
0001
0000
0010
0000
,
0001
0100
0100
0000
,
1000
1000
0100
0000
,
0010
0000
0010
0000
,
1000
1000
1000
1000
,
0000
0000
1000
0100
,
0010
0000
0100
0000
,
0010
0000
0100
0000
,
1000
1000
1000
1000
,
0000
0000
1000
0100
,
0010
0000
0100
0000
,
1000
1000
0100
0000
,
0001
0001
0001
0001
,
0000
0000
0001
0100
,
0010
0000
0100
0000
,
0010
0000
0100
0000
,
0001
0001
0001
0001
,
0000
0000
0001
0100
,
0010
0000
0100
0000
,
0001
0001
0100
0000
,
0020
0000
1030
1000
,
0002
0000
0013
0000
,
0100
0000
0100
0000
,
1000
0000
0001
0000
,
0200
0000
0301
0001
,
2000
0000
3100
0000
,
0010
0000
0010
0000
,
0001
0000
1000
0000
,
0020
0000
1030
1000
,
0002
0000
0013
0000
,
0100
0000
0100
0000
,
1000
0000
0001
0000
,
0200
0000
0301
0001
,
1001
1001
0000
0000
,
1000
0001
1000
0000
,
1000
0000
1000
0000
,
0001
0010
0100
0000
,
0100
0100
0010
0000
,
0001
1000
0001
0000
,
0001
0000
0001
0000
,
1000
0010
0100
0000
,
0010
0100
0100
0000
,
0000
1100
0000
1000
,
0000
0110
0000
0010
,
0000
0101
0000
0000
,
0000
1001
0000
0000
,
0000
0011
0000
0001
,
0000
0110
0000
0100
,
0000
1010
0000
0000
,
0001
1000
0001
1000
,
0002
0000
0203
0000
,
0320
0000
0000
0030
,
2000
0000
3020
0000
,
0230
0000
0000
0300
,
0002
0000
0023
0000
,
0230
0000
0000
0300
,
2000
0000
3200
0000
,
0320
0000
0030
0000
,
0100
0000
0100
0000
,
1000
0000
0100
0100
,
0002
0000
0003
0000
,
0000
0000
0000
0000
,
0100
0000
0100
0000
,
0001
0000
0100
0100
,
2000
0000
3000
0000
,
0100
0000
0000
0000
,
1000
0000
0100
0000
,
0001
0000
0010
0000
,
0100
0000
0100
0000
,
0000
0000
0000
0000
,
0001
0000
0010
0000
,
1000
0000
0100
0000
,
0010
0000
0010
0000
,
0000
0000
0000
0000
,
0010
0010
0100
0100
,
0001
0001
1000
0000
,
0001
0100
0001
0000
,
0100
0000
0000
0000
,
0100
0100
0010
0010
,
1000
1000
0001
0000
,
1000
0010
1000
0000
,
0010
0000
0000
0000
;

//---------------dance-single - ----------------
#NOTES:
     dance-single:
     :
     Easy:
     4:
     0.202,0.290,0.048,0.143,0.000: // measure 1
0000
0000
0000
0000
,  // measure 2
0000
0000
0000
0000
,  // measure 3
0000
0000
0000
0000
,  // measure 4
0000
0000
0000
0000
,  // measure 5
0000
0000
0000
0000
,  // measure 6
0000
0000
0000
0000
,  // measure 7
1000
0000
0100
0000
,  // measure 8
0001
0000
0001
0000
,  // measure 9
0001
0000
0010
0000
,  // measure 10
0100
0000
0100
0000
,  // measure 11
0001
0000
1000
1000
,  // measure 12
0000
0000
0100
0000
,  // measure 13
0001
0000
1000
0000
,  // measure 14
0010
0000
0000
0000
,  // measure 15
0001
0000
1000
1000
,  // measure 16
0000
0000
0100
0000
,  // measure 17
0001
0000
1000
0000
,  // measure 18
0010
0000
0000
0000
,  // measure 19
1000
0000
0001
0001
,  // measure 20
0000
0000
0010
0000
,  // measure 21
1000
0000
0001
0000
,  // measure 22
0100
0000
0000
0000
,  // measure 23
1000
0000
0001
0001
,  // measure 24
0000
0000
0010
0000
,  // measure 25
1000
0000
0001
0000
,  // measure 26
0100
0000
0000
0000
,  // measure 27
2000
0000
3000
0000
,  // measure 28
0200
0000
0300
0000
,  // measure 29
0010
0010
0000
0000
,  // measure 30
0001
0000
0000
0000
,  // measure 31
2000
0000
3000
0000
,  // measure 32
0200
0000
0300
0000
,  // measure 33
0010
0010
0000
0000
,  // measure 34
1000
0000
0000
0000
,  // measure 35
0002
0000
0003
0000
,  // measure 36
0200
0000
0300
0000
,  // measure 37
0010
0010
0000
0000
,  // measure 38
1000
0000
0000
0000
,  // measure 39
0002
0000
0003
0000
,  // measure 40
1001
1001
0000
0000
,  // measure 41
0000
0000
1000
0000
,  // measure 42
0100
0000
0001
0000
,  // measure 43
1000
0000
0000
0000
,  // measure 44
1000
0001
1000
0000
,  // measure 45
0000
0000
0001
0000
,  // measure 46
0100
0000
1000
0000
,  // measure 47
0001
0000
0000
0000
,  // measure 48
0001
1000
0001
0000
,  // measure 49
0000
1000
0000
0001
,  // measure 50
0000
0110
0000
0000
,  // measure 51
0000
0001
0000
1000
,  // measure 52
0000
0110
0000
0000
,  // measure 53
0000
0001
0000
1000
,  // measure 54
0000
0110
0000
0000
,  // measure 55
0000
1000
0000
0001
,  // measure 56
1000
1000
1000
1000
,  // measure 57
0002
0000
0000
0003
,  // measure 58
0200
0000
0000
0300
,  // measure 59
0002
0000
0000
0003
,  // measure 60
0020
0000
0000
0030
,  // measure 61
2000
0000
0000
3000
,  // measure 62
0020
0000
0000
0030
,  // measure 63
2000
0000
0000
3000
,  // measure 64
0200
0000
0300
0000
,  // measure 65
0000
0000
0001
0000
,  // measure 66
0000
0000
0100
0000
,  // measure 67
0010
0000
0100
0000
,  // measure 68
0000
0000
0000
0000
,  // measure 69
0000
0000
1000
0000
,  // measure 70
0000
0000
0010
0000
,  // measure 71
0100
0000
0010
0000
,  // measure 72
0000
0000
0000
0000
,  // measure 73
0001
0000
0100
0000
,  // measure 74
0001
0000
0000
0000
,  // measure 75
0100
0000
0000
0000
,  // measure 76
0000
0000
0000
0000
,  // measure 77
1000
0000
0100
0000
,  // measure 78
1000
0000
0000
0000
,  // measure 79
0100
0000
0000
0000
,  // measure 80
0000
0000
0000
0000
,  // measure 81
1000
1000
1000
0000
,  // measure 82
0100
0100
0100
0000
,  // measure 83
0001
1000
0001
1000
,  // measure 84
0001
0000
0000
0000
,  // measure 85
0001
0001
0001
0000
,  // measure 86
0010
0010
0010
0000
,  // measure 87
1000
0001
1000
0001
,  // measure 88
1000
0000
0000
0000
;

//---------------dance-single - ----------------
#NOTES:
     dance-single:
     :
     Beginner:
     2:
     0.128,0.288,0.095,0.000,0.000:
0000
0000
0000
0000
,
0000
0000
0000
0000
,
0000
0000
0000
0000
,
0000
0000
0000
0000
,
0000
0000
0000
0000
,
0000
0000
0000
0000
,
1000
0000
0000
0000
,
0001
0000
0001
0000
,
0001
0000
0000
0000
,
1000
0000
1000
0000
,
0001
0000
0000
0000
,
0000
0000
0001
0000
,
1000
0000
0000
0000
,
0100
0000
0000
0000
,
0001
0000
0000
0000
,
0000
0000
0001
0000
,
1000
0000
0000
0000
,
0010
0000
0000
0000
,
1000
0000
0000
0000
,
0000
0000
1000
0000
,
0001
0000
0000
0000
,
0010
0000
0000
0000
,
1000
0000
0000
0000
,
0000
0000
1000
0000
,
0001
0000
0000
0000
,
0100
0000
0000
0000
,
0001
0000
0000
0000
,
1000
0000
0000
0000
,
1000
0000
0000
0000
,
0000
0000
0000
0000
,
0001
0000
0000
0000
,
1000
0000
0000
0000
,
1000
0000
0000
0000
,
0000
0000
0000
0000
,
1000
0000
0000
0000
,
0001
0000
0000
0000
,
0001
0000
0000
0000
,
0000
0000
0000
0000
,
1000
0000
0000
0000
,
1001
0000
0000
0000
,
0001
0000
0001
0000
,
1000
0000
0000
0000
,
1001
0000
0000
0000
,
1001
0000
0000
0000
,
1000
0000
1000
0000
,
0001
0000
0000
0000
,
1001
0000
0000
0000
,
1001
0000
0000
0000
,
0000
0010
0000
0000
,
0000
1001
0000
0000
,
0000
0100
0000
0000
,
0000
1001
0000
0000
,
0000
0010
0000
0000
,
0000
1001
0000
0000
,
0000
0100
0000
0000
,
1001
0000
1001
0000
,
0000
0000
0000
0000
,
0100
0000
0100
0000
,
0000
0000
0000
0000
,
0010
0000
0010
0000
,
0000
0000
0000
0000
,
0100
0000
0100
0000
,
0000
0000
0000
0000
,
0010
0000
0010
0000
,
0000
0000
0000
0000
,
0000
0000
0100
0000
,
0000
0000
0001
0000
,
0000
0000
0000
0000
,
0000
0000
0000
0000
,
0000
0000
0010
0000
,
0000
0000
1000
0000
,
0000
0000
0000
0000
,
0001
0000
0000
0000
,
0000
0000
0000
0000
,
0100
0000
0000
0000
,
0000
0000
0000
0000
,
1000
0000
0000
0000
,
0000
0000
0000
0000
,
0100
0000
0000
0000
,
0000
0000
0000
0000
,
0001
0001
0001
0000
,
1000
1000
1000
0000
,
0010
0000
0010
0000
,
0000
0000
0000
0000
,
1000
1000
1000
0000
,
0001
0001
0001
0000
,
0100
0000
0100
0000
;
