#TITLE:0/1 ANGEL;
#SUBTITLE:;
#ARTIST:V.C.O. Featuring Alt A.I.TECHNO;
#TITLETRANSLIT:;
#SUBTITLETRANSLIT:;
#ARTISTTRANSLIT:;
#CREDIT:;
#BANNER:01 ANGEL.png;
#BACKGROUND:01 ANGEL-bg.png;
#LYRICSPATH:;
#CDTITLE:./CDTITLES/pop'n music.PNG;
#MUSIC:01 ANGEL.mp3;
#OFFSET:1.613;
#SAMPLESTART:43.580;
#SAMPLELENGTH:15.700;
#SELECTABLE:YES;
#DISPLAYBPM:140.000;
#BPMS:0.000=140.000;
#STOPS:;
#BGCHANGES:;

//---------------dance-single - ----------------
#NOTES:
     dance-single:
     :
     Hard:
     6:
     0.321,0.322,0.196,0.185,0.000:
0000
0000
0000
0000
,
0000
0000
0000
0000
,
0000
0000
0000
0000
,
0000
0000
0000
0000
,
0000
0000
0000
0000
,
0001
0010
0001
0010
,
0100
0000
1000
1100
,
1000
0010
1000
0001
,
0100
0100
0000
1001
,
1000
0010
1000
0010
,
0100
0000
0001
0101
,
0001
0010
0001
1000
,
0100
0100
0000
1001
,
0001
0100
0001
0100
,
0010
0000
1000
1010
,
1000
0100
1000
0001
,
0010
0010
0000
1001
,
0100
0000
0001
0000
1000
0100
1000
0000
,
0002
0000
0103
0100
,
0010
1100
0001
1100
,
0001
0010
0100
1000
,
0100
0000
1000
0000
0001
0100
0001
0000
,
2000
0000
3100
0100
,
0010
0101
1000
0101
,
1000
0010
0100
0001
,
0100
1100
0100
0101
,
0020
0000
0030
1001
,
2000
0000
0010
3100
,
0002
0103
0020
0130
,
1000
0100
0000
0001
,
0100
0000
0010
0010
0000
1000
1000
0000
,
0002
0000
0010
0103
,
2000
3100
0020
0130
,
0001
0100
0000
1000
,
0100
0000
0010
0010
0000
0001
0001
0000
,
2000
0000
0100
3010
,
0002
0013
0200
0310
,
1000
0010
0000
0001
,
0010
0100
0001
1000
,
0001
0000
0000
1100
0000
0000
2020
0000
,
0000
0000
3030
0000
,
1000
0000
0000
0101
0000
0000
0022
0000
,
0000
0000
0033
0000
,
1000
0010
0001
0100
,
1000
0100
0001
0100
,
0010
0010
1000
0100
,
0010
0001
0010
0100
,
1000
0100
0001
0010
,
1000
0010
0001
0010
,
0100
0100
1000
0010
,
0100
0001
0100
0010
;

//---------------dance-single - ----------------
#NOTES:
     dance-single:
     :
     Medium:
     4:
     0.244,0.262,0.069,0.219,0.000:
0000
0000
0000
0000
,
0000
0000
0000
0000
,
0000
0000
0000
0000
,
0000
0000
0000
0000
,
0000
0000
0000
0000
,
1000
0100
0001
0000
,
0100
0000
0001
0000
,
0100
0010
0100
0000
,
0001
0001
0100
0000
,
0001
0100
1000
0000
,
0100
0000
1000
0000
,
0100
0010
0100
0000
,
1000
1000
0100
0000
,
1000
0010
0001
0000
,
0010
0000
0001
0000
,
0010
0100
0010
0000
,
0001
0001
0010
0000
,
1000
0001
0100
0100
,
0020
0000
0130
0000
,
0002
0000
1003
1100
,
0001
0001
0100
0100
,
0001
1000
0100
0100
,
0020
0000
0130
0000
,
2000
0000
3001
0101
,
1000
0001
1000
0001
,
0000
1100
0000
0011
,
0200
0000
0300
0000
,
0002
0000
0200
0303
,
2000
3000
0200
0300
,
0001
0001
0000
1000
,
0100
0010
0000
1001
,
2000
0000
0200
3300
,
0002
0003
0200
0300
,
1000
1000
0000
0001
,
0100
0010
0000
1001
,
0002
0000
0020
0033
,
2000
3000
0020
0030
,
0001
0001
0000
1000
,
0010
0100
0010
0100
,
0001
0000
0000
0100
0000
0000
0020
0000
,
0000
0000
0030
0000
,
1000
0000
0000
0100
0000
0000
0020
0000
,
0000
0000
0030
0000
,
0100
0000
0001
0100
,
0001
0100
0010
0000
,
1000
0100
1000
0000
,
0010
0001
0010
0000
,
0010
0000
1000
0010
,
1000
0010
0100
0000
,
0001
0010
0001
0000
,
0100
1000
0100
0000
;

//---------------dance-single - ----------------
#NOTES:
     dance-single:
     :
     Easy:
     2:
     0.175,0.204,0.035,0.196,0.000: // measure 1
0000
0000
0000
0000
,  // measure 2
0000
0000
0000
0000
,  // measure 3
0000
0000
0000
0000
,  // measure 4
0000
0000
0000
0000
,  // measure 5
0000
0000
0000
0000
,  // measure 6
1000
0000
0100
0000
,  // measure 7
0100
0000
0001
0000
,  // measure 8
0100
0100
0100
0000
,  // measure 9
0010
0000
0100
0000
,  // measure 10
0001
0000
0100
0000
,  // measure 11
0100
0000
1000
0000
,  // measure 12
0100
0100
0100
0000
,  // measure 13
0010
0000
0100
0000
,  // measure 14
1000
0000
0010
0000
,  // measure 15
0010
0000
0001
0000
,  // measure 16
0010
0010
0010
0000
,  // measure 17
0100
0000
0010
0000
,  // measure 18
0001
0000
1000
0000
,  // measure 19
0200
0000
0300
0000
,  // measure 20
0002
0000
0003
0000
,  // measure 21
0010
0000
0100
0000
,  // measure 22
1000
0000
0001
0000
,  // measure 23
0200
0000
0300
0000
,  // measure 24
2000
0000
3000
0000
,  // measure 25
0001
0000
1000
0000
,  // measure 26
0000
0110
0000
0000
,  // measure 27
2002
0000
3003
0000
,  // measure 28
0020
0000
0000
0030
,  // measure 29
0002
0003
2000
3000
,  // measure 30
0010
0000
0000
0100
,  // measure 31
0001
0000
0100
0000
,  // measure 32
0020
0000
0000
0030
,  // measure 33
2000
3000
0002
0003
,  // measure 34
0010
0000
0000
0100
,  // measure 35
1000
0000
0100
0000
,  // measure 36
0200
0000
0000
0300
,  // measure 37
0002
0003
2000
3000
,  // measure 38
0100
0000
0000
0010
,  // measure 39
0001
0000
0001
0000
,  // measure 40
1000
0000
0000
1200
,  // measure 41
0000
0000
0300
0000
,  // measure 42
0001
0000
0000
0020
,  // measure 43
0000
0000
0030
0000
,  // measure 44
1000
0000
0100
0000
,  // measure 45
0001
0010
0010
0000
,  // measure 46
0001
0000
0001
0000
,  // measure 47
1000
0001
1000
0000
,  // measure 48
0001
0000
0100
0000
,  // measure 49
1000
0010
0010
0000
,  // measure 50
1000
0000
1000
0000
,  // measure 51
0001
1000
0001
0000
;

//---------------dance-single - ----------------
#NOTES:
     dance-single:
     :
     Beginner:
     1:
     0.110,0.175,0.046,0.000,0.000:
0000
0000
0000
0000
,
0000
0000
0000
0000
,
0000
0000
0000
0000
,
0000
0000
0000
0000
,
0000
0000
0000
0000
,
1000
0000
0100
0000
,
0100
0000
0000
0000
,
0001
0000
0000
0000
,
0010
0000
0000
0000
,
0001
0000
0100
0000
,
0100
0000
0000
0000
,
1000
0000
0000
0000
,
0010
0000
0000
0000
,
1000
0000
0010
0000
,
0010
0000
0000
0000
,
0001
0000
0000
0000
,
0100
0000
0000
0000
,
0010
0000
0100
0000
,
1000
0000
0000
0000
,
0001
0000
0000
0000
,
0100
0000
0100
0000
,
0100
0000
0010
0000
,
0001
0000
0000
0000
,
1000
0000
0000
0000
,
0010
0000
0010
0000
,
0000
1001
0000
0000
,
1001
0000
0000
0000
,
0100
0000
0000
0000
,
0001
0000
0100
0000
,
0001
0000
0000
0000
,
0100
0000
0100
0000
,
0010
0000
0000
0000
,
1000
0000
0010
0000
,
1000
0000
0000
0000
,
0010
0000
0010
0000
,
0100
0000
0000
0000
,
1000
0000
0100
0000
,
1000
0000
0000
0000
,
0100
0000
0100
0000
,
0000
0000
0000
1001
,
0000
0000
0000
0000
,
0000
0000
0000
1001
,
0000
0000
0000
0000
,
0100
0000
1000
0000
,
0010
0000
0001
0000
,
0010
0000
0000
0000
,
1000
0000
1000
0000
,
0010
0000
0001
0000
,
0100
0000
1000
0000
,
0100
0000
0000
0000
,
0001
0000
0001
0000
;
