
//----- song ID: trtr -----//
#TITLE:tricky trick;
#ARTIST:kamome sano;
#BANNER:tricky trick.png;
#BACKGROUND:tricky trick-bg.png;
#CDTITLE:./CDTitles/SDVX III GRAVITY WARS.png;
#MUSIC:tricky trick.ogg;
#SAMPLESTART:72.728;
#SAMPLELENGTH:15;
#BPMS:0=165;
#NOTES:
     dance-single:
     :
     Beginner:
     3:
     :
0000
0000
0000
0000
,
0000
0000
0000
0000
,
0000
0000
0000
0000
,
0000
0000
0000
0000
,
0000
0000
0000
0000
,
0000
0000
0000
0000
,
0020
0000
0000
0000
,
0000
0000
0000
0000
0000
0000
0000
0030
,
0000
0000
0000
0000
,
1001
0000
0000
0000
,
0001
0000
0001
0000
,
0001
0000
0000
0000
,
1000
0000
1000
0000
,
1000
0000
0000
0000
,
0010
0000
0010
0000
,
0010
0000
0000
0000
,
0200
0000
0000
0300
,
0000
0000
0000
0000
,
0001
0000
0001
0000
,
0001
0000
0000
0000
,
0010
0000
0010
0000
,
0010
0000
0000
0000
,
0100
0000
0100
0000
,
0100
0000
0000
0000
,
2000
0000
0000
3000
,
0000
0000
0000
0000
,
0001
0000
0100
0000
,
0001
0000
0000
0000
,
1000
0000
0010
0000
,
1000
0000
0000
0000
,
0001
0000
0100
0000
,
0001
0000
0000
0000
,
0020
0000
0000
0030
,
0000
0000
0000
0000
,
0001
0000
1000
0000
,
0001
0000
0000
0000
,
0100
0000
0010
0000
,
0100
0000
0000
0000
,
0001
0000
1000
0000
,
0001
0000
0000
0000
,
0200
0000
0000
0300
,
0000
0000
0000
0000
,
0002
0000
0000
0000
0000
0000
0000
0003
,
0000
0000
0000
0000
,
2000
0000
0000
0000
0000
0000
0000
3000
,
0000
0000
0000
0000
,
0001
0000
0000
0000
,
1000
0000
0000
0000
,
0020
0000
0000
0000
,
0030
0000
0000
0000
,
1001
0000
1000
0000
,
0001
0000
0000
0000
,
0100
0000
0001
0000
,
1000
0000
0000
0000
,
0010
0000
1000
0000
,
0001
0000
0000
0000
,
0100
0000
0001
0000
,
1000
0000
0000
0000
,
0001
0000
1000
0000
,
0100
0000
0000
0000
,
1000
0000
0001
0000
,
0010
0000
0000
0000
,
0001
0000
1000
0000
,
0100
0000
0000
0000
,
1000
0000
0001
0000
,
0010
0000
0000
0000
,
0001
0000
0001
0000
,
1000
0000
1000
0000
,
0010
0000
0010
0000
,
0100
0000
0000
0000
,
0001
0000
0001
0000
,
0100
0000
0100
0000
,
0001
0000
0001
0000
,
0010
0000
0000
0000
,
0001
0000
0001
0000
,
0001
0000
0000
0000
,
1000
0000
1000
0000
,
1000
0000
0000
0000
,
0010
0000
0000
0000
,
0010
0000
0000
0000
,
0010
0000
0000
0000
,
0220
0000
0000
0330
,
0000
0000
0000
0000
;
#NOTES:
     dance-single:
     :
     Easy:
     8:
     :
0000
0000
0000
0000
,
0000
0000
0000
0000
,
0000
0000
0000
0000
,
0000
0000
0000
0000
,
0000
0000
0000
0000
,
0000
0000
0000
0000
,
1001
0000
0000
0000
0000
0000
0000
0001
,
0000
0000
0000
1000
0000
0000
0000
0220
,
0000
0000
0000
0000
,
0330
0000
0000
0000
,
2000
0000
3001
0100
,
0001
0010
0100
1000
,
0002
0000
0103
0010
,
2000
3200
0320
0032
,
1003
0000
0001
0100
,
0001
0001
1000
1000
,
0020
0000
0000
0200
,
0030
0000
0000
0002
0000
0000
0303
0000
,
2001
0000
3010
0100
,
0001
1000
0100
1000
,
0010
0010
0200
0300
,
0200
0300
0001
1000
,
0000
1001
0001
0100
,
0020
0030
0020
0030
,
2000
0000
0000
3000
0000
0000
0002
0000
,
0000
0003
0000
0000
0110
0000
0010
0000
,
1002
0000
0013
0100
,
1000
0010
0100
0001
,
2000
0000
3010
0010
,
0100
0100
0002
2003
,
3010
0000
0010
0100
,
0001
1000
0100
0010
,
0002
0000
0000
0200
,
0003
0000
0000
0020
0000
0000
0330
0000
,
2001
0000
3100
0100
,
0010
0001
0101
1000
,
1100
0100
0020
0030
,
0020
0030
0001
0100
,
2000
0000
3000
0000
,
0100
0100
0010
0010
,
1010
0000
0000
1001
0000
0000
0101
0000
,
0100
0100
0001
0010
,
0200
0000
0000
0000
0000
0300
0000
2000
,
0000
3000
0000
0020
0000
0000
0030
0000
,
0200
0000
0000
0000
0000
0300
0000
0002
,
0000
0003
0000
0020
0000
0000
0030
0000
,
0001
0001
1000
1000
,
0010
0010
0100
0110
,
2002
0000
0000
0000
,
3003
0000
0000
0020
0000
0000
0030
0000
,
1001
0001
0010
0100
,
1000
1010
0001
0101
,
0100
0010
1000
0001
,
1000
1100
0001
0101
,
0100
0010
1000
0001
,
0010
0011
1000
1100
,
0100
0010
0001
1000
,
0010
0000
0100
0010
0000
0000
0000
0000
,
1000
0001
0100
0001
,
0010
0110
1000
1001
,
0001
0100
0010
0100
,
0001
0011
1000
1010
,
0010
0100
0001
1000
,
0100
0110
0001
1001
,
1000
0000
1000
0000
0010
0000
0100
0010
,
0000
1000
0100
0020
,
0031
0001
1000
1000
,
1100
0101
0001
0010
,
0100
1000
0010
0100
,
0101
1100
1000
0010
,
1000
1000
0001
0001
,
0011
1010
1000
0100
,
0010
0001
1000
0010
,
1010
0011
1001
0000
,
0001
0001
0001
0001
,
1000
1000
1000
1000
,
0010
0010
0010
0010
,
0100
0100
0100
0100
,
0001
0001
0010
0010
,
0100
0100
1000
1000
,
2002
0000
0000
0000
,
3003
0000
0000
0110
,
0000
0000
0000
0000
;
#NOTES:
     dance-single:
     :
     Medium:
     12:
     :
0000
0000
0000
0000
,
0000
0000
0000
0000
,
0000
0000
0000
0000
,
0000
0000
0000
0000
,
0000
0000
0000
0000
,
0000
0000
0000
0000
,
0110
0000
0000
0000
0000
0000
0000
0101
,
0000
0000
0000
1010
0000
0000
0000
2002
,
0000
0000
0000
0000
,
3003
0000
0001
1000
,
1020
0000
0000
0000
0000
0000
0000
0000
0130
0000
0000
0001
0000
0000
0010
0000
,
0001
0000
0100
0010
0100
0000
0001
0000
,
1000
0000
0100
1000
0000
0100
1000
0000
0010
0000
0000
0100
0000
0000
0001
0000
,
2000
3200
0302
0203
,
0310
0000
0000
0000
0000
0000
0000
0000
0001
0000
0000
0100
0000
0000
0001
0000
,
0010
0000
0000
0001
0000
0000
1000
0000
0200
0000
0000
0000
0310
0000
0000
0000
,
0022
0000
0030
2000
,
0000
0003
0000
3001
0010
0100
1000
0000
,
1020
0000
0000
0000
0000
0000
0000
0000
0130
0000
0000
0001
0000
0000
0010
0000
,
0001
0000
0100
0010
0100
0000
0001
0000
,
0010
0000
0001
0010
0000
0001
0010
0000
0100
0000
0000
1000
0000
0000
0010
0000
,
1000
0000
0000
0000
0000
0000
0000
0000
0000
0001
0000
0000
0000
0000
0000
0000
0000
0000
0020
0000
0000
0000
0000
0000
0000
0000
0000
0000
0000
0000
0000
0000
0000
0000
0000
0000
0000
0000
0000
0000
0000
0000
0000
0000
0030
0000
0000
0000
,
0000
0000
0000
0000
0001
0000
0010
0000
0100
0000
0000
1000
0000
0000
0010
0000
,
0100
0000
0000
0010
0000
0000
1000
0000
0001
0000
0000
0000
0100
0000
0000
0000
,
0202
0000
0000
0303
0000
0000
2002
0000
,
0000
3003
0000
0000
2100
0000
3010
0000
,
0201
0000
0000
0000
0000
0000
0000
0000
0310
0000
0000
0100
0000
0000
0001
0000
,
1000
0000
0001
0100
0010
0000
1000
0000
,
0001
0000
0010
0001
0000
0010
0001
0000
1000
0000
0000
0010
0000
0000
1000
0000
,
0001
0000
0000
0010
0000
0000
0001
0000
0200
0000
0000
0000
0320
0000
0000
0000
,
1030
0000
0000
0000
1001
0000
0000
0000
0001
0000
0000
0010
0000
0000
0001
0000
,
1000
0000
0010
0100
0001
0000
0100
0000
,
0220
0000
0300
2000
,
0000
0030
0000
3001
0010
0100
1000
0000
,
1020
0000
0000
0000
0000
0000
0000
0000
0130
0000
0000
0010
0000
0000
1000
0000
,
0001
0000
0100
0000
1000
0100
0010
0000
,
1000
0000
0100
0000
0010
0000
0000
0000
0001
0000
0000
0100
0000
0000
0001
0000
,
0010
0000
0000
0001
0000
0000
0100
0000
0001
0000
0010
0000
1000
0000
0010
0000
,
0002
0000
0000
0000
0003
0000
0000
0000
0100
0000
0000
0100
0000
0000
0100
0000
,
0001
0000
1000
0100
0000
1000
0100
0000
1000
0000
0010
0000
0100
0000
0000
0000
,
2002
0000
0000
3003
0000
0000
0102
0000
,
0100
0000
0000
0000
0103
0000
0000
0000
0001
0010
0000
0001
0010
0000
0100
0000
,
2000
0000
0000
0000
0000
0000
0000
3020
,
0000
0000
0000
0230
0000
0000
0000
0000
,
0302
0000
0000
0000
0000
0000
0000
0023
,
0000
0000
0000
0230
0000
0000
0000
0000
,
1300
1000
0001
0001
,
0100
0100
0010
0110
,
1000
0001
1000
0001
0100
0010
0100
0010
,
1000
0000
0000
2002
0000
0000
3003
0000
,
0001
0010
0100
0000
1000
0001
0100
0000
,
0001
0010
0001
0010
0100
1000
0001
0000
,
1000
0010
1000
0000
0001
0100
0001
0000
,
1000
0100
1000
0100
0010
0001
1000
0000
,
0001
0100
0010
0000
1000
0001
0100
0000
,
0001
1000
0001
1000
0100
0010
0001
0000
,
1000
0010
0100
0000
0001
1000
0100
0000
,
1000
0000
0001
0000
0100
0000
0000
0100
0000
0000
0001
0000
1000
0000
0000
0000
,
0100
1000
0010
0000
1000
0100
0010
0000
,
0001
0100
0010
0100
0010
1000
0001
0000
,
1000
0001
0100
0000
0001
0100
1000
0000
,
0100
0010
0100
0010
1000
0001
0010
0000
,
0100
1000
0010
0000
1000
0010
0001
0000
,
0010
0100
0010
0100
0001
1000
0100
0000
,
0010
0000
0001
0000
1000
0000
0000
0000
0001
0000
0100
0000
0010
0000
0000
1000
,
0000
0000
0000
1000
0000
0000
0100
0000
0000
0010
0000
0000
0001
0000
0000
0000
,
1000
0000
0000
0010
0000
0000
0200
0000
0000
0000
0000
0000
0000
0000
0000
0000
,
1300
0100
0001
0000
1000
0100
0010
0000
,
0100
0000
0000
1000
0000
0000
0020
0000
0000
0000
0000
0000
0031
0000
0010
0000
,
1000
0000
0000
0001
0000
0000
0010
0000
0000
0000
0010
0000
0001
0000
1000
0000
,
0001
0000
0000
0100
0000
0000
0020
0000
0000
0000
0000
0000
0000
0000
0000
0000
,
0031
0010
1000
0000
0001
0010
0100
0000
,
0010
0000
0000
0001
0000
0000
0200
0000
0000
0000
0000
0000
1300
0000
0100
0000
,
0001
0000
0000
1000
0000
0000
0200
0000
0000
0000
0000
0000
0300
0000
0000
0000
,
0110
1100
1010
0010
,
0100
0001
1000
0001
1000
0100
0010
0000
,
0110
0011
0101
0100
,
0010
1000
0001
1000
0001
0010
0100
0000
,
1000
0100
0001
0100
1000
0100
0010
0000
,
0001
0010
1000
0010
0001
0010
0100
0000
,
1000
0100
1000
0010
0100
0001
0010
0200
,
0000
0000
0300
0110
,
0000
0000
0000
0000
;
#NOTES:
     dance-single:
     :
     Hard:
     15:
     :
0000
0000
0000
0000
,
0000
0000
0000
0000
,
0000
0000
0000
0000
,
0000
0000
0000
0000
,
0000
0000
0000
0000
,
0000
0000
0000
0000
,
0012
0003
0000
0000
0000
0000
0000
2100
,
3000
0000
0000
0120
0030
0000
0000
2002
,
0000
0000
0000
0000
,
3003
0000
0000
0000
,
2020
0000
0000
0000
0000
0000
3030
0000
1000
0000
0000
0100
0000
0000
0010
0000
,
0200
0000
0000
0000
1300
0001
1000
0001
0100
0000
0010
0100
0010
0100
0010
0000
,
1000
0000
0100
1000
0000
0100
1000
0000
0002
0000
0000
0103
0000
0010
1000
0000
,
0002
0023
0230
0302
0203
2300
3020
0130
,
0001
0000
1000
0000
0001
0010
0001
0000
1000
0000
0010
0100
0000
0010
0100
0000
,
0002
0000
0000
0023
0000
0000
0031
0100
0020
0000
0000
0030
0100
0000
0001
0000
,
0002
2000
0000
0000
0000
3003
2200
0000
,
0000
0000
0000
0000
3300
0000
1000
0100
1000
0001
0000
0100
0000
0001
0000
0000
,
0022
0000
0000
0000
0000
0000
0033
0000
0001
0000
0000
0100
0000
0000
0010
0000
,
0200
0000
0000
0000
0301
1000
0001
1000
0100
0000
0010
0100
0010
0100
0010
0000
,
0001
0000
0100
0001
0000
0100
0001
0000
2000
0000
0000
3100
0000
0010
0001
0000
,
0200
0000
0000
0000
0000
0000
0000
0000
0000
0310
0000
0000
0000
0000
0000
1000
0000
0000
0000
0000
0001
0000
0000
0000
1000
0000
0000
0000
0100
0000
0000
0000
0010
0000
0000
0000
0001
0000
0000
0000
1000
0000
0000
0000
0010
0000
0000
0000
,
0000
0000
0000
0000
1000
0010
1000
0000
0001
0000
0010
0100
0000
0010
0100
0000
,
2000
0000
0000
3020
0000
0000
1030
0100
0020
0000
0000
0030
0100
0000
1000
0000
,
2002
0000
0000
3003
0000
0000
0202
0000
,
0000
0000
0303
0000
0000
0000
0001
0100
0001
1000
0000
0100
0000
1000
0000
0000
,
2020
0000
0000
0000
0000
0000
3030
0000
2000
0000
0000
0001
0000
0000
3020
0000
,
0100
0000
0000
0000
1030
0001
1000
0001
0100
0000
0010
0100
0010
0100
0010
0000
,
1000
0000
0100
1000
0000
0100
1000
0000
0002
0000
0000
0103
0000
0010
1000
0000
,
0002
0000
0000
0013
0000
0100
1000
0000
0020
0000
0000
0000
0230
0000
0000
0000
,
0301
0000
1000
0000
0001
0010
0001
0000
1000
0000
0010
0100
0000
0010
0100
0000
,
0002
0000
0000
0023
0000
0000
0031
0200
0010
0000
0000
0000
0301
0000
1000
0000
,
2020
0000
0000
0000
0000
0000
0000
0000
0000
0000
3030
0000
2002
0000
0000
3003
,
0000
1000
0100
0010
0001
1000
0100
1000
0001
0010
0001
1000
0010
0000
0100
0000
,
0202
0000
0000
0000
0000
0000
0303
0000
0002
0000
0000
1000
0000
0000
0203
0000
,
0010
0000
0000
0000
0301
1000
0001
1000
0010
0000
0100
0001
1000
0100
1000
0000
,
0001
0000
2000
0100
0000
3002
0010
0000
2003
0000
0000
3010
0000
0100
0010
0000
,
2000
0000
0000
3100
0000
0010
0100
0000
2000
0000
3020
0000
0032
0000
0023
0000
,
0230
0000
0000
0000
0300
0000
0000
0000
0001
0000
0100
0010
0000
0100
0010
0000
,
2000
0000
0000
0000
0000
0000
0000
0000
0000
3200
0000
0000
0000
0000
0000
0000
0000
0000
1300
0000
0000
0010
0000
0000
0100
0000
0000
0000
0001
0000
0000
0000
0010
0000
0000
0000
0100
0000
0000
0000
1000
0000
0000
0000
0000
0000
0000
0000
,
2002
0000
3003
1010
,
0010
0000
0000
0000
0010
0100
0010
1000
0001
0100
0000
0010
1000
0001
0010
0100
,
2000
0000
0000
0000
0000
0000
0000
3002
,
0000
0000
0000
0203
0000
0000
0000
0000
,
0302
0000
0000
0000
0000
0000
0000
0023
,
0000
0000
0000
0230
0000
0000
0000
0000
,
1300
1000
0001
0001
,
0100
0010
1000
1001
,
0001
0100
0001
1000
0100
1000
0001
0100
0001
0010
0001
1000
0010
0100
0001
0010
,
0100
0000
0000
2000
0000
0000
3001
0000
,
1000
0100
0010
0001
1000
0010
0100
0001
,
0010
0001
1000
0000
0100
1000
0001
0000
0100
0010
1000
0000
0001
0010
0100
0000
,
1000
0010
1000
0100
1000
0001
0100
0010
,
1000
0001
0100
0000
0010
1000
0001
0000
1000
0100
0010
0000
0001
1000
0010
0000
,
0100
0001
1000
0100
1000
0010
0100
0001
,
1000
0100
0010
0000
0001
1000
0010
0000
0100
0001
1000
0000
0001
0010
0100
0000
,
1000
0010
0100
0001
0010
0001
1000
0010
,
0100
0001
1000
0000
0100
1000
0001
0100
0000
0000
0010
0000
1000
0001
1000
0001
,
0100
0001
0010
0100
1000
0001
0100
0010
,
1000
0001
0000
0100
0010
1000
0000
0001
1000
0010
0000
0010
0000
0010
0000
0010
,
0100
0001
1000
0001
0010
0100
1000
0010
,
1000
0001
0000
1000
0100
0010
0000
0001
1000
0010
0000
0010
0000
0010
0000
0010
,
0100
0001
1000
0100
1000
0001
0100
0010
,
1000
0001
0000
0100
0001
0010
0000
0100
1000
0001
0000
0001
0000
0001
0000
0001
,
0100
0000
0010
0000
1000
0000
0001
0000
0010
0000
0100
0000
1000
0000
0010
0100
,
0000
0000
0000
0001
0010
0000
0100
1000
0000
0010
0100
0000
0001
1000
0001
1000
,
0002
0000
0000
0023
0000
0000
0230
0000
0000
0000
0300
0000
1000
0000
0100
0000
,
2000
0100
0000
3100
0020
0100
0000
0130
2000
0100
0000
3100
0020
0100
0000
0130
,
2000
0000
0000
3002
0000
0000
0023
0000
0000
0000
0030
0000
0001
0000
0100
0000
,
0002
0100
0000
0103
0020
0100
0000
0130
0002
0100
0000
0103
0020
0100
0000
0130
,
0002
0000
0000
0023
0000
0000
0230
0000
0000
0000
0300
0000
1000
0000
0010
0000
,
2000
0010
0000
3010
0200
0010
0000
0310
2000
0010
0000
3010
0200
0010
0000
0310
,
2000
0000
0000
3002
0000
0000
0023
0000
0000
0000
0030
0000
0001
0000
0100
0000
,
0002
0010
0000
0013
0200
0010
0000
0310
0000
0000
0001
0010
0001
1000
0100
1000
,
0001
0100
0010
0100
0001
1000
0100
1000
,
0010
0000
0100
0000
0001
0000
1000
0000
0100
0000
1000
0000
0001
0100
0001
0010
,
0100
1000
0010
1000
0001
0010
0001
1000
,
0010
0000
0100
0000
0001
0000
0010
0000
0100
0000
1000
0000
0100
1000
0010
0100
,
0001
0001
1000
1000
0010
0010
0100
0100
,
0001
0001
1000
1000
0100
0010
0001
0200
,
0000
0301
2000
0001
0000
3001
0020
0001
0000
0031
2000
0001
0000
3001
0200
0001
,
0000
0000
0300
0110
,
0000
0000
0000
0000
;
#NOTES:
     dance-double:
     :
     Easy:
     7:
     :
00000000
00000000
00000000
00000000
,
00000000
00000000
00000000
00000000
,
00000000
00000000
00000000
00000000
,
00000000
00000000
00000000
00000000
,
00000000
00000000
00000000
00000000
,
00000000
00000000
00000000
00000000
,
00011000
00000000
00000000
00000000
00000000
00000000
00000000
00001000
,
00000000
00000000
00000000
01000000
00000000
00000000
00000000
02200000
,
00000000
00000000
00000000
00000000
,
03300000
00000000
00000000
00000000
,
20000000
00000000
31000000
00100000
,
00010000
01000000
00001000
00010000
,
00002000
00000000
00013000
00000010
,
00002000
00003200
00000320
00000032
,
00001003
00000000
00000001
00000100
,
00000001
00000001
00001000
00001000
,
00000020
00000000
00000000
00020000
,
00000030
00000000
00000000
00002000
00000000
00000000
00033000
00000000
,
00012000
00000000
00103000
00010000
,
01000000
00100000
10000000
00010000
,
00100000
00100000
02000000
03000000
,
02000000
03000000
10000000
00010000
,
00000000
00110000
00100000
00001000
,
00020000
00030000
00020000
00030000
,
00000020
00000000
00000000
00000030
00000000
00000000
00002000
00000000
,
00000000
00003000
00000000
00000000
00000110
00000000
00000010
00000000
,
00001002
00000000
00000013
00000100
,
00001000
00000010
00010000
00001000
,
00200000
00000000
00310000
00010000
,
10000000
10000000
02000000
03200000
,
00310000
00000000
00100000
00001000
,
00010000
00001000
00000100
00000010
,
00002000
00000000
00000000
00000002
,
00003000
00000000
00000000
00000020
00000000
00000000
00000033
00000000
,
00002001
00000000
00003010
00000010
,
00010000
00001000
00011000
00001000
,
00011000
00001000
02000000
03000000
,
02000000
03000000
00010000
00100000
,
20000000
00000000
30000000
00000000
,
00100000
00100000
01000000
01000000
,
11000000
00000000
00000000
01100000
00000000
00000000
00110000
00000000
,
00100000
00001000
00010000
00001000
,
00020000
00000000
00000000
00000000
00000000
00030000
00000000
00002000
,
00000000
00003000
00000000
00000200
00000000
00000000
00000300
00000000
,
00000002
00000000
00000000
00000000
00000000
00000003
00000000
00000020
,
00000000
00000030
00000000
00000200
00000000
00000000
00000300
00000000
,
00001000
00001000
00000010
00000010
,
00010000
00010000
00001000
00011000
,
00022000
00000000
00000000
00000000
,
00033000
00000000
00000000
02000000
00000000
00000000
03000000
00000000
,
10010000
10000000
01000000
00100000
,
00010000
01000000
00001000
00010000
,
00001000
00010000
00001000
00000010
,
00000001
00000010
00000100
00001000
,
00000001
00000100
00001000
00010000
,
00001000
00010000
01000000
10000000
,
00100000
01000000
00010000
10000000
,
01000000
00000000
10000000
00100000
00000000
00000000
00000000
00000000
,
10000000
01000000
00010000
00001000
,
01000000
00100000
00010000
00001000
,
00010000
00001000
00000010
00000001
,
00000100
00000010
00001000
00000001
,
00000100
00001000
00010000
00000100
,
00000010
00001000
00010000
00001000
,
00010000
00000000
00100000
00000000
10000000
00000000
01000000
10000000
,
00000000
10000000
01000000
00200000
,
00310000
01000000
00001000
00010000
,
00000010
00001000
00000100
00000001
,
00000100
00001000
00000010
00010000
,
00001000
00100000
00010000
01000000
,
10000000
01000000
00010000
00100000
,
00001000
00010000
00000010
00001000
,
00000100
00000001
00000100
00001000
,
00000010
00000000
00010000
00001000
00000000
00000000
00000000
00000000
,
00001000
00011000
00001000
00011000
,
00001000
00100000
00110000
00100000
,
00001000
00011000
00001000
00011000
,
00001000
01000000
01010000
01000000
,
00010000
00100000
00001000
00010000
,
00000100
00001000
00000010
00001000
,
00002002
00000000
00000000
00000000
,
00003003
00000000
00000000
00000110
,
00000000
00000000
00000000
00000000
;
#NOTES:
     dance-double:
     :
     Medium:
     12:
     :
00000000
00000000
00000000
00000000
,
00000000
00000000
00000000
00000000
,
00000000
00000000
00000000
00000000
,
00000000
00000000
00000000
00000000
,
00000000
00000000
00000000
00000000
,
00000000
00000000
00000000
00000000
,
00011000
00000000
00000000
00000000
00000000
00000000
00000000
00010010
,
00000000
00000000
00000000
00101000
00000000
00000000
00000000
00022000
,
00000000
00000000
00000000
00000000
,
00033000
00000000
00000000
00000000
,
00002000
00000000
00000000
00000000
00000000
00000000
00000000
00000000
01003000
00000000
00000000
00100000
00000000
00000000
10000000
00000000
,
00010000
00000000
00100000
01000000
00100000
00000000
00001000
00000000
,
00010000
00000000
00000000
00010000
00000000
00000000
00010000
00000000
00000010
00000000
00000000
00000100
00000000
00000000
00000001
00000000
,
00000200
00002300
00023000
00230000
,
01300000
00000000
00000000
00000000
00000000
00000000
00000000
00000000
00010000
00000000
00000000
01000000
00000000
00000000
00100000
00000000
,
10000000
00000000
00000000
00010000
00000000
00000000
00100000
00000000
00002000
00000000
00000000
00000000
00013000
00000000
00000000
00000000
,
00022000
00000000
00003000
00000200
,
00000000
00030000
00000000
00000020
00000000
00000000
00000330
00000000
,
00000002
00000000
00000000
00000000
00000000
00000000
00000000
00000000
00001003
00000000
00000000
00000010
00000000
00000000
00000100
00000000
,
00000001
00000000
00001000
00000100
00001000
00000000
00000010
00000000
,
00010000
00000000
00000000
00010000
00000000
00000000
00010000
00000000
00001000
00000000
00000000
00100000
00000000
00000000
00010000
00000000
,
10000000
00000000
00000000
00000000
00000000
00000000
00000000
00000000
00000000
00100000
00000000
00000000
00000000
00000000
00000000
00000000
00000000
00000000
02000000
00000000
00000000
00000000
00000000
00000000
00000000
00000000
00000000
00000000
00000000
00000000
00000000
00000000
00000000
00000000
00000000
00000000
00000000
00000000
00000000
00000000
00000000
00000000
00000000
00000000
03000000
00000000
00000000
00000000
,
00000000
00000000
00000000
00000000
00010000
00000000
00100000
00000000
00001000
00000000
00000000
00010000
00000000
00000000
00000100
00000000
,
00001000
00000000
00000000
00000001
00000000
00000000
00000100
00000000
00000010
00000000
00000000
00000000
00001000
00000000
00000000
00000000
,
00002020
00000000
00000000
00003030
00000000
00000000
00020020
00000000
,
00000000
00030030
00000000
00000000
00022000
00000000
00033000
00000000
,
00201000
00000000
00000000
00000000
00000000
00000000
00000000
00000000
01300000
00000000
00000000
00100000
00000000
00000000
00010000
00000000
,
10000000
00000000
00100000
01000000
00010000
00000000
00100000
00000000
,
00001000
00000000
00000000
00001000
00000000
00000000
00001000
00000000
00010000
00000000
00000000
00001000
00000000
00000000
00000010
00000000
,
00000100
00000000
00000000
00001000
00000000
00000000
00000001
00000000
00000200
00000000
00000000
00000000
00000320
00000000
00000000
00000000
,
00001030
00000000
00000000
00000000
00010010
00000000
00000000
00000000
00010000
00000000
00000000
00001000
00000000
00000000
00100000
00000000
,
00001000
00000000
00010000
00100000
01000000
00000000
00010000
00000000
,
00220000
00000000
00030000
00002000
,
00000000
00300000
00000000
00020000
00000000
00000000
00033000
00000000
,
00010200
00000000
00000000
00000000
00000000
00000000
00000000
00000000
00000310
00000000
00000000
00000100
00000000
00000000
00001000
00000000
,
00000010
00000000
00000100
00000000
00000001
00000100
00000010
00000000
,
00001000
00000000
00000100
00000000
00010000
00000000
00000000
00000000
00001000
00000000
00000000
01000000
00000000
00000000
00010000
00000000
,
00100000
00000000
00000000
00010000
00000000
00000000
01000000
00000000
00001000
00000000
00010000
00000000
00100000
00000000
01000000
00000000
,
00200000
00000000
00000000
00000000
00300000
00000000
00000000
00000000
10000000
00000000
00000000
10000000
00000000
00000000
10000000
00000000
,
01000000
00000000
00000000
00100000
00000000
00000000
00010000
00000000
01000000
00000000
00010000
00000000
01000000
00000000
00000000
00000000
,
02200000
00000000
00000000
03300000
00000000
00000000
00200000
00000000
,
00320000
00032000
00013000
00010100
,
00000120
00000000
00000000
00000000
00000000
00000000
00000000
00002030
,
00000000
00000000
00000000
00023000
00000000
00000000
00000000
00000000
,
00032000
00000000
00000000
00000000
00000000
00000000
00000000
02003000
,
00000000
00000000
00000000
03200000
00000000
00000000
00000000
00000000
,
10300000
10000000
01000000
01000000
,
00100000
00100000
00001000
00011000
,
00010000
00000100
00001000
00000100
00001000
00000001
00000100
00000001
,
00000100
00000000
00000000
00000220
00000000
00000000
00000330
00000000
,
00000010
00001000
00000001
00000000
00000010
00000100
00001000
00000000
,
00000001
00001000
00000010
00001000
00000010
00000000
00010000
00000000
,
00001000
00010000
00100000
00000000
01000000
00010000
10000000
00000000
,
01000000
00100000
00010000
00100000
00010000
00000000
01000000
00000000
,
00001000
00010000
00001000
00000000
00000100
00000010
00001000
00000000
,
00000001
00000010
00000001
00000010
00000100
00000000
00010000
00000000
,
00001000
00010000
00001000
00000000
01000000
00100000
10000000
00000000
,
00010000
00000000
01000000
00000000
00100000
00000000
00000000
00100000
00000000
00000000
10000000
00000000
00010000
00000000
00000000
00000000
,
10000000
01000000
00010000
00000000
00001000
01000000
00010000
00000000
,
00100000
00001000
00010000
00001000
00010000
00000000
00000100
00000000
,
00000010
00000100
00001000
00000000
00000001
00000100
00001000
00000000
,
00010000
00001000
00010000
00001000
00100000
00000000
01000000
00000000
,
10000000
00100000
00010000
00000000
00100000
00010000
00001000
00000000
,
00010000
00000100
00010000
00000100
00000010
00000000
00000001
00000000
,
00000100
00000000
00000010
00000000
00001000
00000000
00000000
00000000
00000100
00000000
00000010
00000000
00000001
00000000
00000000
00000100
,
00000000
00000000
00000000
00001000
00000000
00000000
00010000
00000000
00000000
00100000
00000000
00000000
01000000
00000000
00000000
00000000
,
00010000
00000000
00000000
10000000
00000000
00000000
02000000
00000000
00000000
00000000
00000000
00000000
00000000
00000000
00000000
00000000
,
03100000
00001000
00010000
00000000
00001000
00000100
00000010
00000000
,
00001000
00000000
00000000
00000001
00000000
00000000
00000200
00000000
00000000
00000000
00000000
00000000
00000310
00000000
00010000
00000000
,
00001000
00000000
00000000
00010000
00000000
00000000
00100000
00000000
00000000
00000000
00010000
00000000
00001000
00000000
00100000
00000000
,
01000000
00000000
00000000
10000000
00000000
00000000
00200000
00000000
00000000
00000000
00000000
00000000
00000000
00000000
00000000
00000000
,
10300000
01000000
00010000
00000000
01000000
00010000
00001000
00000000
,
00010000
00000000
00000000
00001000
00000000
00000000
00000200
00000000
00000000
00000000
00000000
00000000
00000301
00000000
00000010
00000000
,
00000100
00000000
00000000
00010000
00000000
00000000
00002000
00000000
00000000
00000000
00000000
00000000
00003000
00000000
00000000
00000000
,
01001000
01100000
01010000
00010000
,
10000000
00100000
00010000
00000000
00001000
00010000
00000100
00000000
,
00001100
00000110
00000011
00001000
,
00000001
00000010
00001000
00000000
00010000
00001000
01000000
00000000
,
00010000
00100000
00010000
00100000
00010000
00100000
00010000
00000000
,
10000000
01000000
10000000
01000000
10000000
01000000
10000000
00000000
,
00100000
01000000
00010000
00100000
00001000
00010000
00000100
00000020
,
00000000
00000000
00000030
00000110
,
00000000
00000000
00000000
00000000
;
#NOTES:
     dance-double:
     :
     Hard:
     15:
     :
00000000
00000000
00000000
00000000
,
00000000
00000000
00000000
00000000
,
00000000
00000000
00000000
00000000
,
00000000
00000000
00000000
00000000
,
00000000
00000000
00000000
00000000
,
00000000
00000000
00000000
00000000
,
00012000
00003000
00000000
00000000
00000000
00000000
00000000
02001000
,
03000000
00000000
00000000
01200000
00300000
00000000
00000000
20020000
,
00000000
00000000
00000000
00000000
,
30030000
00000000
00000000
00000000
,
20200000
00000000
00000000
00000000
00000000
00000000
30300000
00000000
10000000
00000000
00000000
01000000
00000000
00000000
00010000
00000000
,
00002000
00000000
00000000
00000000
00013000
00001000
00010000
00001000
00010000
00000000
00000100
00001000
00000100
00000000
00000010
00000000
,
00000001
00000000
00000100
00000010
00000000
00000100
00000010
00000000
00002000
00000000
00000000
00003010
00000000
00010000
00001000
00000000
,
00020000
02030000
23000000
30200000
00320000
00230000
02300000
03000000
,
00010000
00000000
10000000
00000000
01000000
10000000
01000000
00000000
00100000
00000000
00010000
01000000
00000000
00010000
01000000
00000000
,
00002000
00000000
00000000
00023000
00000000
00000000
00130000
01000000
00020000
00000000
00000000
00000000
01030000
00000000
00001000
00000000
,
00022000
00000000
00000000
00000000
00000000
00033000
00020200
00000000
,
00000000
00000000
00000000
00000000
00030300
00000000
00000100
00001000
00000100
00000010
00000000
00000001
00000000
00000100
00000000
00000000
,
00000220
00000000
00000000
00000000
00000000
00000000
00000330
00000000
00000010
00000000
00000000
00010000
00000000
00000000
00001000
00000000
,
00020000
00000000
00000000
00000000
00031000
00010000
00001000
00010000
00001000
00000000
00100000
00010000
00100000
00000000
01000000
00000000
,
10000000
00000000
00100000
01000000
00000000
00100000
01000000
00000000
00020000
00000000
00000000
00130000
00000000
00001000
00010000
00000000
,
00000020
00000000
00000000
00000000
00000000
00000000
00000000
00000000
00000000
00001030
00000000
00000000
00000000
00000000
00000000
00000001
00000000
00000000
00000000
00000000
00000100
00000000
00000000
00000000
00000010
00000000
00000000
00000000
00001000
00000000
00000000
00000000
00000100
00000000
00000000
00000000
00010000
00000000
00000000
00000000
00001000
00000000
00000000
00000000
00010000
00000000
00000000
00000000
,
00000000
00000000
00000000
00000000
00100000
00000000
01000000
00000000
00010000
00000000
10000000
01000000
00000000
10000000
01000000
00000000
,
00200000
00000000
00000000
00302000
00000000
00000000
00013000
00001000
00020000
00000000
00000000
00000000
00031000
00000000
00000100
00000000
,
00000220
00000000
00000000
00000330
00000000
00000000
00002002
00000000
,
00000000
00000000
00003003
00000000
00000000
00000000
00000001
00000010
00000001
00000010
00000000
00000100
00000000
00010000
00000000
00000000
,
00022000
00000000
00000000
00000000
00000000
00000000
00033000
00000000
00002000
00000000
00000000
00010000
00000000
00000000
00203000
00000000
,
01000000
00000000
00000000
00000000
00310000
10000000
00010000
10000000
00010000
00000000
01000000
00100000
01000000
00000000
00100000
00000000
,
00010000
00000000
00001000
00010000
00000000
00001000
00010000
00000000
00000200
00000000
00000000
00000310
00000000
00001000
00000010
00000000
,
00000002
00000000
00000000
00000103
00000000
00001000
00000100
00000000
00000020
00000000
00000000
00000000
00020030
00000000
00000000
00000000
,
00031000
00000000
00000000
00000000
00001000
00010000
00001000
00000000
01000000
00000000
00010000
00100000
00000000
00010000
00100000
00000000
,
02000000
00000000
00000000
23000000
00000000
00000000
30010000
02000000
00100000
00000000
00000000
00000000
03010000
00000000
10000000
00000000
,
20200000
00000000
00000000
00000000
00000000
00000000
00000000
00000000
00000000
00000000
30300000
00000000
20020000
00000000
00000000
30030000
,
00000000
10000000
01000000
00100000
00010000
00000000
00100000
00001000
00010000
00000100
00000000
00001000
00000100
00000010
00000001
00000000
,
00002002
00000000
00000000
00000000
00000000
00000000
00003003
00000000
00002000
00000000
00000000
00000010
00000000
00000000
00023000
00000000
,
01000000
00000000
00000000
00000000
10030000
01000000
10000000
01000000
00100000
00000000
00010000
00100000
00001000
00000000
00010000
00000000
,
00000100
00000000
00002000
00000010
00000000
00003002
00000100
00000000
00002003
00000000
00000000
00003010
00000000
00010000
00001000
00000000
,
00200000
00000000
00000000
00310000
00000000
01000000
00100000
00000000
00020000
00000000
00032000
00000000
00003200
00000000
00000302
00000000
,
00000023
00000000
00000000
00000000
00000030
00000000
00000000
00000000
00000100
00000000
00001000
00000010
00000000
00001000
00000010
00000000
,
00020000
00000000
00000000
00000000
00000000
00000000
00000000
00000000
00000000
00032000
00000000
00000000
00000000
00000000
00000000
00000000
00000000
00000000
00013000
00000000
00000000
00001000
00000000
00000000
00100000
00000000
00000000
00000000
00010000
00000000
00000000
00000000
01000000
00000000
00000000
00000000
00100000
00000000
00000000
00000000
00010000
00000000
00000000
00000000
00001000
00000000
00000000
00000000
,
00202000
00000000
00000000
00303000
00000000
00000000
00110000
00000000
,
00010000
00000000
00000000
00000000
00010000
00000000
00000000
00000000
00100000
00010000
00000000
10000000
01000000
00100000
00010000
10000000
,
00200000
00000000
00000000
00000000
00000000
00000000
00000000
00320000
,
00000000
00000000
00000000
00032000
00000000
00000000
00000000
00000000
,
00023000
00000000
00000000
00000000
00000000
00000000
00000000
00030200
,
00000000
00000000
00000000
00000320
00000000
00000000
00000000
00000000
,
00000031
00000001
00000100
00000100
,
00001000
00001000
00010000
00011000
,
00001000
00010000
00001000
00100000
00010000
01000000
00100000
00000000
10000000
00010000
10000000
01000000
10000000
00010000
01000000
00100000
,
10000000
00000000
00000000
20020000
00000000
00000000
30030000
00000000
,
10000000
01000000
00010000
10000000
00100000
00010000
01000000
00001000
,
00010000
00000100
00001000
00000000
00000001
00000100
00000010
00000000
00001000
00000001
00000100
00000000
00000001
00000010
00000100
00000000
,
00010000
00001000
00000100
00000010
00001000
00000100
00000001
00001000
,
00000010
00000100
00001000
00000000
00000001
00000010
00000100
00000000
00001000
00000010
00010000
00000000
00001000
00100000
00010000
00000000
,
01000000
00100000
00010000
10000000
01000000
00010000
00100000
00001000
,
00010000
00001000
01000000
00000000
00010000
10000000
00100000
00000000
01000000
00010000
10000000
00000000
01000000
00100000
00010000
00000000
,
01000000
00001000
00010000
00000010
00000100
00001000
00000001
00000010
,
00000100
00000000
00001000
00000000
00010000
00000000
01000000
00100000
00000000
00000000
00001000
00000000
00010000
00001000
00010000
00001000
,
00010000
00001000
00000100
00000010
00010000
00001000
00010000
01000000
,
00100000
00010000
00000000
10000000
00100000
01000000
00000000
00010000
00100000
00001000
00000000
00001000
00000000
00001000
00000000
00001000
,
00010000
00001000
00000010
00000100
00010000
00001000
00010000
00100000
,
01000000
00010000
00000000
00100000
00001000
00010000
00000000
00000100
00001000
00000010
00000000
00000010
00000000
00000010
00000000
00000010
,
00000100
00000001
00000010
00000100
00000001
00001000
00000010
00000100
,
00010000
00001000
00000000
00010000
00000100
00001000
00000000
00000010
00010000
00001000
00000000
00001000
00000000
00001000
00000000
00001000
,
01000000
00000000
00010000
00000000
10000000
00000000
01000000
00000000
00100000
00000000
00010000
10000000
00000000
01000000
00100000
00000000
,
00001000
00010000
00000000
00000100
00000010
00000000
00000001
00001000
00000000
00000010
00000100
00000000
00000001
00001000
00000001
00001000
,
00000002
00000000
00000000
00000023
00000000
00000000
00000230
00000000
00000000
00000000
00000300
00000000
00001000
00000000
00000100
00000000
,
00020000
00000100
00000000
00030100
00002000
00000100
00000000
00003100
00000020
00000100
00000000
00000130
00002000
00000100
00000000
00003100
,
00000020
00000000
00000000
00002030
00000000
00000000
00023000
00000000
00000000
00000000
00030000
00000000
00001000
00000000
00100000
00000000
,
00002000
00100000
00000000
00103000
00020000
00100000
00000000
00130000
02000000
00100000
00000000
03100000
00020000
00100000
00000000
00130000
,
02000000
00000000
00000000
03020000
00000000
00000000
00032000
00000000
00000000
00000000
00003000
00000000
00010000
00000000
00000010
00000000
,
00002000
00000010
00000000
00003010
00000200
00000010
00000000
00000310
00002000
00000010
00000000
00003010
00020000
00000010
00000000
00030010
,
00000200
00000000
00000000
00002300
00000000
00000000
00023000
00000000
00000000
00000000
00030000
00000000
00001000
00000000
01000000
00000000
,
00002000
01000000
00000000
01003000
00020000
01000000
00000000
01030000
00000000
00000000
00100000
01000000
00010000
10000000
00010000
00100000
,
01000000
10000000
00010000
01000000
00001000
00010000
00000010
00000100
,
00001000
00000000
00000001
00000000
00000010
00000000
00000100
00000000
00000001
00000000
00001000
00000000
00000010
00000100
00000001
00001000
,
00000010
00000100
00001000
00010000
00100000
01000000
00010000
00100000
,
01000000
00000000
00010000
00000000
10000000
00000000
00100000
00000000
01000000
00000000
10000000
00000000
00010000
00100000
00010000
10000000
,
00100000
00100000
01000000
01000000
00010000
00010000
00100000
00100000
,
00001000
00001000
00010000
00010000
00001000
00001000
00100000
00200000
,
00000000
00301000
00020000
00001000
00000000
00031000
00200000
00001000
00000000
00301000
00020000
00001000
00000000
00031000
02000000
00001000
,
00000000
00000000
03000000
01100000
,
00000000
00000000
00000000
00000000
;
