
//----- song ID: quav -----//
#TITLE:quaver♪;
#ARTIST:Risk Junk;
#BANNER:quaver.png;
#BACKGROUND:quaver-bg.png;
#CDTITLE:./CDTitles/RB limelight.png;
#MUSIC:quaver.ogg;
#SAMPLESTART:35.595;
#SAMPLELENGTH:15;
#BPMS:0=182,4=182,176=184,252=186;
#BGSTAGE:16;
#NOTES:
     dance-single:
     :
     Beginner:
     2:
     :
0000
0000
0000
0000
,
0000
0000
0000
0000
,
0000
0000
0000
0000
,
0000
0000
0000
0000
,
0000
0000
0000
0000
,
0001
0000
0000
0000
,
0000
0000
0000
0000
,
1000
0000
0000
0000
,
0000
0000
0000
0000
,
0000
0000
0000
0000
,
1000
0000
0000
0000
,
0010
0000
0000
0000
,
1000
0000
0000
0000
,
0000
0000
0000
0000
,
0010
0000
0000
0000
,
0010
0000
0000
0000
,
0001
0000
0000
0000
,
0000
0000
0000
0000
,
0001
0000
0000
0000
,
0010
0000
0000
0000
,
0001
0000
0000
0000
,
0000
0000
0000
0000
,
0010
0000
0000
0000
,
0010
0000
0000
0000
,
1000
0000
0000
0000
,
0000
0000
0000
0000
,
1001
0000
0000
0000
,
0000
0000
0000
0000
,
1000
0000
0000
0000
,
1000
0000
0000
0000
,
0000
0000
0000
0000
,
1000
0000
0000
0000
,
0100
0000
0000
0000
,
1000
0000
0000
0000
,
0000
0000
0000
0000
,
0010
0000
0000
0000
,
0010
0000
0000
0000
,
0100
0000
0000
0000
,
0000
0000
0000
0000
,
0010
0000
0000
0000
,
0010
0000
0000
0000
,
0001
0000
0000
0000
,
0001
0000
0000
0000
,
0000
0000
0000
0000
,
0001
0000
0000
0000
,
0010
0000
0000
0000
,
0001
0000
0000
0000
,
0000
0000
0000
0000
,
0010
0000
0000
0000
,
0010
0000
0000
0000
,
1000
0000
0000
0000
,
0000
0000
0000
0000
,
1000
0000
0000
0000
,
0010
0000
0000
0000
,
1000
0000
0000
0000
,
0000
0000
0000
0000
,
0010
0000
0000
0000
,
0010
0000
0000
0000
,
0001
0000
0000
0000
,
0000
0000
0000
0000
,
1001
0000
0000
0000
,
0000
0000
0000
0000
,
0001
0000
0000
0000
,
0001
0000
0000
0000
,
0010
0000
0000
0000
,
1000
0000
0000
0000
,
0000
0000
0000
0000
,
1000
0000
0000
0000
,
0000
0000
0000
0000
,
0100
0000
0000
0000
,
0000
0000
0000
0000
,
1000
0000
0000
0000
,
0010
0000
0000
0000
,
0001
0000
0000
0000
,
0000
0000
0000
0000
,
0001
0000
0000
0000
,
0001
0000
0000
0000
,
0010
0000
0000
0000
,
0100
0000
0000
0000
,
1001
0000
0000
0000
,
0000
0000
0000
0000
;
#NOTES:
     dance-single:
     :
     Easy:
     7:
     :
0000
0000
0000
0000
,
0000
0000
0000
0000
,
0000
0000
0000
0000
,
0000
0000
0000
0000
,
0000
0000
0000
0000
,
0001
0001
0010
0000
,
0100
0100
1000
0000
,
1000
0010
1000
0010
,
0100
0001
0100
0000
,
1001
0000
0000
0000
,
0001
0100
0001
0010
,
0001
0100
0001
0000
,
1000
0100
1000
0010
,
1000
0100
1000
0000
,
0001
0100
0010
0000
,
1000
0100
0010
0000
,
1001
0000
0110
0000
,
1000
0001
1001
0000
,
1000
0100
1000
0010
,
1000
0100
1000
0000
,
0001
0100
0001
0010
,
0001
0100
0001
0000
,
1000
0100
0010
0000
,
0001
0100
0010
0000
,
1001
0000
0110
0000
,
0001
1000
0001
1000
,
1001
0000
0000
0000
,
1000
0001
0100
0010
,
1000
0001
0100
0000
,
0001
1000
0100
0010
,
0001
1000
0100
0000
,
1000
1000
1000
0000
,
0001
0001
0001
0000
,
1001
0000
0110
0000
,
0001
1000
1001
0000
,
0001
0010
0001
0010
,
1000
0010
0001
0000
,
1000
0010
1000
0010
,
0001
0010
1000
0000
,
0001
0100
0001
0100
,
1000
0100
0001
0000
,
1000
0100
0010
0001
,
1000
0000
0110
0000
,
0001
1000
1001
0000
,
1000
0010
1000
0100
,
1000
0010
1000
0000
,
0001
0010
0001
0100
,
0001
0010
0001
0000
,
1000
0010
0100
0000
,
0001
0010
0100
0000
,
1001
0000
0110
0000
,
0001
1000
1001
0000
,
0001
0010
0001
0100
,
0001
0010
0001
0000
,
1000
0010
1000
0100
,
1000
0010
1000
0000
,
0001
0010
0100
0000
,
1000
0010
0100
0000
,
1001
0000
0110
0000
,
1000
0001
0100
0010
,
0110
0000
1001
0000
,
1000
0010
0100
0001
,
2000
0000
0000
3000
,
0001
0100
0010
0100
,
0001
0010
0100
0000
,
1000
0010
1000
0100
,
0010
0010
0010
0000
,
0001
0001
1000
1000
,
0010
0100
0110
0000
,
1000
1000
0001
0001
,
0010
0100
0110
0000
,
1000
0010
0100
0010
,
1000
0100
0010
0000
,
0001
0100
0001
0010
,
0100
0100
0100
0000
,
1000
1000
0001
0001
,
0100
0010
0110
0000
,
0001
0001
1000
1000
,
0100
0010
0010
0001
,
1000
1000
0001
1001
,
0000
0000
0000
0000
;
#NOTES:
     dance-single:
     :
     Medium:
     12:
     :
0000
0000
0000
0000
,
0000
0000
0000
0000
,
0000
0000
0000
0000
,
0000
0000
0000
0000
,
0000
0000
0000
0000
,
1000
0100
0010
0010
,
0001
0100
0010
0010
,
1000
0100
1000
0000
0001
0100
0001
0000
,
0010
0100
0010
0100
0010
0000
0110
0000
,
0000
0000
0000
0000
,
1000
0100
1000
0100
0010
0001
0010
0000
,
0001
0100
0001
0100
0010
1000
0010
0000
,
1000
0010
0100
0000
0001
0010
0100
0000
,
0010
0001
0100
0000
0010
1000
0100
0000
,
1000
0100
0010
0001
1000
0000
1001
0000
,
0001
0100
0010
1000
0001
0000
1001
0000
,
1000
0100
0001
0000
0001
0100
1000
0000
,
0001
0100
1000
0100
0001
0000
1001
0000
,
0001
0100
0001
0100
0010
1000
0010
0000
,
1000
0100
1000
0100
0010
0001
0010
0000
,
0001
0010
0100
0000
1000
0010
0100
0000
,
0010
1000
0100
0000
0010
0001
0100
0000
,
0001
0100
0010
1000
0001
0000
1001
0000
,
1000
0100
0010
0001
1000
0000
1001
0000
,
0001
0100
1000
0000
1000
0100
0001
0000
,
1000
0100
0001
0100
1000
0000
0001
0000
,
2002
0000
0000
3003
,
1000
0010
1000
0010
1000
0010
1000
0100
,
0000
0010
0001
0010
0001
0010
0001
0100
,
0000
0010
0100
0001
1000
0010
0100
0001
,
1000
0000
1000
0001
0000
1001
0000
0000
,
0001
0000
0010
0000
1000
0010
0000
0001
,
1000
0000
0010
0000
0001
0010
0000
1000
,
0001
0000
0100
0000
1000
0100
0000
0001
,
1000
0100
0001
0000
0100
0000
1000
0000
,
0002
0013
0020
0130
,
1000
0010
1000
0100
0000
0010
0001
0000
,
2000
3010
0020
0130
,
0001
0010
0001
0100
0000
0010
1000
0000
,
0002
0103
0200
1300
,
1000
0100
1000
0100
0001
0100
0001
0000
,
1000
1010
0010
0110
,
0001
0010
0000
0001
0010
0000
0001
0100
,
0000
0001
0100
0000
0001
0000
1001
0000
,
0001
0010
0001
0010
0100
1000
0100
0000
,
1000
0010
1000
0010
0100
0001
0100
0000
,
0001
0100
0010
0000
1000
0100
0010
0000
,
0100
1000
0010
0000
0100
0001
0010
0000
,
0001
0010
0100
1000
0001
0000
1001
0000
,
1000
0010
0100
0001
1000
0000
1001
0000
,
0001
0010
1000
0000
1000
0010
0001
0000
,
1000
0010
0001
0010
1000
0000
1001
0000
,
1000
0010
1000
0010
0100
0001
0100
0000
,
0001
0010
0001
0010
0100
1000
0100
0000
,
1000
0100
0010
0000
0001
0100
0010
0000
,
0100
0001
0010
0000
0100
1000
0010
0000
,
1000
0010
0100
0001
1000
0000
1001
0000
,
0001
0010
0100
1000
0001
0000
1001
0000
,
1000
0010
0001
0000
0001
0010
1000
0000
,
0001
0010
1000
0010
0001
0000
1000
0000
,
0001
0100
1000
0100
0001
0000
1000
0001
,
1000
0100
0001
0100
1000
0000
0010
0100
,
0020
0000
0000
0030
,
1000
0000
1010
0000
0010
1000
0100
0000
,
0010
0000
0011
0000
0010
0001
0100
0000
,
0010
1000
0010
0000
1000
0100
0010
0000
,
0001
0010
0001
0000
0100
0010
1000
0000
,
0001
0001
0100
0000
1010
0000
1100
0000
,
1000
1000
0100
0000
0011
0000
0101
0000
,
0001
0100
0010
1000
0100
0010
0001
0000
,
1000
0100
0010
0001
0100
0010
1000
0000
,
0001
0000
0101
0000
0100
0001
0010
0000
,
0100
0000
1100
0000
0100
1000
0010
0000
,
0100
0001
0100
0000
0001
0010
0100
0000
,
1000
0100
1000
0000
0010
0100
0001
0000
,
1000
1000
0010
0000
0101
0000
0011
0000
,
0001
0001
0010
0000
1100
0000
1010
0000
,
1000
0010
0100
0001
0010
0100
1000
0000
,
0001
0010
0100
1000
0010
0100
0001
0000
,
1000
0100
1000
0100
0010
0001
0010
0001
,
0000
0000
0000
0000
;
#NOTES:
     dance-single:
     :
     Hard:
     17:
     :
0000
0000
0000
0000
,
0000
0000
0000
0000
,
0000
0000
0000
0000
,
0000
0000
0000
0000
,
0000
0000
0000
0000
,
0010
0100
1010
1100
,
0010
0100
0011
0101
,
1000
0100
0010
0000
0001
0100
0010
0000
,
1000
0000
0001
0000
1000
0000
0001
0000
1000
0001
0000
0001
1000
0000
0001
0000
,
0000
0000
0000
0000
,
1000
1000
0100
0100
0010
0010
0011
0011
,
0001
0001
0100
0100
0010
0010
1010
1010
,
1000
0010
0100
0001
1000
0010
0100
0001
,
1000
0100
0010
0001
1000
1000
0001
0001
,
0010
0100
0010
0000
0001
0000
1000
0000
0010
0100
0010
0000
1000
0000
0001
0000
,
0010
0001
0010
0000
0001
0100
0001
0000
1000
0010
1000
0000
0100
0000
1000
0000
,
0100
0010
0100
0000
1000
0000
0001
0000
0100
0010
0100
0000
0001
0000
1000
0000
,
0100
1000
0100
0000
1000
0010
1000
0000
0001
0100
0001
0000
0010
0000
0001
0000
,
1000
1000
0001
0001
0010
0010
0110
0110
,
0001
0001
1000
1000
0010
0010
0110
0110
,
0001
0010
0100
1000
0001
0010
0100
1000
,
0001
0100
0010
1000
0010
0010
0100
0100
,
0001
1000
0001
0000
0010
0000
0100
0000
1000
0001
1000
0000
0010
0000
0100
0000
,
0001
0010
0100
0000
0010
0100
1000
0000
0100
1000
0001
0000
0100
0000
0010
0000
,
1000
0001
1000
0000
0100
0000
0010
0000
0001
1000
0001
0000
0100
0000
0010
0000
,
1000
0100
0010
0000
0100
0010
0001
0000
0010
0001
1000
0000
0010
0000
0100
0000
,
0020
0000
0000
0030
,
0000
0000
1000
0000
0001
0010
0001
0000
0010
0001
0010
0001
0010
0000
0011
0000
,
0000
0000
0001
0000
1000
0010
1000
0000
0010
1000
0010
1000
0010
0000
1010
0000
,
0000
0000
0001
0000
0100
0001
0100
0000
0001
0010
0001
0000
0100
0000
0010
0000
,
1000
0000
1000
0001
0000
2002
0000
0000
,
3003
0000
1000
0000
0100
0000
0001
0000
0100
1000
0100
0000
0000
0000
1001
0000
,
0000
0000
0001
0100
0001
0100
1000
0100
1000
0000
0100
0000
0000
0000
0110
0000
,
0000
0000
0001
0000
1000
0010
0001
0000
0010
0000
1000
0000
0000
0000
1001
0000
,
0001
0010
0100
1000
0001
0010
0100
0000
1000
0010
0000
0010
1000
0000
0001
0000
,
1000
0000
1010
0010
0110
0100
0101
0001
,
1000
0001
1000
0001
1000
0001
0010
0000
0000
0000
0010
0000
0100
0000
1000
0000
,
0001
0000
0011
0010
0110
0100
1100
1000
,
0001
1000
0001
1000
0001
1000
0010
0000
0000
0000
0010
0000
0100
0000
0001
0000
,
0010
0000
0110
0100
1100
1000
1001
0001
,
0100
0010
0100
0010
0100
0010
1000
0010
1000
0010
1000
0010
1000
0000
0000
0000
,
0001
0010
0100
1000
0001
0010
0100
1000
,
0001
0011
0000
1000
1010
0000
0001
0101
,
0000
1000
1100
0000
1001
0100
1001
0000
,
0001
0001
0010
0010
0100
0100
1100
1100
,
1000
1000
0010
0010
0100
0100
0101
0101
,
0001
0100
0010
1000
0001
0100
0010
1000
,
0001
0010
0100
1000
0001
0001
1000
1000
,
0100
0010
0100
0000
1000
0000
0001
0000
0100
0010
0100
0000
0001
0000
1000
0000
,
0100
1000
0100
0000
1000
0010
1000
0000
0001
0100
0001
0000
0010
0000
0001
0000
,
0010
0100
0010
0000
0001
0000
1000
0000
0010
0100
0010
0000
1000
0000
0001
0000
,
0010
0001
0010
0000
0001
0100
0001
0000
1000
0010
1000
0000
0100
0000
1000
0000
,
0001
0001
1000
1000
0100
0100
0110
0110
,
1000
1000
0001
0001
0100
0100
0110
0110
,
1000
0100
0010
0001
1000
0100
0010
0001
,
1000
0010
0100
0001
0100
0100
0010
0010
,
1000
0001
1000
0000
0100
0000
0010
0000
0001
1000
0001
0000
0100
0000
0010
0000
,
1000
0100
0010
0000
0100
0010
0001
0000
0010
0001
1000
0000
0010
0000
0100
0000
,
0001
1000
0001
0000
0010
0000
0100
0000
1000
0001
1000
0000
0010
0000
0100
0000
,
0001
0010
0100
0000
0010
0100
1000
0000
0100
1000
0001
0000
0100
0000
0010
0000
,
1000
0100
0010
0000
0100
0010
0001
0000
1000
0010
0100
0000
0010
0100
0001
0000
,
1000
0100
1000
0100
0010
0001
0010
0000
0001
0100
0001
0100
0010
1000
0010
0000
,
2000
3020
0230
0302
2003
3200
0302
0203
,
1300
1000
0010
0010
0110
0110
0101
0101
,
0001
0001
0010
0010
0110
0110
1100
1100
,
1000
0001
0100
0000
0010
0000
0100
0000
0001
1000
0100
0000
0010
0000
0100
0000
,
1000
0001
0010
0000
0100
1000
0001
0000
1000
0010
0100
0010
1000
0000
0001
0000
,
1000
0100
0110
0110
0001
1000
1001
1001
,
0001
0010
0100
0000
0010
0100
1000
0000
0010
0000
0010
0000
0100
0000
0100
0000
,
0001
0100
0110
0110
1000
0001
1001
1001
,
1000
0100
0010
0000
0100
0010
0001
0000
1000
0001
0000
0001
1000
0000
0001
1000
,
0001
0001
0100
0100
0110
0110
1010
1010
,
1000
1000
0100
0100
0110
0110
0011
0011
,
0001
1000
0010
0000
0100
0000
0010
0000
1000
0001
0010
0000
0100
0000
0010
0000
,
0001
1000
0100
0000
0010
0001
1000
0000
0001
0100
0010
0100
0001
0000
1000
0000
,
0001
0010
0110
0110
1000
0001
1001
1001
,
1000
0100
0010
0000
0100
0010
0001
0000
0100
0000
0100
0000
0010
0000
0010
0000
,
1000
0010
0110
0110
0001
1000
1001
1001
,
0001
0010
0100
0000
0010
0100
1000
0000
0001
1000
0000
1000
0001
0000
1000
0000
,
0010
0010
0010
0010
0010
0110
0110
1001
,
0000
0000
0000
0000
;
#NOTES:
     dance-double:
     :
     Easy:
     7:
     :
00000000
00000000
00000000
00000000
,
00000000
00000000
00000000
00000000
,
00000000
00000000
00000000
00000000
,
00000000
00000000
00000000
00000000
,
00000000
00000000
00000000
00000000
,
10000000
01000000
10000000
00000000
,
00010000
00100000
00010000
00000000
,
00100000
00001000
00010000
00000100
,
00001000
00000010
00000100
00000000
,
00000110
00000000
00000000
00000000
,
00000001
00000100
00000001
00000100
,
00000010
00001000
00000100
00001000
,
00000010
00000010
00010000
00000000
,
00001000
00001000
00010000
00000000
,
00001000
01000000
00010000
01000000
,
00100000
01000000
00010000
00000000
,
00100000
00100000
10010000
00000000
,
01000000
01000000
10010000
00000000
,
10000000
01000000
10000000
01000000
,
00100000
00010000
01000000
00010000
,
00100000
00100000
00001000
00000000
,
00010000
00010000
00001000
00000000
,
00010000
00000100
00001000
00000100
,
00000010
00000100
00001000
00000000
,
00000010
00000010
00001001
00000000
,
00000100
00000100
00001001
00000000
,
00001001
00000000
00000000
00000000
,
00000001
00000100
00000010
00001000
,
00000001
00000100
00000010
00001000
,
00000001
00000100
00001000
00010000
,
00001000
00000000
00011000
00000000
,
00010000
00010000
00010000
00000000
,
00001000
00001000
00001000
00000000
,
00011000
00010000
00011000
00000000
,
00011000
00001000
00011000
00000000
,
00010000
00001000
01000000
00010000
,
00100000
00010000
01000000
00000000
,
00010000
10000000
01000000
10000000
,
00100000
00100000
00100000
00000000
,
10000000
00010000
01000000
00010000
,
00100000
00001000
00010000
00000000
,
00001000
00010000
00001000
00010000
,
00000100
00000000
00000110
00000000
,
00000001
00001000
00001001
00000000
,
00000001
00000010
00000001
00000010
,
00000100
00001000
00000010
00001000
,
00000100
00000100
00010000
00000000
,
00001000
00001000
00010000
00000000
,
00001000
00100000
00010000
00100000
,
01000000
00100000
00010000
00000000
,
01000000
01000000
10010000
00000000
,
00100000
00100000
10010000
00000000
,
10000000
00100000
10000000
00100000
,
01000000
00010000
00100000
00010000
,
01000000
01000000
00001000
00000000
,
00010000
00010000
00001000
00000000
,
00010000
00000010
00001000
00000010
,
00000100
00000010
00001000
00000000
,
00000100
00000100
00001001
00000000
,
00000010
00000010
00001001
00000000
,
00000001
00000100
00000010
00000100
,
00001000
00010000
00001000
00000000
,
00022000
00000000
00000000
00033000
,
00001000
00010000
00001000
00010000
,
00100000
10000000
00100000
00000000
,
10000000
00010000
00100000
01000000
,
10000000
01000000
00100000
00000000
,
00001000
00001000
00010000
00010000
,
00000100
00001000
00000010
00000100
,
00001000
00010000
00100000
01000000
,
00100000
00010000
00011000
00000000
,
00010000
00001000
00010000
00001000
,
00000010
00000001
00000010
00000000
,
00000001
00001000
00000010
00000100
,
00000001
00000100
00000010
00000000
,
00010000
00010000
00001000
00001000
,
01000000
00010000
00100000
01000000
,
00010000
00001000
00000010
00000100
,
00000010
00001000
00011000
00000000
,
00001000
00010000
01000000
01100000
,
00000000
00000000
00000000
00000000
;
#NOTES:
     dance-double:
     :
     Medium:
     12:
     :
00000000
00000000
00000000
00000000
,
00000000
00000000
00000000
00000000
,
00000000
00000000
00000000
00000000
,
00000000
00000000
00000000
00000000
,
00000000
00000000
00000000
00000000
,
10000000
01000000
00100000
00010000
,
00001000
00000100
00000010
00000001
,
00000001
00000100
00000010
00001000
,
00010000
01000000
00100000
10000000
,
00000000
00000000
00000000
00000000
,
10000000
01000000
00100000
00010000
10000000
01000000
00100000
00000000
,
00001000
00010000
00001000
00010000
00000100
00001000
00000100
00000000
,
00000010
00000001
00000100
00000000
00000010
00001000
00000100
00000000
,
00000010
00000001
00000100
00001000
00010000
00001000
00010000
00000000
,
00001000
00010000
00100000
00000000
01000000
00000000
01100000
00000000
,
01000000
00100000
00010000
00000000
00001000
00010000
00001000
00000000
,
00010000
00001000
00000010
00000000
00000100
00000000
00000110
00000000
,
00000100
00000010
00000001
00000100
00000010
00000000
00001001
00000000
,
00000001
00000100
00000010
00001000
00000001
00000100
00000010
00000000
,
00010000
00001000
00010000
00001000
01000000
00010000
01000000
00000000
,
00100000
10000000
01000000
00000000
00100000
00010000
01000000
00000000
,
00100000
10000000
01000000
00010000
00001000
00010000
00001000
00000000
,
00010000
00001000
00000010
00000000
00000100
00000000
00000110
00000000
,
00000100
00000010
00001000
00000000
00010000
00001000
00010000
00000000
,
00001000
00010000
00100000
00000000
01000000
00000000
01100000
00000000
,
01000000
00100000
10000000
01000000
00100000
00010000
10000000
00000000
,
20020000
00000000
00000000
30030000
,
00010000
00100000
00010000
00100000
10000000
00100000
10000000
00100000
,
00000000
00100000
00001000
00100000
00001000
00010000
00001000
00010000
,
00000000
00001000
00010000
00001000
00010000
00000010
00001000
00000010
,
00000100
00000000
00000001
00001000
00000000
00001001
00000000
00000000
,
00000001
00000010
00000100
00000000
00001000
00000100
00000000
00000100
,
00010000
00001000
00010000
00000000
00001000
01000000
00000000
01000000
,
00010000
00100000
00010000
00000000
10000000
01000000
00100000
00000000
,
00010000
00100000
10000000
00000000
00100000
00000000
00010000
00000000
,
20000000
32000000
03020000
00032000
,
00003010
00000001
00000010
00000001
00000000
00000001
00000100
00000000
,
00000002
00000203
00002300
00023000
,
00130000
10000000
00100000
10000000
00000000
10000000
01000000
00000000
,
20000000
32000000
03020000
00032000
,
00003010
00000001
00000100
00000001
00000010
00000001
00000100
00000000
,
00000001
00000000
00000010
00000000
00001000
00010000
00001000
00000000
,
00100000
00010000
00000000
00100000
00010000
00000000
01000000
00100000
,
00000000
01000000
00100000
00000000
10000000
00000000
10010000
00000000
,
10000000
00100000
01000000
00010000
10000000
00100000
01000000
00000000
,
00001000
00010000
00001000
00010000
00000010
00001000
00000010
00000000
,
00000100
00000001
00000010
00000000
00000100
00001000
00000010
00000000
,
00000100
00000001
00000010
00001000
00010000
00001000
00010000
00000000
,
00001000
00010000
01000000
00000000
00100000
00000000
01100000
00000000
,
00100000
01000000
00010000
00000000
00001000
00010000
00001000
00000000
,
00010000
00001000
00000100
00000000
00000010
00000000
00000110
00000000
,
00000010
00000100
00000001
00000010
00000100
00000000
00001001
00000000
,
00000001
00000010
00000100
00001000
00000001
00000010
00000100
00000000
,
00010000
00001000
00010000
00001000
00100000
00010000
00100000
00000000
,
01000000
10000000
00100000
00000000
01000000
00010000
00100000
00000000
,
01000000
10000000
00100000
00010000
00001000
00010000
00001000
00000000
,
00010000
00001000
00000100
00000000
00000010
00000000
00000110
00000000
,
00000010
00000100
00001000
00000000
00010000
00001000
00010000
00000000
,
00001000
00010000
01000000
00000000
00100000
00000000
01100000
00000000
,
00100000
01000000
10000000
00100000
01000000
00010000
10000000
00000000
,
10000000
01000000
00010000
00000000
00010000
00001000
00000010
00000000
,
00000001
00000100
00001000
00000000
00001000
00010000
00100000
00000000
,
20000000
00000000
00000000
30000000
,
10000000
11000000
01000000
01100000
,
00100000
00000000
00110000
00000000
00010000
00100000
00001000
00000000
,
00010000
00000010
00010000
00000010
00001000
00000010
00001000
00000000
,
00000001
00000100
00001000
00000000
00001000
00000100
00000001
00000000
,
00000010
00000000
00001000
00000000
00010000
00001000
00010000
00000000
,
01000000
10000000
00100000
00000000
01000000
00010000
00100000
00000000
,
01000000
00000000
00010000
00000000
00001000
00010000
00001000
00000000
,
00010000
00001000
00000010
00000001
00002000
00000000
00003000
00000000
,
00000001
00000101
00000100
00000110
,
00000010
00000000
00001010
00000000
00001000
00000010
00010000
00000000
,
00001000
00100000
00001000
00100000
00010000
00100000
00010000
00000000
,
10000000
01000000
00010000
00000000
00010000
01000000
10000000
00000000
,
00100000
00000000
00010000
00000000
00001000
00010000
00001000
00000000
,
00000100
00000001
00000010
00000000
00000100
00001000
00000010
00000000
,
00000100
00000000
00001000
00000000
00010000
00001000
00010000
00000000
,
00001000
00010000
00100000
10000000
01000000
00100000
00010000
00000000
,
10000000
00000000
01000000
00010000
00001000
00000000
00001000
00010000
,
00000000
00000000
00000000
00000000
;
#NOTES:
     dance-double:
     :
     Hard:
     17:
     :
00000000
00000000
00000000
00000000
,
00000000
00000000
00000000
00000000
,
00000000
00000000
00000000
00000000
,
00000000
00000000
00000000
00000000
,
00000000
00000000
00000000
00000000
,
10000000
01000000
00100000
00000000
00010000
01000000
00100000
00000000
,
10000000
00100000
00010000
00000000
00001000
00010000
00001000
00000000
,
00010000
00001000
00000010
00000000
00000001
00000100
00000010
00000000
,
00001000
00000000
00000100
00000000
00000010
00000000
00000001
00000000
00001000
00000001
00000000
00000001
00001000
00000000
00000001
00000000
,
00000000
00000000
00000000
00000000
,
00000001
00000001
00000100
00000100
00000010
00010000
00001000
00010000
,
00100000
00100000
10000000
10000000
01000000
00100000
01000000
00010000
,
00001000
00100000
00010000
01000000
00001000
00100000
00010000
01000000
,
00100000
00010000
00001000
01000000
00100000
00010000
00001000
01000000
,
00100000
00000000
10000000
00000000
01000000
00000000
00100000
00000000
00010000
01000000
00010000
00000000
00100000
00001000
00100000
00000000
,
00001000
00000000
00010000
00000000
00000100
00000000
00001000
00000000
00000010
00000100
00000010
00000000
00001000
00000001
00001000
00000000
,
00000001
00000000
00000010
00000000
00000100
00000000
00001000
00000000
00000100
00010000
00000100
00000000
00010000
00001000
00010000
00000000
,
00001000
00000000
01000000
00000000
00010000
00000000
00100000
00000000
01000000
10000000
00000000
10000000
01000000
00000000
00000000
00000000
,
10000000
10000000
01000000
01000000
00100000
00001000
00010000
00001000
,
00000010
00000010
00000001
00000001
00000100
00000010
00000100
00001000
,
00010000
00000010
00001000
00000100
00010000
00000010
00001000
00000100
,
00000010
00001000
00010000
00000100
00000010
00001000
00010000
00000100
,
00000010
00000000
00000001
00000000
00000100
00000000
00000010
00000000
00001000
00000100
00001000
00000000
00000010
00010000
00000010
00000000
,
00010000
00000000
00001000
00000000
01000000
00000000
00010000
00000000
00100000
01000000
00100000
00000000
00010000
10000000
00010000
00000000
,
10000000
00000000
00100000
00000000
01000000
00000000
00010000
00000000
01000000
00001000
01000000
00000000
00001000
00010000
00001000
00000000
,
00010000
00000000
00000100
00000000
00001000
00000000
00000010
00000000
00000100
00000001
00000000
00000001
00000100
00000000
00000010
00000000
,
00002000
00000000
00000000
00003000
,
00000000
00000000
00001000
00000000
00000001
00000010
00000001
00000000
00000010
00000100
00000010
00000100
00000010
00000000
00000100
00000000
,
00000000
00000000
00001000
00000000
00000010
00010000
00000010
00000000
00010000
00001000
00010000
00001000
00010000
00000000
00001000
00000000
,
00000000
00000000
00001000
00000000
01000000
00010000
01000000
00000000
00010000
00100000
00010000
00000000
01000000
00000000
00100000
00000000
,
10000000
00000000
10000000
00010000
00000000
20020000
00000000
00000000
,
30030000
00000000
10000000
00000000
01000000
00000000
00010000
00000000
00001000
00010000
00001000
00000000
00000000
00000000
00011000
00000000
,
00000000
00000000
00010000
00001000
00010000
00000000
00000100
00001000
00000100
00000000
00000010
00000000
00000000
00000000
00000110
00000000
,
00000000
00000000
00000011
00000000
00000001
00001000
00000010
00000000
00000100
00000000
00001000
00000000
00000000
00000000
00001000
00000000
,
00010000
00100000
00010000
00100000
01000000
00000000
10000000
00000000
01000000
00010000
00000000
00010000
10000000
00000000
01000000
00000000
,
10000000
00000000
10010000
00010000
00110000
00100000
00101000
00001000
,
00010000
00001000
00010000
00001000
00010000
00001000
00010000
00000000
00000000
00000000
00010000
00000000
00001000
00000000
00000100
00000000
,
00000001
00000000
00000011
00000010
00000110
00000100
00010100
00010000
,
00001000
00100000
00001000
00100000
00001000
00000000
00010000
00000000
00000000
00000000
00010000
00000000
00100000
00000000
00100000
00000000
,
10000000
00000000
10010000
00010000
01010000
01000000
01001000
00001000
,
00010000
00001000
00010000
00001000
00010000
00000100
00001000
00000100
00001000
00000100
00001000
00000100
00001000
00000000
00000000
00000000
,
00000001
00000100
00000010
00001000
00010000
01000000
00100000
10000000
,
01000000
01100000
00000000
00001000
00011000
00000000
00000100
00000110
,
00000000
00000001
00000010
00001000
00000010
00000001
00001001
00000000
,
00000001
00000001
00000010
00000010
00000100
00010000
00001000
00010000
,
01000000
01000000
10000000
10000000
00100000
01000000
00100000
00010000
,
00001000
01000000
00010000
00100000
00001000
01000000
00010000
00100000
,
01000000
00010000
00001000
00100000
01000000
00010000
00001000
00100000
,
01000000
00000000
10000000
00000000
00100000
00000000
01000000
00000000
00010000
00100000
00010000
00000000
01000000
00001000
01000000
00000000
,
00001000
00000000
00010000
00000000
00000010
00000000
00001000
00000000
00000100
00000010
00000100
00000000
00001000
00000001
00001000
00000000
,
00000001
00000000
00000100
00000000
00000010
00000000
00001000
00000000
00000010
00010000
00000010
00000000
00010000
00001000
00010000
00000000
,
00001000
00000000
00100000
00000000
00010000
00000000
01000000
00000000
00100000
10000000
00000000
10000000
00100000
00000000
00000000
00000000
,
10000000
10000000
00100000
00100000
01000000
00001000
00010000
00001000
,
00000100
00000100
00000001
00000001
00000010
00000100
00000010
00001000
,
00010000
00000100
00001000
00000010
00010000
00000100
00001000
00000010
,
00000100
00001000
00010000
00000010
00000100
00001000
00010000
00000010
,
00000100
00000000
00000001
00000000
00000010
00000000
00000100
00000000
00001000
00000010
00001000
00000000
00000100
00010000
00000100
00000000
,
00010000
00000000
00001000
00000000
00100000
00000000
00010000
00000000
01000000
00100000
01000000
00000000
00010000
10000000
00010000
00000000
,
10000000
00000000
01000000
00000000
00100000
00000000
00010000
00000000
00100000
00001000
00100000
00000000
00001000
00010000
00001000
00000000
,
00010000
00000000
00000010
00000000
00001000
00000000
00000100
00000000
00000010
00000001
00000000
00000001
00000010
00000000
00000100
00000000
,
00001000
00000010
00000100
00000000
00001000
00010000
00001000
00000000
00100000
00001000
00010000
00000000
01000000
00100000
00010000
00000000
,
10000000
01000000
10000000
01000000
00100000
00010000
00100000
00000000
00010000
01000000
00010000
01000000
00001000
00010000
00001000
00000000
,
00020000
00230000
02300000
03020000
00230000
02300000
03020000
00032000
,
00003010
00000010
00000011
00000011
00000001
00001000
00001100
00000100
,
00010000
00010000
00011000
00011000
00001000
01000000
01010000
00010000
,
00100000
00010000
10000000
00000000
00100000
00000000
01000000
00000000
00100000
10000000
00010000
00000000
00100000
00000000
01000000
00000000
,
00010000
00001000
00010000
00000000
00000100
00001000
00000100
00000000
00001000
00000010
00001000
00000010
00000100
00000000
00001000
00000000
,
00000100
00000001
00000011
00000011
00001000
00000010
00000110
00000110
,
00001000
00000010
00001000
00000000
00000010
00010000
00000010
00000000
00010000
00001000
00010000
00000000
00001000
01000000
00001000
00000000
,
01000000
00010000
00110000
00110000
10000000
01000000
01100000
01100000
,
00100000
00010000
10000000
00000000
00100000
01000000
00010000
00000000
00100000
01000000
00000000
01000000
10000000
00000000
00010000
10000000
,
00100000
00100000
10100000
10100000
10000000
00010000
01010000
01000000
,
00001000
00001000
00011000
00011000
00010000
00000100
00001100
00001000
,
00000010
00001000
00000001
00000000
00000010
00000000
00000100
00000000
00000010
00000001
00001000
00000000
00000010
00000000
00000100
00000000
,
00001000
00010000
00001000
00000000
01000000
00010000
01000000
00000000
00010000
00100000
00010000
00100000
01000000
00000000
00010000
00000000
,
01000000
10000000
10100000
10100000
00010000
00100000
01100000
01100000
,
00010000
00100000
00010000
00000000
00100000
00001000
00100000
00000000
00001000
00010000
00001000
00000000
00010000
00000100
00010000
00000000
,
00000100
00001000
00001010
00001010
00000001
00000100
00000110
00000110
,
00000010
00001000
00000001
00000000
00000010
00000100
00001000
00000000
00000010
00000100
00000000
00000100
00000001
00000000
00001000
00000000
,
00000001
00000100
00001000
00010000
00100000
01100000
01100000
10010000
,
00000000
00000000
00000000
00000000
;
