
//----- song ID: murm2 -----//
#TITLE:murmur twins (guitar pop ver.);
#ARTIST:covered by 音乃瀬奏(ReGLOSS);
#ARTISTTRANSLIT:covered by Otonose Kanade(ReGLOSS);
#BANNER:murmur twins (guitar pop ver.).png;
#BACKGROUND:murmur twins (guitar pop ver.)-bg.png;
#CDTITLE:./CDTitles/DDR WORLD.png;
#MUSIC:murmur twins (guitar pop ver.).ogg;
#SAMPLESTART:76.752;
#SAMPLELENGTH:15;
#BPMS:0=174;
#BGSTAGE:16;
#NOTES:
     dance-single:
     :
     Beginner:
     3:
     :
0000
0000
0000
0000
,
0000
0000
0000
0000
,
0000
0000
0000
0000
,
0000
0000
0000
0000
,
0000
0000
0000
0000
,
1000
0000
0000
0000
,
0001
0000
0000
0000
,
1000
0000
0000
0000
,
0001
0000
0000
0000
,
0100
0000
0000
0000
,
0010
0000
0000
0000
,
0100
0000
0000
0000
,
0010
0000
0000
0000
,
1000
0000
0010
0000
,
1000
0000
0000
0000
,
0010
0000
0100
0000
,
0010
0000
0000
0000
,
0100
0000
0001
0000
,
0100
0000
0000
0000
,
0001
0000
1000
0000
,
0001
0000
0000
0000
,
0010
0000
0010
0000
,
0100
0000
0100
0000
,
1000
0000
0001
0000
,
1000
0000
0000
0000
,
0001
0000
0001
0000
,
0100
0000
0100
0000
,
0010
0000
1000
0000
,
0001
0000
0000
0000
,
1000
0000
0100
0000
,
1000
0000
0100
0000
,
0010
0000
0000
0000
,
0001
0000
0000
0000
,
0100
0000
0010
0000
,
0100
0000
0010
0000
,
1000
0000
0000
0000
,
0001
0000
0000
0000
,
1000
0000
0010
0000
,
1000
0000
0010
0000
,
0100
0000
0000
0000
,
0001
0000
0000
0000
,
1000
0000
0100
0000
,
1000
0000
0001
0000
,
0010
0000
0000
0000
,
0100
0000
0000
0000
,
1000
0000
0000
0000
,
0001
0000
0000
0000
,
1000
0000
0000
0000
,
0010
0000
0000
0000
,
0100
0000
0010
0000
,
1000
0000
0001
0000
,
1001
0000
0000
0000
,
0000
0000
0000
0000
,
1001
0000
0000
0000
,
0000
0000
0000
0000
,
2002
0000
3003
0000
,
0001
0000
0100
0000
,
0001
0000
0000
0000
,
0100
0000
0010
0000
,
0100
0000
0000
0000
,
0010
0000
1000
0000
,
0010
0000
0000
0000
,
1000
0000
0001
0000
,
0100
0000
0000
0000
,
0010
0000
1000
0000
,
0010
0000
0000
0000
,
1000
0000
0001
0000
,
1000
0000
0000
0000
,
0001
0000
0100
0000
,
0001
0000
0000
0000
,
0100
0000
0010
0000
,
1000
0000
0000
0000
,
0001
0000
0010
0000
,
0001
0000
0010
0000
,
0100
0000
1000
0000
,
0100
0000
0000
0000
,
1000
0000
0001
0000
,
1000
0000
0001
0000
,
0100
0000
0010
0000
,
1000
0000
0001
0000
,
0000
0000
0000
0000
;
#NOTES:
     dance-single:
     :
     Easy:
     7:
     :
0000
0000
0000
0000
,
0000
0000
0000
0000
,
0000
0000
0000
0000
,
0000
0000
0000
0000
,
0000
0000
0000
0000
,
1001
0000
0001
0100
,
0001
0000
1000
0100
,
1000
0000
0001
0010
,
0001
0000
1000
0010
,
1000
0000
0001
0100
,
0010
0000
1000
0100
,
0010
0000
0001
0100
,
0010
1000
0001
1000
,
0100
0010
0100
0010
,
0001
1000
0010
0100
,
0001
0010
0001
0010
,
0100
1000
0001
0100
,
0010
1000
0001
1000
,
0001
0010
0100
1000
,
0010
0100
0010
1000
,
0001
0001
1000
0000
,
1000
0100
0010
0100
,
1000
0001
0010
0001
,
1000
1000
0001
0001
,
0100
0010
1000
0001
,
1000
0100
1000
0100
,
0010
0010
0100
0100
,
1000
0001
0100
0010
,
1000
0100
0010
0001
,
1000
0010
1000
0010
,
0100
0001
0100
0001
,
0010
0100
0010
0100
,
1000
0010
1000
0001
,
0100
0001
0100
0001
,
1000
0010
1000
0010
,
0100
0001
1000
0010
,
0100
0001
1000
0000
,
0001
0100
0001
0100
,
0010
1000
0010
1000
,
0100
1000
0100
0010
,
0001
1000
0001
0000
,
0010
0100
0010
0100
,
1000
0001
0100
0010
,
1000
0000
0000
1001
0000
0000
0000
0000
,
0001
0100
0010
0000
,
0110
0000
0100
0001
,
1000
0000
1000
0100
,
0010
0000
0010
0001
,
2000
0000
3002
0000
,
0103
0010
0100
0001
,
1000
0100
1000
0001
,
1001
0000
0000
0100
0000
0000
1001
0000
,
0000
0010
0000
0000
1001
0000
0110
0000
,
1000
0000
0000
0110
0000
0000
0001
0000
,
0000
0110
0000
0000
1000
0000
0001
0000
,
2002
0000
3003
0000
,
1000
0100
1000
0001
,
0100
0010
1000
0001
,
0010
0100
0010
0001
,
1000
0100
0010
0001
,
1000
0001
0100
0010
,
0100
0010
1000
0100
,
1000
0001
0010
0100
,
1000
1000
0001
0001
,
1000
0100
1000
0001
,
0100
0010
1000
0001
,
0010
0100
0010
0001
,
1000
0100
0010
0001
,
1000
0001
0100
0010
,
0100
0010
1000
0100
,
1000
0001
0010
0100
,
1000
1000
0010
1001
,
0001
0001
0100
0100
,
0010
1000
0100
0010
,
0100
0100
1000
1000
,
0001
0100
0010
1000
,
0100
0100
0010
0010
,
0001
0000
0000
1000
0000
0000
0001
0000
,
1000
0010
1000
0010
,
0100
0000
0000
0001
0000
0000
1000
0001
,
0000
0000
0000
0000
;
#NOTES:
     dance-single:
     :
     Medium:
     11:
     :
0000
0000
0000
0000
,
0000
0000
0000
0000
,
0000
0000
0000
0000
,
0000
0000
0000
0000
,
0000
0000
0000
0000
0000
1000
0010
2000
,
0000
0000
0000
0000
3010
0000
0100
0002
,
0000
0013
0100
1000
,
0001
0000
0000
0000
0100
0000
0010
2000
,
0000
0000
0000
3010
0000
0100
0000
0002
,
0000
0000
0003
0000
0100
0000
0001
0010
,
0000
0100
1000
0001
,
1000
0010
1000
0010
,
0100
0000
0001
0000
1000
0001
1000
0000
,
0001
0000
0010
0000
0001
0010
0001
0000
,
1000
0000
0100
0000
1000
0100
1000
0000
,
0001
0000
0100
0000
0001
0100
0001
0000
,
1000
0000
0010
0000
1000
0010
1000
0000
,
0010
0000
1000
0000
0100
0010
0100
0000
,
1000
0000
0010
0000
0100
0001
0100
0000
,
0001
0000
0010
0000
0001
0100
0001
0000
,
1000
0100
1000
0000
0100
0010
0100
0010
,
0100
1000
0001
1000
,
0010
0100
0010
0100
0010
0000
1000
0000
,
0100
0010
0100
0000
0010
0001
0010
0000
,
0001
0100
0001
0100
0001
0000
0100
0000
,
0010
1000
0010
0000
1000
0001
1000
0000
,
0001
0010
0001
0000
1000
0010
1000
0000
,
0001
0100
0010
1000
,
0001
0100
0001
0100
0010
1000
0010
0000
,
1000
0100
1000
0001
,
0100
0000
0001
0000
0100
0010
0100
0000
,
0001
0010
0001
1000
,
0100
0000
1000
0000
0010
0100
0010
0000
,
1000
0100
0010
0001
,
1000
0000
0010
0000
0100
0001
0100
0000
,
0001
0010
0100
1000
,
0001
0100
0010
1000
0001
1000
0001
0000
,
1000
0100
1000
0000
0001
0100
0001
0000
,
0010
0100
0010
0000
0001
1000
0001
0000
,
1000
0010
1000
0000
0001
0010
0001
0000
,
0100
0010
0100
0000
0001
1000
0001
0000
,
1000
0100
1000
0000
0001
0010
0001
0000
,
0100
0010
1000
0000
0100
0010
0001
0000
,
1000
0000
0000
1010
0000
0101
0000
0000
,
1001
0000
0011
0000
0100
0010
0000
1001
,
0000
0000
1000
0010
,
0100
0000
0010
0000
1000
0100
0000
0000
,
1000
0001
0010
0100
,
1000
0000
0001
0100
0001
0000
0100
0000
,
0010
1000
0001
0100
,
0001
1000
0100
1000
,
1001
0000
0001
0100
0000
0000
1001
0000
,
1000
0010
0000
0000
0110
0000
1001
0000
,
0110
0000
1000
0001
0000
0000
0110
0000
,
0001
1000
0000
0000
0110
0000
1001
0000
,
0220
0000
0330
0000
,
0001
0000
0100
0000
0001
0100
0001
0000
,
1000
0000
0010
0000
1000
0010
1000
0000
,
0001
0000
0010
0000
0001
1000
0001
0000
,
1000
0000
0010
0000
1000
0001
1000
0000
,
0100
0000
0010
0000
0100
1000
0001
0000
,
0100
0000
0010
0000
0100
0001
1000
0000
,
0001
0000
0010
0000
0100
1000
0010
0000
,
1000
0000
0001
0000
0100
0010
0100
0010
,
0100
0000
1001
0000
1000
0010
1000
0000
,
0100
0000
0010
0000
0001
0100
0001
0000
,
1000
0000
0001
0000
0100
0010
0100
0000
,
0001
0000
1000
0000
0100
0010
0100
0000
,
1000
0000
0001
0000
0010
0100
1000
0000
,
0001
0000
0100
0000
0010
1000
0001
0000
,
1000
0000
0100
0000
0010
0001
0100
0000
,
0010
0000
0100
0000
0010
1000
0001
1000
,
0001
1000
1000
0100
0100
0010
0010
0001
,
1000
0000
0000
0010
0000
0000
0100
0000
0000
0010
0000
0000
1000
0000
0000
0000
,
0001
0100
0001
0010
0100
1000
0001
1000
,
0010
0100
0010
0100
0001
1000
0100
0000
,
1000
0000
0010
0000
0100
0000
0001
0000
1000
0000
0000
0001
0000
0100
0000
0000
,
0001
0000
0000
1000
0000
0000
0010
0000
0000
1000
0000
0000
0010
0000
0100
0000
,
0001
1000
0001
0100
0010
0100
0010
1000
,
0001
0000
0000
0010
0000
0000
0001
0000
0000
1000
0000
0000
0100
0000
0110
0000
,
0000
0000
0000
0000
;
#NOTES:
     dance-single:
     :
     Hard:
     14:
     :
0000
0000
0000
0000
,
0000
0000
0000
0000
,
0000
0000
0000
0000
,
0000
0000
0000
0000
,
0000
0000
0000
0000
0000
0001
0100
0002
,
0000
0000
0000
0000
1003
0010
1000
0020
,
0000
0130
0001
0010
,
0002
0000
0000
0000
0103
0010
0100
0020
,
0000
0000
0000
1030
0000
0100
0000
0020
,
0000
0000
0030
0000
0001
0100
0001
0200
,
0000
0301
1000
0010
,
0100
0000
0010
0000
1000
0100
0010
0001
,
1000
0000
0010
0000
1000
0010
1000
0000
0001
0000
0010
0000
0100
0000
1000
0000
,
0000
0010
0100
0000
0001
1000
0010
0100
,
0000
0001
0010
0000
0100
0000
1000
0000
,
0001
0000
1001
0000
0001
0010
0100
1000
,
0000
0100
0010
0001
0000
0100
0000
0010
,
0000
1000
1001
0000
1000
0010
0100
0001
,
0000
0010
0110
0000
0001
0000
1000
0000
,
0010
0000
1000
0000
0001
0100
0001
0100
,
0010
0000
1000
0000
0001
1000
0001
0000
1000
0000
0100
0000
0010
0000
0001
0000
,
1000
0000
0010
0100
0010
1000
0001
0010
,
0100
0000
0010
0100
0010
0000
0100
0000
1000
0000
0100
0000
1000
0000
0000
0000
,
0001
0100
0010
1000
0001
0010
0100
1000
,
0001
0000
0100
0001
0100
0000
0010
0000
1000
0000
0001
0000
0010
0000
0000
0000
,
0100
0000
0010
0000
0001
0010
0001
0000
1000
0000
0010
0000
0100
0000
0001
0000
,
1000
0010
1000
0100
0010
0100
1000
0000
,
0001
0010
0100
1000
0001
0100
0010
1000
,
0001
0000
0100
0000
0010
1000
0010
1000
0010
0000
1000
0000
0001
0000
0000
0000
,
1000
0100
1000
0010
1000
0100
0010
0001
,
0100
0001
0010
0001
1000
0010
0100
0001
,
1000
0010
1000
0100
1000
0010
0100
0001
,
0010
0001
0100
0001
0010
0100
0110
0000
,
0100
1000
0001
1000
0100
1000
0001
0010
,
0001
1000
0001
0100
0001
0010
0100
0010
,
0001
1000
0100
1000
0010
0100
0001
0100
,
0001
0000
0010
0000
0100
0000
1000
0100
1000
0000
0001
0000
0100
0001
0100
0000
,
0010
1000
0001
0100
1000
0100
0001
1000
,
0010
0100
0001
0010
1000
0010
0001
0100
,
0010
1000
0001
0100
0010
0100
0010
1000
,
0100
0001
0100
1000
0010
0001
0010
0100
,
0001
1000
0010
0100
0001
0010
0100
0010
,
0001
1000
0010
1000
0100
0010
0001
0100
,
0010
0000
1000
1100
0000
0000
0010
0001
,
0000
0000
0001
0100
1000
0100
0000
0001
,
0020
0000
0000
0130
1000
0010
0000
1000
,
0100
0000
0010
0000
0001
0100
0000
1000
,
0100
0000
0010
0000
1000
0001
0000
0010
,
0000
0000
0000
0000
0100
0000
2000
0000
0000
0000
0000
3000
0000
0000
0001
0000
,
1000
0000
0100
0000
1000
0010
0001
0020
,
0000
0230
0000
0302
0000
0013
0100
1000
,
1100
0000
0001
0101
0000
0000
0011
0000
,
1000
1010
0000
0000
0110
0000
1001
0000
,
0001
0010
0100
1100
0000
0000
1000
0100
,
0010
0011
0000
0000
1010
0000
0011
0000
,
2002
0000
0000
0000
3003
1000
0010
0100
,
0000
0001
0010
0000
0100
0010
0001
1000
,
0000
0100
0010
0100
1000
0001
0010
0001
,
0100
0000
1010
0000
1000
0001
0100
0001
,
0000
1000
0100
0010
0001
0100
0001
1000
,
0000
0010
0110
0000
0100
0001
0010
0100
,
0000
0010
0001
1000
0001
0100
0010
0100
,
0001
0000
0011
0000
0010
0100
1000
0001
,
0000
0100
0010
0100
0001
0010
0100
1000
,
0000
0001
0011
0000
0010
0100
1000
0001
,
0000
0010
0100
0010
0001
1000
0100
1000
,
0010
0000
0101
0000
0001
1000
0010
1000
,
0000
0001
0010
0100
1000
0010
1000
0001
,
0000
0100
0110
0000
0010
1000
0100
0010
,
0000
0100
1000
0001
1000
0010
0100
0010
,
1000
0000
1100
0000
0100
0010
0001
1000
,
0000
0010
0100
0010
1000
0100
0010
0001
,
0100
0000
0001
0100
0001
0000
0100
0010
0100
0000
0010
1000
0010
0000
1000
0000
,
0001
0010
0000
0100
0010
0000
0001
0100
0000
0010
0100
0000
0010
0000
1000
0000
,
0100
0000
0010
0000
0100
0010
0100
0000
1000
0000
0001
1000
0001
0000
0100
0000
,
0010
0000
1000
0010
1000
0000
0001
0000
0010
0001
0010
0000
0100
0000
1000
0000
,
0001
0000
0100
0000
0001
0100
0001
0000
1000
0100
0000
0010
0000
0001
0000
0100
,
0010
0100
0000
0001
1000
0000
0010
0100
0000
0001
1000
0000
0100
0000
1000
0000
,
0010
0000
0100
0000
0001
1000
0001
0000
1000
0000
0100
0000
0010
0000
0001
0000
,
0100
0001
0000
0100
0010
0000
1000
0100
0000
0010
0100
0000
1000
0000
1001
0000
,
0000
0000
0000
0000
;
#NOTES:
     dance-double:
     :
     Easy:
     7:
     :
00000000
00000000
00000000
00000000
,
00000000
00000000
00000000
00000000
,
00000000
00000000
00000000
00000000
,
00000000
00000000
00000000
00000000
,
00000000
00000000
00000000
00000000
,
00011000
00000000
00010000
00000100
,
00001000
00000000
00000001
00001000
,
00000001
00000000
00000010
00000100
,
00001000
00000000
00000100
00010000
,
00001000
00000000
00100000
00010000
,
10000000
00000000
01000000
00100000
,
01000000
00000000
00100000
00010000
,
00100000
00001000
00010000
00001000
,
00010000
00000010
00001000
00000010
,
00000100
00000001
00001000
00000000
,
00000010
00010000
00001000
00010000
,
00001000
01000000
00010000
00000000
,
10000000
00100000
01000000
00010000
,
01000000
00001000
00010000
00001000
,
00010000
00000000
00000100
00000000
,
00001000
00001000
00000001
00001001
,
00000001
00000100
00001000
00010000
,
00100000
10000000
00010000
00000000
,
10000000
01000000
00010000
00001000
,
00000010
00000001
00001000
00000000
,
00000010
00001000
00000100
00010000
,
00001000
00100000
00010000
01000000
,
00010000
10000000
00010000
00100000
,
00001000
00010000
00001000
00000000
,
00010000
00000100
00001000
00000100
,
00000010
00000001
00000010
00000001
,
00001000
00000010
00001000
00000010
,
00010000
00001000
00100000
00010000
,
10000000
00100000
10000000
00100000
,
01000000
00010000
01000000
00001000
,
00010000
00001000
00010000
00000100
,
00001000
00000001
00000010
00000000
,
00000001
00001000
00000010
00001000
,
00000100
00010000
00001000
00000000
,
00100000
00010000
10000000
01000000
,
00100000
00000000
01000000
00000000
,
00100000
00010000
00100000
00001000
,
00010000
00000010
00001000
00000001
,
00000100
00000000
00000000
00001000
00000000
00000000
00000000
00000000
,
00010000
00001000
00010000
00000000
,
00011000
00000000
00010000
01000000
,
10000000
00000000
01000000
00010000
,
00001000
00000000
00010000
00001000
,
00000020
00000000
00000230
00000000
,
00000310
00000001
00001000
00000010
,
00010000
00001000
01000000
00010000
,
10000000
00000000
00000000
00100000
00000000
00000000
00010000
00000000
,
00000000
00001000
00000000
00000000
00000100
00000000
00000001
00000000
,
00000100
00000000
00000000
00001000
00000000
00000000
00010000
00000000
,
00000000
00100000
00000000
00000000
10000000
00000000
00010000
00000000
,
20020000
00000000
30030000
00000000
,
00010000
01000000
00001000
00010000
,
00001000
00010000
00000100
00001000
,
00000001
00000010
00000100
00000010
,
00000100
00001000
00000010
00010000
,
00001000
00000000
00010000
00001000
,
01000000
00010000
01000000
00010000
,
10000000
00000000
00010000
00000000
,
00100000
00010000
00100000
00001000
,
00010000
00001000
00010000
00000100
,
00001000
00000001
00000100
00000010
,
00001000
00000010
00010000
00001000
,
01000000
00010000
10000000
00100000
,
01000000
00010000
01000000
00001000
,
00010000
00000100
00001000
00000001
,
00000010
00000001
00000100
00001000
,
00010000
01000000
10000000
00010000
,
00100000
00100000
00001000
00001000
,
00010000
00000010
00001000
00000100
,
00010000
00010000
00001000
00001000
,
01000000
00010000
00100000
01000000
,
10000000
10000000
00100000
00100000
,
01000000
00000000
00000000
00001000
00000000
00000000
00010000
00000000
,
00000010
00001000
00000010
00000100
,
00000001
00000000
00000000
00001000
00000000
00000000
00000100
00010000
,
00000000
00000000
00000000
00000000
;
#NOTES:
     dance-double:
     :
     Medium:
     11:
     :
00000000
00000000
00000000
00000000
,
00000000
00000000
00000000
00000000
,
00000000
00000000
00000000
00000000
,
00000000
00000000
00000000
00000000
,
00000000
00000000
00000000
00000000
00000000
00000001
00000100
00000002
,
00000000
00000000
00000000
00000000
00000103
00000000
00000010
00002000
,
00000000
00003001
00000100
00001000
,
00010000
00000000
00000000
00000000
00001000
00000000
00100000
00020000
,
00000000
00000000
00000000
10030000
00000000
01000000
00000000
00020000
,
00000000
00000000
00030000
00000000
00001000
00000000
00010000
00000010
,
00000000
00001000
00000100
00000010
,
00000001
00001000
00000010
00010000
,
00001000
00000000
00100000
00000000
00010000
10000000
00010000
00000000
,
10000000
00000000
01000000
00000000
00100000
01000000
00100000
00000000
,
00010000
00000000
00100000
00000000
00001000
00010000
00001000
00000000
,
00010000
00000000
00000010
00000000
00001000
00000010
00001000
00000000
,
00000001
00000000
00000100
00000000
00000010
00000100
00000010
00000000
,
00001000
00000000
00000010
00000000
00010000
00001000
00010000
00000000
,
00001000
00000000
01000000
00000000
00010000
01000000
00010000
00000000
,
10000000
00000000
01000000
00000000
00100000
00010000
00100000
00000000
,
00001000
00000000
00010000
00000000
00000010
00001000
00000010
00000000
,
00001000
00000001
00000010
00000100
,
00001000
00000100
00001000
00000000
00000100
00000000
00010000
00000000
,
00001000
00010000
00100000
10000000
,
00010000
01000000
00010000
00000000
00100000
00000000
00001000
00000000
,
00010000
00001000
00000100
00000001
,
00001000
00000010
00001000
00000000
00000100
00000000
00010000
00000000
,
00001000
00100000
00010000
01000000
,
00100000
10000000
00100000
00000000
10000000
01000000
10000000
00000000
,
01000000
00100000
00010000
00100000
,
00001000
00000000
00010000
00000000
00001000
00010000
00001000
00000000
,
00010000
00000010
00001000
00000001
,
00000100
00000000
00000001
00000000
00000010
00000100
00000010
00000000
,
00000001
00001000
00000100
00010000
,
00001000
00000000
00010000
00000000
00001000
00100000
00001000
00000000
,
00100000
00010000
01000000
00100000
,
10000000
00010000
01000000
00000000
00001000
00010000
00000010
00000000
,
00001000
00000000
00000001
00000000
00001000
00000010
00001000
00000000
,
00000100
00000000
00010000
00000000
00001000
00100000
00010000
00000000
,
10000000
00000000
00100000
00000000
01000000
00010000
01000000
00000000
,
00001000
00000000
00010000
00000000
00000100
00001000
00000001
00000000
,
00000010
00000000
00000100
00000000
00001000
00000010
00001000
00000000
,
00000100
00000000
00010000
00000000
00001000
01000000
00010000
00000000
,
10000000
00000000
00000000
10100000
00000000
01010000
00000000
00000000
,
00011000
00000000
00001100
00000000
00000001
00000010
00000000
00001001
,
00000000
00000000
00001000
00000100
,
00010000
00000000
00001000
00000000
00100000
00010000
00000000
00000000
,
01000000
00100000
10000000
00010000
,
01000000
00000000
00001000
00010000
00001000
00000000
00000000
00000000
,
00010000
00000100
00001000
00000100
,
00000010
00000001
00001000
00000001
,
00000100
00000000
00000010
00001000
00000000
00000000
00000100
00000000
,
00010000
00001000
00000000
00000000
00011000
00000000
00101000
00000000
,
00100000
00000000
00010000
01000000
00000000
00000000
00100000
00000000
,
10000000
00010000
00000000
00000000
01010000
00000000
01001000
00000000
,
00022000
00000000
00033000
00000000
,
00001000
00000000
00010000
00000000
00000010
00001000
00000010
00000000
,
00000100
00000000
00000001
00000000
00001000
00000001
00001000
00000000
,
00000100
00000000
00010000
00000000
00001000
00010000
00001000
00000000
,
01000000
00000000
00010000
00000000
10000000
01000000
10000000
00000000
,
00010000
00000000
00100000
00000000
00001000
00010000
00000010
00000000
,
00001000
00000000
00000001
00000000
00000010
00000100
00001000
00000000
,
00000100
00000000
00010000
00000000
00001000
01000000
00010000
00000000
,
10000000
00000000
00100000
00000000
01000000
00100000
01000000
00000000
,
00010000
00000000
00100000
00000000
00001000
00010000
00001000
00000000
,
00010000
00000000
00000010
00000000
00001000
00000100
00001000
00000000
,
00000001
00000000
00000100
00000000
00000010
00001000
00000010
00000000
,
00010000
00000000
00001000
00000000
00100000
00010000
00100000
00000000
,
01000000
00000000
10000000
00000000
00010000
00100000
00001000
00000000
,
00010000
00000000
00000010
00000000
00001000
00000100
00000010
00000000
,
00000001
00000000
00001000
00000000
00000010
00010000
00001000
00000000
,
01000000
00000000
00010000
00000000
10000000
00010000
10000000
00000000
,
00010000
00100000
00010000
00100000
00001000
00010000
00001000
00010000
,
00001000
00000000
00000000
00000100
00000000
00000000
00000010
00000000
00000000
00000100
00000000
00000000
00000010
00000000
00000000
00000000
,
00001000
00000100
00001000
00000100
00010000
00001000
00010000
00001000
,
01000000
00010000
01000000
00010000
10000000
00010000
10000000
00000000
,
00010000
00000000
01000000
00000000
00001000
00000000
00010000
00000000
00000100
00000000
00000000
00001000
00000000
00000001
00000000
00000000
,
00000010
00000000
00000000
00000100
00000000
00000000
00000010
00000000
00000000
00000100
00000000
00000000
00001000
00000000
00000100
00000000
,
00010000
00001000
01000000
00010000
10000000
00100000
01000000
00010000
,
00100000
00000000
00000000
00001000
00000000
00000000
00010000
00000000
00000000
00000010
00000000
00000000
00001000
00000000
00000001
00000000
,
00000000
00000000
00000000
00000000
;
#NOTES:
     dance-double:
     :
     Hard:
     14:
     :
00000000
00000000
00000000
00000000
,
00000000
00000000
00000000
00000000
,
00000000
00000000
00000000
00000000
,
00000000
00000000
00000000
00000000
,
00000000
00000000
00000000
00000000
00000000
10000000
00100000
20000000
,
00000000
00000000
00000000
00000000
30010000
01000000
00010000
02000000
,
00000000
03001000
00010000
00000100
,
00002000
00000000
00000000
00000000
00003001
00000010
00000001
00000020
,
00000000
00000000
00000000
00000130
00000000
00001000
00000000
00000020
,
00000000
00000000
00000030
00000000
00010000
00001000
00010000
00002000
,
00000000
00103000
00010000
10000000
,
00100000
00000000
01000000
00000000
00010000
00100000
00001000
00010000
,
00000010
00000000
00001000
00000000
00000001
00001000
00000001
00000000
00000100
00000000
00000010
00000000
00001000
00000000
00000010
00000000
,
00000000
00010000
00001000
00000000
00010000
01000000
10000000
00010000
,
00000000
01000000
00100000
00000000
00010000
00000000
00001000
00000000
,
00010000
00000000
00011000
00000000
00001000
00000010
00000001
00001000
,
00000000
00000010
00000100
00001000
00000000
00010000
00000000
00100000
,
00000000
01000000
00100000
00000000
10000000
01000000
00100000
00010000
,
00000000
01000000
00001000
00000000
00010000
00000000
00000010
00000000
,
00001000
00000000
00000001
00000000
00000010
00000100
00000010
00000100
,
00001000
00000000
00000100
00000000
00010000
00001000
00010000
00000000
00001000
00000000
01000000
00000000
00010000
00000000
00100000
00000000
,
01000000
00000000
10000000
00100000
01000000
00010000
00100000
00001000
,
00010000
00000010
00001000
00000100
00000010
00000001
00000010
00000000
,
00000001
00000100
00001000
00010000
00001000
00010000
00100000
10000000
,
01000000
10000000
01000000
00010000
00001000
00000010
00000001
00000000
,
00001000
00000100
00010000
00001000
01000000
00010000
00100000
00001000
,
00010000
00000010
00001000
00000100
00001000
00000001
00000010
00000000
,
00000100
00001000
00000010
00010000
00001000
00100000
00010000
01000000
,
00100000
00000000
10000000
00000000
00010000
10000000
00010000
10000000
00010000
00000000
00100000
00000000
01000000
00000000
00000000
00000000
,
10000000
00100000
10000000
01000000
10000000
00100000
00010000
00001000
,
00010000
00000100
00001000
00000010
00001000
00000100
00000010
00000000
,
00000001
00000100
00000001
00000010
00000001
00000100
00001000
00010000
,
00001000
00100000
00010000
01000000
00010000
00100000
01000000
00000000
,
00100000
00010000
01000000
00010000
00100000
01000000
00010000
00001000
,
00000010
00000001
00000100
00000001
00000010
00000100
00001000
00000000
,
00000100
00001000
00000010
00001000
00000100
00000010
00001000
00010000
,
01000000
00000000
10000000
00000000
00100000
00000000
10000000
00000000
01000000
00000000
00100000
00000000
00010000
10000000
00010000
00000000
,
10000000
00100000
01000000
00010000
10000000
01000000
00010000
00001000
,
00010000
00000010
00001000
00000100
00000010
00001000
00010000
00000010
,
00001000
00000100
00000010
00000001
00001000
00000001
00000100
00000001
,
00000100
00001000
00010000
00001000
00010000
00100000
01000000
00100000
,
10000000
00010000
00100000
01000000
10000000
00100000
01000000
00010000
,
00100000
00001000
00010000
01000000
00100000
00010000
00001000
00000100
,
00000010
00000000
00000001
00000011
00000000
00000000
00001000
00000100
,
00000000
00000000
00010000
00001000
00100000
00010000
00000000
01000000
,
00200000
00000000
00000000
10300000
01000000
00100000
00000000
00010000
,
00100000
00000000
00001000
00000000
00010000
00000100
00000000
00001000
,
00000010
00000000
00000100
00000000
00000001
00000010
00000000
00001000
,
00000000
00000000
00000000
00000000
00010000
00000000
00002000
00000000
00000000
00000000
00000000
00003000
00000000
00000000
00010000
00000000
,
01000000
00000000
10000000
00000000
00100000
00010000
00001000
00020000
,
00000000
00030020
00000000
00002030
00000000
00003100
00000010
00000100
,
00000010
00000000
00000001
00001001
00000000
00000000
00001100
00000000
,
00000100
00010100
00000000
00000000
00011000
00000000
01001000
00000000
,
01000000
00010000
00100000
01000000
00000000
00000000
10000000
00100000
,
01000000
00010000
00000000
00000000
00110000
00000000
00101000
00000000
,
00022000
00000000
00000000
00000000
00033000
00001000
00010000
00000100
,
00000000
00001000
00000001
00000000
00000010
00001000
00010000
01000000
,
00000000
10000000
00010000
01000000
00010000
00100000
00001000
00010000
,
00000010
00000000
00001010
00000000
00001000
00000100
00000010
00000001
,
00000000
00000100
00000010
00001000
00000100
00010000
00001000
00100000
,
00000000
00010000
10000000
00000000
01000000
00010000
00001000
00000010
,
00000000
00000001
00001000
00000010
00001000
00000100
00010000
00001000
,
01000000
00000000
01010000
00000000
00010000
00100000
01000000
10000000
,
00000000
00010000
10000000
00010000
10000000
01000000
00100000
00010000
,
00000000
00100000
00101000
00000000
00001000
00010000
00001000
00000100
,
00000000
00000010
00001000
00000100
00010000
00001000
00100000
00010000
,
01000000
00000000
01100000
00000000
00100000
00010000
00001000
00010000
,
00000000
00000100
00001000
00000001
00000010
00000001
00000100
00000010
,
00000000
00001000
00001001
00000000
00000001
00000010
00001000
00010000
,
00000000
01000000
00100000
01000000
10000000
00010000
00100000
00010000
,
01000000
00000000
01001000
00000000
00001000
00010000
00001000
00000010
,
00000000
00000100
00000010
00000001
00001000
00000010
00000100
00000001
,
00001000
00000000
00000100
00010000
00000100
00000000
00010000
00001000
00010000
00000000
00001000
01000000
00001000
00000000
01000000
00000000
,
00010000
00100000
00000000
01000000
00100000
00000000
00010000
10000000
00000000
00100000
01000000
00000000
00010000
00000000
10000000
00000000
,
01000000
00000000
00100000
00000000
00010000
00100000
00010000
00000000
00100000
00000000
00001000
00010000
00001000
00000000
00010000
00000000
,
00000010
00000000
00001000
00000010
00001000
00000000
00000001
00000000
00000010
00000001
00000010
00000000
00000100
00000000
00001000
00000000
,
00000100
00000000
00010000
00000000
00001000
00010000
00001000
00000000
00100000
00010000
00000000
01000000
00000000
00100000
00000000
10000000
,
00010000
01000000
00000000
00001000
00010000
00000000
00000100
00001000
00000000
00000001
00000010
00000000
00000001
00000000
00001000
00000000
,
00000010
00000000
00010000
00000000
00001000
00010000
00001000
00000000
01000000
00000000
00010000
00000000
00100000
00000000
01000000
00000000
,
10000000
01000000
00000000
00100000
00010000
00000000
01000000
00001000
00000000
00010000
00000100
00000000
00001000
00000000
00001001
00000000
,
00000000
00000000
00000000
00000000
;
