
//----- song ID: fluc -----//
#TITLE:fluctus;
#ARTIST:Ashrount;
#BANNER:fluctus.png;
#BACKGROUND:fluctus-bg.png;
#CDTITLE:./CDTitles/DDR WORLD.png;
#MUSIC:fluctus.ogg;
#SAMPLESTART:86.168;
#SAMPLELENGTH:15;
#BPMS:0=180;
#NOTES:
     dance-single:
     :
     Beginner:
     4:
     :
0000
0000
0000
0000
,
0000
0000
0000
0000
,
0000
0000
0000
0000
,
0000
0000
0000
0000
,
0000
0000
0000
0000
,
0001
0000
0002
0000
,
0003
0000
1000
0000
,
2000
0000
3000
0000
,
0020
0000
0030
0000
,
1000
1000
1000
0000
,
1000
1000
1000
0000
,
0001
0001
0001
0000
,
0001
0001
0001
0000
,
2000
0000
3000
0000
,
0002
0000
0003
0000
,
0020
0030
0010
0010
,
0010
0000
0001
0000
,
2000
3000
1000
0000
,
0001
0000
1000
0000
,
0002
0003
0001
0000
,
1000
0000
0001
0000
,
0020
0030
0010
0000
,
0001
0000
1000
0000
,
0200
0300
0100
0000
,
1000
0000
0000
0000
0000
0000
0000
0000
0002
0000
0000
0000
0000
0000
0000
0003
,
0000
0000
0001
0000
,
1000
0000
0001
0000
,
2000
3000
1000
0000
,
0001
0000
1000
0000
,
0020
0000
0000
0000
0000
0000
0000
0030
0000
0000
0000
0000
0000
0000
0000
0000
,
1000
0000
0001
0000
,
0200
0000
0300
0000
,
0002
0000
0003
0000
,
2000
3000
1000
0000
,
1000
0000
1000
0000
,
0002
0003
0001
0000
,
0001
0000
0001
0000
,
0020
0030
0010
0000
,
0010
0000
0010
0000
,
0001
0000
1000
0000
,
0001
0001
0001
0000
,
1000
0000
0010
0000
,
1000
1000
1000
0000
,
0001
0000
0010
0000
,
0001
0001
0001
0000
,
2000
0000
0000
3000
0000
0000
0000
0000
,
0002
0000
0000
0003
0000
0000
0000
0000
,
1000
1000
1000
1000
,
1000
0000
0020
0030
,
0010
0000
0000
1000
,
0000
0000
0000
0000
,
0001
0000
0000
0000
,
0000
0000
0000
0000
,
1000
0000
0000
0000
,
0000
0000
0000
0000
,
0001
0000
0000
0000
,
0010
0000
0000
0000
,
0001
0001
0001
0000
,
0001
0001
0001
0000
,
1000
1000
1000
0000
,
1000
1000
1000
0000
,
0002
0000
0003
0000
,
2000
0000
3000
0000
,
0020
0030
0010
0010
,
0010
0000
1000
0000
,
0002
0000
0003
0000
,
2000
0000
3000
0000
,
0020
0000
0030
0000
,
1000
0000
0001
0000
,
0020
0000
0030
0000
,
0001
0000
1000
0000
,
0100
0000
1000
0000
,
0001
0001
0001
0000
,
2000
3000
1000
0000
,
0002
0003
0001
0000
,
0020
0030
0010
0000
,
0100
0000
1000
0000
,
0020
0030
0010
0000
,
2000
3000
1000
0000
,
0002
0000
0000
0003
,
0001
0001
0001
0000
,
1000
0000
0010
0000
,
1000
0000
0001
0001
,
0001
0000
0010
0000
,
0001
0000
1000
1000
,
1000
0000
0001
0001
,
0001
0000
1000
0000
,
0010
0010
0010
0000
,
2000
0000
0000
0000
,
0000
0000
0000
3000
,
0000
0000
0000
0000
;
#NOTES:
     dance-single:
     :
     Easy:
     8:
     :
0000
0000
0000
0000
,
0000
0000
0000
0000
,
0000
0000
0000
0000
,
0000
0000
0000
0000
,
0000
0000
0000
0000
,
0001
0010
0100
2000
,
3000
0001
0200
0300
,
0010
2000
3000
0001
,
0002
0000
1003
0000
,
1000
0100
0010
0001
,
0100
0000
0000
0000
0010
0000
0000
0000
2000
0000
0000
3000
0000
0000
0000
0000
,
0001
0100
0010
1000
,
0100
0000
0000
0000
0010
0000
0000
0000
0002
0000
0000
0003
0000
0000
0000
0000
,
2000
0000
0000
3000
0020
0000
0000
0030
,
0200
0000
0000
0300
0002
0000
0000
0003
,
2000
3000
0200
0300
0020
0030
0002
0003
,
1000
1000
0001
0010
,
0002
0000
1003
0000
0000
1000
0001
0000
,
0000
0000
0100
0000
0000
0100
0001
0000
,
2000
0000
3001
0000
0000
0001
1000
0000
,
0000
0000
0100
0000
0000
0100
1000
0000
,
0002
0000
1003
0000
0000
1000
0001
0000
,
0000
0000
0010
0000
0000
0010
0001
0000
,
2000
0000
3010
0000
0000
0010
1000
0000
,
0001
0000
0000
0000
0010
0000
0000
0000
0100
0000
0000
0000
2000
0000
0000
3000
,
0000
0000
0001
0000
0000
0001
0100
0000
,
0000
0000
0010
0000
0000
0010
1000
0000
,
0002
0000
1003
0000
0000
1000
0100
0000
,
0000
0000
0010
0000
0000
0010
0001
0000
,
2000
0000
0000
0000
0000
0000
0000
3000
0000
0000
0001
0000
1000
0000
0000
0000
,
0000
0000
0010
0000
0000
0010
1000
0000
,
0002
0000
1000
0000
,
0023
0000
0130
1000
,
0002
0003
0001
1000
,
0000
1000
0000
0000
1000
0000
0000
0000
,
0002
0000
0000
0000
0003
0000
0000
0000
2000
0000
0000
0000
0000
3000
0000
0000
,
0200
0000
0000
0300
0010
0000
0010
0000
,
0002
0000
0000
0000
0000
0003
0000
0000
1000
0000
0000
0000
0000
0000
0000
0000
,
0001
0000
0010
0001
,
2000
3000
0000
0002
0003
0000
,
1000
0001
0010
0100
,
1000
1000
0100
0010
,
0001
0001
1000
0000
,
0001
0001
0100
0010
,
1000
1000
0001
0000
,
1000
0000
0000
1000
0000
0000
1000
0000
,
0001
0000
0000
0001
0000
0000
0001
0000
,
2000
3000
0200
0300
0020
0030
0002
0003
,
1000
1000
0001
0020
,
0130
0000
0000
1000
,
0000
0000
0000
0000
,
0001
0000
0010
0000
0000
0000
0000
0001
,
0000
0000
0000
0000
,
1000
0100
0010
0000
,
0001
0100
0010
0000
,
1000
0100
0010
0000
,
0001
0100
0010
0000
,
1000
0100
0010
0001
,
0100
0000
0000
0000
0010
0000
0000
0000
2000
0000
0000
3000
0000
0000
0000
0000
,
0001
0100
0010
1000
,
0100
0000
0000
0000
0010
0000
0000
0000
0002
0000
0000
0003
0000
0000
0000
0000
,
2000
0000
0000
3000
0020
0000
0000
0030
,
0200
0000
0000
0300
0002
0000
0000
0003
,
2000
3000
0200
0300
0020
0030
0002
0003
,
1000
1000
0002
1003
,
0020
0030
1000
0001
,
0020
0030
0001
1000
,
0200
0300
1000
0010
,
0100
0001
1000
0001
,
0020
0030
0100
1000
,
0001
0000
0000
0001
0000
0000
0001
0000
,
2000
3000
0001
0100
,
0010
0010
2000
3001
,
0020
0030
0001
1000
,
0020
0030
1000
0001
,
0200
0300
0001
0010
,
0100
1000
0001
1000
,
0020
0030
0100
0001
,
0020
0030
0100
1000
,
0020
0000
0000
0030
,
0100
0010
0100
0010
,
2000
0000
0000
3000
0010
0000
1000
0000
,
0002
0000
0000
0000
0000
0003
0000
0000
0010
0000
0000
0000
0001
0000
0000
0000
,
2000
0000
0000
3000
0100
0000
1000
0000
,
0002
0000
0000
0000
0000
0003
0000
0000
0100
0000
0000
0000
0001
0000
0000
0000
,
1000
0000
0000
0001
0000
0001
0000
0000
,
0010
0000
0010
0000
0000
0001
0000
0000
,
1000
0100
0010
0001
,
0200
0000
0000
0000
,
0000
0000
0000
0300
,
0000
0000
0000
0000
;
#NOTES:
     dance-single:
     :
     Medium:
     13:
     :
0000
0000
0000
0000
,
0000
0000
0000
0000
,
0000
0000
0000
0000
,
0000
0000
0000
0000
,
0000
0000
0000
0000
,
0001
0000
0010
0100
1000
0000
0002
0000
,
0003
0000
0100
0000
0020
0000
0030
0100
,
0000
0000
0010
1000
0000
0000
0100
0000
,
0020
0000
0000
0031
0000
0000
0000
0000
,
1000
0100
0001
0100
1000
0001
0100
0010
,
1000
0000
0010
0000
0001
0000
0010
0000
1000
0000
0001
1000
0000
0000
0000
0000
,
0001
0100
1000
0100
0001
1000
0100
0010
,
0001
0000
0010
0000
1000
0000
0010
0000
0001
0000
1000
0001
0000
0000
0000
0000
,
2000
0000
0000
3100
0000
0000
0010
0000
0002
0000
0000
1003
0000
0000
0010
0000
,
0200
0000
0000
0301
0000
0000
1000
0000
0200
0000
0000
0310
0000
0000
0001
0000
,
2000
3020
0230
0302
2003
3200
0320
0032
,
1003
0001
0010
0001
1000
0010
1000
0000
,
2001
0000
0000
0000
3010
0000
0100
0001
0000
0000
1000
0000
0010
0000
0100
0001
,
0000
0000
0100
0000
0010
0000
1000
0001
0000
0000
0100
0000
0010
0000
0000
0000
,
1002
0000
0000
0000
0013
0000
0100
1000
0000
0000
0001
0000
0010
0000
0100
1000
,
0000
0000
0100
0000
0010
0000
0001
1000
0000
0000
0100
0000
0010
0000
0000
0000
,
2001
0000
0000
0000
3100
0000
1000
0001
0000
0000
0010
0000
0100
0000
1000
0001
,
0000
0000
1000
0000
0100
0000
0010
0001
0000
0000
1000
0000
0100
0000
0000
0000
,
1002
0000
0000
0000
0103
0000
0010
1000
0000
0000
0001
0000
0100
0000
0010
0000
,
1000
1000
0100
0010
0001
1000
0100
1000
,
0000
0000
0001
0000
0010
0000
0100
1000
0000
0000
0001
0000
0010
0000
0100
1000
,
0000
0000
0100
0000
0010
0000
0001
1000
0000
0000
0100
0000
0010
0000
0000
0000
,
2001
0000
0000
0000
3010
0000
0100
0001
0000
0000
1000
0000
0010
0000
0100
0001
,
0000
0000
0100
0000
0010
0000
1000
0001
0000
0000
0100
0000
0010
0000
0000
0000
,
2002
0000
0000
0000
3003
0000
0001
1000
0000
0000
0010
0000
0100
0000
0001
1000
,
0000
0000
0001
0000
0100
0000
0010
1000
0000
0000
0001
0000
0100
0000
0000
0000
,
2001
3200
0302
0203
,
0320
0000
0000
0030
0001
0010
0100
1000
,
0002
0000
0000
0000
0003
0000
0100
0000
0010
0000
0000
0000
1000
0000
0000
1000
,
0000
0000
0001
0000
0000
0001
0000
0000
0010
0000
0000
0000
0002
0000
0000
0000
,
2003
0000
0000
0000
3000
0000
0100
0000
0010
0000
0001
0000
0000
0001
0000
0000
,
1000
0000
0000
1000
0000
0000
0001
0000
0010
0000
0100
0000
0010
0000
0000
0000
,
0002
0000
0000
0000
0003
0100
0010
1000
0000
1000
0000
0001
,
0010
0001
0000
0001
0000
1000
0010
1000
0001
0010
0000
0000
,
0001
0000
0000
0000
0100
0000
0000
0010
0000
0000
1000
0000
0001
0000
0000
0000
0100
0000
0000
0010
0000
0000
1000
0000
,
0001
1000
0001
1000
0001
0010
0100
1000
,
0001
0000
0100
0000
1000
0000
0100
0000
0001
0000
0000
1000
0000
0000
0000
0000
,
0001
1000
0100
0010
0001
1000
0001
0000
,
1000
0000
0100
0000
0001
0000
0000
0000
0100
0000
1000
0000
0001
0000
0000
1000
,
0000
1000
0000
0000
0020
0000
0000
0000
0130
0000
0010
0000
0100
0000
0010
0000
,
1000
0000
0000
0100
0000
0000
0010
0000
0000
0001
0000
0000
1000
0000
0001
0000
,
1000
0000
0000
0010
0000
0000
0100
0000
0000
0001
0000
0000
1000
0000
0001
0000
,
1000
0100
0001
0100
1000
0010
0001
0010
,
1000
0000
0000
1000
0000
0000
1000
0000
0001
0000
0100
0000
0020
0000
0000
0000
,
1030
0000
0000
0000
0000
0000
0010
1000
,
0000
0000
0000
0000
0000
0001
0000
0000
,
0010
0001
1000
0100
0000
0010
0000
0100
,
0000
0000
0000
0000
0000
1000
0000
0001
,
1000
0000
0100
0000
0010
0001
0000
1000
,
0001
0000
0100
0000
0010
1000
0000
0001
,
0100
0000
0010
0000
1000
0001
0000
0010
,
0100
0000
1000
0000
0001
0100
0000
0001
,
1000
0100
0001
0100
1000
0001
0100
0010
,
1000
0000
0010
0000
0001
0000
0010
0000
1000
0000
0001
1000
0000
0000
0000
0000
,
0001
0100
1000
0100
0001
1000
0100
0010
,
0001
0000
0010
0000
1000
0000
0010
0000
0001
0000
1000
0001
0000
0000
0000
0000
,
2000
0000
0000
3100
0000
0000
0010
0000
0002
0000
0000
1003
0000
0000
0010
0000
,
0200
0000
0000
0301
0000
0000
1000
0000
0200
0000
0000
0310
0000
0000
0001
0000
,
2000
3020
0230
0302
2003
3200
0320
0032
,
2003
0000
3010
0100
0002
0003
1000
0100
,
0020
0000
0000
0000
0031
0000
1000
0000
0010
0000
0000
0100
0000
0000
0001
0000
,
0020
0000
0000
0000
0130
0000
1000
0000
0001
0000
0000
0100
0000
0000
0010
0000
,
2000
0000
0000
0000
3100
0000
0010
0000
0001
0000
0000
1000
0000
0000
0100
0000
,
0001
0000
0000
0100
0000
0000
1000
0000
0001
0000
0000
0100
0000
0000
0010
0000
,
2000
0000
0000
0000
3001
0000
0100
0000
0010
0000
0000
0100
0000
0000
1000
0000
,
0100
0000
0000
0001
0000
0000
1000
0000
0000
0100
0000
0000
0010
0000
0001
0000
,
0200
0000
0310
1000
0001
0010
0200
0000
,
1300
0000
0000
0010
0000
0000
0100
0000
0002
0000
0003
0000
1000
0000
0100
0000
,
0020
0000
0030
0000
1002
0000
0000
0000
0103
0000
0000
0010
0000
0000
1000
0000
,
0200
0000
0000
0000
0310
0000
0001
0000
1000
0000
0000
0010
0000
0000
0100
0000
,
0002
0000
0000
0000
0013
0000
0100
0000
1000
0000
0000
0001
0000
0000
0010
0000
,
1000
0000
0000
0010
0000
0000
0001
0000
1000
0000
0000
0010
0000
0000
0100
0000
,
0002
0000
0000
0000
1003
0000
0010
0000
0100
0000
0000
0010
0000
0000
0001
0000
,
0020
0000
0000
0000
1030
0000
0001
0000
0010
0000
0000
0100
0000
0000
1000
0000
,
0020
0000
0000
0100
0000
0000
1030
0010
,
1000
0001
1000
0001
0020
0000
0000
0030
,
0001
0000
0000
0001
0000
0000
0001
0000
0010
0000
0100
0000
0000
0100
0000
0000
,
0100
0000
1000
0000
0000
1000
0000
0000
1000
0000
0001
0000
0100
0000
0010
0000
,
1000
0000
0000
1000
0000
0000
1000
0000
0010
0000
0100
0000
0000
0100
0000
0000
,
0100
0000
0001
0000
0000
0001
0000
0000
0001
0000
1000
0000
0100
0000
0010
0000
,
0001
0000
0010
0001
0000
0000
0010
0000
0001
0000
1000
0000
0010
1000
0000
0000
,
0001
0000
1000
0000
0001
0000
0100
0001
0000
0000
0100
0000
0001
0000
0010
0000
,
0200
0000
0300
0000
1000
0000
0002
0000
0003
0000
0100
0000
0020
0000
0030
0000
1000
0000
0001
0000
0000
1000
0000
0000
,
0200
0000
0000
0020
0000
0000
0000
0000
,
0000
0000
0000
0330
,
0000
0000
0000
0000
;
#NOTES:
     dance-single:
     :
     Hard:
     16:
     :
0000
0000
0000
0000
,
0000
0000
0000
0000
,
0000
0000
0000
0000
,
0000
0000
0000
0000
,
0000
0000
0000
1000
,
0002
0000
0013
0100
0200
0000
2000
0000
,
3300
0000
1000
0000
0020
0000
0030
0002
,
0000
0003
0010
2000
3000
0000
0100
0000
,
0120
0000
0000
0031
0000
0000
0000
0000
,
1000
0100
0010
0001
1000
0000
0010
2000
3000
0010
1000
0010
0100
0000
0001
0200
,
0300
0001
0100
0001
1000
0000
0100
1000
0100
1000
0100
0010
0000
0000
0000
0000
,
0001
0010
0100
1000
0001
0000
0100
0002
0003
0100
0001
0100
0010
0000
1000
0020
,
0030
1000
0010
1000
0001
0000
0010
0001
0010
0001
0010
0100
0000
0000
0000
0000
,
2001
0000
0000
3020
0000
0000
0032
0000
2003
0000
0000
3200
0000
0000
0302
0000
,
0023
0000
0000
2030
0000
0000
3002
0000
0203
0000
0000
2300
0000
0000
3020
0000
,
0032
2003
3200
0302
0023
2030
3002
0203
,
1300
0000
0001
0000
0010
0000
0001
0010
0001
1000
0010
0000
1000
0000
0001
0000
,
0201
0000
0000
0000
0310
0000
1000
0001
0000
0000
0200
0000
0310
0000
0100
2000
,
0000
3000
0200
0000
0310
0000
1000
0001
0000
0000
0100
0000
0010
0100
0001
1000
,
0200
0000
0000
0000
0310
0000
0001
1000
0000
0000
0100
0000
0020
0000
0130
0001
,
0000
0000
0000
0000
0000
0000
0200
0000
0000
0000
0000
0000
0310
0000
0000
0000
0000
0000
0001
0000
0000
1000
0000
0000
0000
0000
0000
0000
0000
0000
0200
0000
0000
0000
0000
0000
0310
0000
0000
0000
0001
0000
0000
0000
1000
0000
0000
0000
,
0020
0000
0000
0000
0031
0000
0010
1000
0000
0000
0020
0000
0031
0000
0010
1000
,
0000
0000
0100
0000
0001
0000
0100
1000
0000
0000
0200
0300
0001
0100
0010
0100
,
0020
0000
0000
0000
1030
0000
0010
0001
0000
0000
0010
0000
2000
0000
3020
0000
,
0031
0000
0001
0000
0100
0000
0001
0010
0100
1000
0100
0010
0001
1000
0001
1000
,
0000
0000
1002
0000
0013
0000
0001
1000
0000
0000
0200
0000
0310
0000
0100
0002
,
0000
0003
0200
0000
0310
0000
0001
1000
0000
0000
0100
0000
0010
0100
1000
0001
,
0200
0000
0000
0000
0310
0000
1000
0001
0000
0000
0100
0000
0020
0000
0130
1000
,
0000
0000
0000
0000
0000
0000
0200
0000
0000
0000
0000
0000
0310
0000
0000
0000
0000
0000
1000
0000
0000
0001
0000
0000
0000
0000
0000
0000
0000
0000
0200
0000
0000
0000
0000
0000
0310
0000
0000
0000
1000
0000
0000
0000
0001
0000
0000
0000
,
0020
0000
0000
0000
0000
0000
0031
1000
0000
0000
0020
0000
0031
0000
0010
1000
,
0000
0000
0100
0000
0001
0000
0100
1000
0000
0000
0200
0300
1000
0100
0010
0001
,
2000
0001
0001
0001
0100
0100
0001
0001
,
3020
0000
0000
0000
0000
0000
0030
0000
1000
0001
0010
0100
1000
0001
1000
0001
,
0200
0000
0000
0000
0000
0300
0001
1000
0020
0000
0130
0000
0101
0000
0000
1001
,
0000
0000
1100
0000
0000
1001
0000
0000
0021
0000
0000
0030
0001
1000
0001
1000
,
0200
0000
0000
0000
0000
0000
1300
0000
0010
0000
1001
0000
0000
1100
0000
0000
,
0101
0000
0000
1001
0000
0000
0001
1000
0010
1000
0001
1000
0010
0000
0000
0000
,
0210
0000
0000
0000
0000
0000
0000
0000
0000
0300
0010
0100
0010
0000
1000
0000
0000
0000
0001
0000
0000
0000
0010
0100
,
0010
0000
0001
0000
0000
0000
1000
0000
0000
0000
0010
0100
0010
0000
1000
0000
0001
0000
0010
0000
0000
0100
0000
0000
,
2000
0000
0000
0000
3010
0000
0000
1000
0000
0000
1000
0000
0002
0000
0000
0000
0013
0000
0000
0001
0000
0000
0001
0000
,
1000
0000
0010
0100
0001
0000
0010
0100
1000
0001
0010
0100
1000
0100
0010
0001
,
2000
0000
3010
0000
0002
0000
0003
0010
1000
0000
0100
0020
0000
0030
0001
1000
,
0000
0100
0010
0000
2000
0000
3010
0000
0001
0010
0000
0001
2000
0000
3100
0000
,
0020
0000
0031
0000
2000
0000
3010
0100
0000
2000
0000
3100
0002
0000
1003
0001
,
0000
0010
0000
0100
0010
0000
0001
0010
0000
0001
0000
1000
0001
1000
0001
1000
,
0100
0000
0100
0010
0000
0010
0001
0000
0001
1000
0000
1000
0010
0100
0001
1000
,
0010
0000
0010
0100
0000
0100
0001
0000
0001
1000
0000
1000
0100
0010
0002
0003
,
0200
0000
2300
0000
3002
0000
0023
0000
1030
0010
1000
0010
1000
0001
1000
0001
,
0200
0300
0001
0200
0300
0001
2000
3000
0001
0010
0100
1000
0020
0000
0000
0000
,
0130
0000
0000
0000
0000
0000
0010
1000
,
0000
0000
0000
0000
0000
0001
0000
0000
,
0010
0000
0000
0001
0000
0000
1000
0100
1000
0100
0000
0000
0000
0000
0000
1000
0000
0000
0000
0000
0000
0010
0000
0000
,
0000
0000
0000
0000
0000
0100
0000
0001
,
1000
0100
0010
0001
0100
0010
0000
1000
,
0001
0000
0010
0000
0100
0000
1000
0000
0001
0000
0100
0000
0000
0000
0010
1000
,
0001
0100
0010
1000
0001
0010
0000
0100
,
1000
0010
0100
0001
0010
0200
0300
1000
,
0001
0100
0010
1000
0001
0000
0010
0002
0003
0010
0001
0010
0100
0000
1000
0200
,
0300
1000
0100
1000
0001
0000
0100
0001
0100
0001
0100
0010
0000
0000
0000
0000
,
1000
0010
0100
0001
1000
0000
0100
2000
3000
0100
1000
0100
0010
0000
0001
0020
,
0030
0001
0010
0001
1000
0000
0010
1000
0010
1000
0010
0100
0000
0000
0000
0000
,
1002
0000
0000
0023
0000
0000
2030
0000
3002
0000
0000
0203
0000
0000
2300
0000
,
3020
0000
0000
0032
0000
0000
2003
0000
3200
0000
0000
0302
0000
0000
0023
0000
,
2030
3002
0203
2300
3020
0032
2003
3200
,
0302
0000
0000
0000
1003
0000
1000
0000
0200
0000
0300
0000
1000
0100
0010
0002
,
2000
0000
0000
0000
3003
0000
0001
1000
0010
0000
0000
0100
0000
0000
0001
0000
,
0202
0000
0000
0000
0303
0000
1000
0001
0010
0000
0000
0100
0000
0000
1000
0000
,
2200
0000
0000
0000
3300
0000
0001
0100
0010
0000
0000
1000
0000
0001
0000
0000
,
0011
0000
0000
0010
0000
0000
0100
0000
1100
0000
0000
1000
0000
0000
0010
0000
,
2020
0000
0000
0000
3030
0000
0010
0100
0001
0000
0000
1000
0000
0000
0100
0000
,
1100
0000
0000
0001
0000
0000
0101
0000
0000
1000
0000
0000
1010
0000
0001
0000
,
0022
0000
0000
0000
0033
0000
0010
0100
1000
0001
0100
0010
1000
0000
0000
0000
,
1001
0000
0000
0001
0000
0000
0010
0000
0022
0000
0033
0000
1000
0100
0010
0002
,
2000
0000
3003
0000
0001
1000
0010
0100
0001
0000
0001
0010
0000
0010
0100
0000
,
0220
0000
0330
0000
0100
1000
0001
0100
0010
0000
0010
1000
0000
1000
0001
0000
,
0022
0000
0033
0000
0001
0100
0010
0000
1010
0000
1000
0100
0000
0100
0010
0000
,
0011
0000
0001
1000
0000
1000
0010
0000
0110
0000
0100
0001
0000
0001
1000
0000
,
2200
0000
3300
0000
0100
0010
0001
1000
0010
0000
0010
1000
0000
1000
0001
0000
,
0202
0000
0303
0000
0100
0001
1000
0000
0100
0000
0000
0110
0000
0000
1001
0000
,
1020
0000
0000
0000
0000
0000
0001
0000
0000
0000
0030
1000
0010
1000
0010
1000
,
0001
1000
0001
1000
0001
0010
0001
0020
0200
0000
0000
0000
0000
0000
0330
0000
,
2100
0000
3000
2001
0000
3000
2010
0000
3001
0000
0012
0000
0003
1002
0000
0003
,
0102
0003
0102
0000
0003
1002
0000
0003
0012
0003
0001
0010
0100
1000
0010
0000
,
0210
0000
0300
1200
0000
0300
0210
0000
0301
0000
1020
0000
0030
0120
0000
0030
,
0021
0030
0021
0000
0030
0120
0000
0030
1020
0030
0010
1000
0001
0010
0100
0000
,
0100
1000
0100
1000
0100
1000
0001
0010
0001
0000
1000
0010
1000
0010
1000
0010
,
0100
0001
0100
0000
0001
1000
0001
1000
0001
1000
0010
0100
0010
0000
1000
0000
,
0001
0000
0100
0000
0001
0000
1000
0000
0100
0000
1000
0000
0001
0000
0010
0000
0100
0000
1000
0000
0000
0001
0000
0000
,
0200
0000
0000
0020
0000
0000
0000
0000
,
0000
0000
0000
0330
,
0000
0000
0000
0000
;
#NOTES:
     dance-double:
     :
     Easy:
     8:
     :
00000000
00000000
00000000
00000000
,
00000000
00000000
00000000
00000000
,
00000000
00000000
00000000
00000000
,
00000000
00000000
00000000
00000000
,
00000000
00000000
00000000
00000000
,
00011000
00000000
00010000
00000200
,
00000300
00001000
00000002
00000003
,
00000010
00002000
00003000
00010000
,
00200000
00000000
10300000
00000000
,
10000000
01000000
00010000
00001000
,
00010000
00000010
00001000
00000000
,
00000001
00000100
00001000
00010000
,
00001000
00010000
00200000
00300000
,
20000000
00000000
00000000
30000000
02000000
00000000
00000000
03000000
,
00200000
00000000
00000000
00300000
00020000
00000000
00000000
00030000
,
00002000
00003000
00000200
00000300
00000020
00000030
00000002
00000003
,
00001000
00001000
00000010
00010000
,
00002000
00000000
00013000
00000000
00000000
00001000
01000000
00000000
,
00000000
00000000
00010000
00000000
00000000
10000000
01000000
00000000
,
00020000
00000000
00031000
00000000
00000000
00010000
00000100
00000000
,
00000000
00000000
00001000
00000000
00000000
00000001
00000100
00000000
,
00002000
00000000
00013000
00000000
00000000
00001000
00100000
00000000
,
00000000
00000000
00010000
00000000
00000000
10000000
00100000
00000000
,
00020000
00000000
00031000
00000000
00000000
00010000
00000010
00000000
,
00001000
00000001
00000100
00002000
,
00003000
00000000
00010000
00000000
00000000
00010000
00000100
00000000
,
00000000
00000000
00001000
00000000
00000000
00000001
00000100
00000000
,
00002000
00000000
00013000
00000000
00000000
00001000
01000000
00000000
,
00000000
00000000
00010000
00000000
00000000
10000000
01000000
00000000
,
00020000
00000000
00000000
00000000
00000000
00000000
00000000
00030000
00000000
00000000
00010000
00000000
00001000
00000000
00000000
00000000
,
00000000
00000000
00000010
00000000
00000000
00000001
00000100
00000000
,
00002000
00000000
00010000
00000000
,
02003000
00000000
03010000
10000000
,
00020000
00030000
00100000
00001000
,
00000000
00001000
00000000
00000000
00001000
00000000
00000000
00000000
,
00020000
00000000
00000000
00000000
00030000
00000000
00000000
00000000
00000020
00000000
00000000
00000000
00000000
00000030
00000000
00000000
,
00002000
00000000
00000000
00003000
00000001
00000000
00000001
00000000
,
00000020
00000000
00000000
00000000
00000000
00000030
00000000
00000000
00000100
00000000
00000000
00000000
00000000
00000000
00000000
00000000
,
00001000
00000000
00000100
00010000
,
00002000
00003000
00000000
00020000
00030000
00000000
,
00100000
00100000
10000000
00010000
,
10000000
10000000
01000000
00010000
,
00001000
00001000
00010000
00000000
,
00001000
00001000
00000100
00000001
,
00001000
00001000
00000010
00000000
,
00010000
00000000
00000000
00010000
00000000
00000000
00010000
00000000
,
00001000
00000000
00000000
00001000
00000000
00000000
00001000
00000000
,
02000000
03000000
00020000
00030000
20000000
30000000
02000000
03000000
,
00100000
00100000
01000000
00020000
,
00031000
00000000
00000000
00010000
,
00000000
00000000
00000000
00000000
,
00000010
00000000
00001000
00000000
00000000
00000000
00000000
00000001
,
00000000
00000000
00000000
00000000
,
00002000
00000000
00000100
00000000
,
00000001
00000000
00000010
00000000
,
00023000
00000000
01000000
00000000
,
10000000
00000000
00130000
00010000
,
10000000
01000000
00010000
00001000
,
00010000
00000010
00001000
00000000
,
00000001
00000100
00001000
00010000
,
00001000
00010000
00200000
00300000
,
20000000
00000000
00000000
30000000
02000000
00000000
00000000
03000000
,
00200000
00000000
00000000
00300000
00020000
00000000
00000000
00030000
,
00002000
00003000
00000200
00000300
00000020
00000030
00000002
00000003
,
00001000
00001000
00000010
00010000
,
00002000
00003000
00010000
00100000
,
20000000
30000000
01000000
00010000
,
00002000
00003000
01000000
00001000
,
00010000
00000100
00001000
00000001
,
00000020
00000030
00001000
00010000
,
00001000
00000000
00000000
00001000
00000000
00000000
00001000
00000000
,
02000000
03000000
00010000
10000000
,
01000000
01000000
00020000
00031000
,
00020000
00030000
00001000
00000010
,
00000002
00000003
00000100
00001000
,
00020000
00030000
00001000
00100000
,
00010000
00100000
01000000
10000000
,
00200000
00300000
00010000
00001000
,
00000020
00000030
00000001
00000100
,
00002000
00000000
00000000
00003000
,
00010000
00001000
00010000
00001000
,
02000000
00000000
00000000
03000000
00001000
00000000
00010000
00000000
,
00000200
00000000
00000000
00000300
00010000
00000000
00001000
00000000
,
00200000
00000000
00000000
00300000
00001000
00000000
00010000
00000000
,
00000020
00000000
00000000
00000030
00010000
00000000
00001000
00000000
,
00000100
00000000
00000000
00000001
00000000
00000001
00000000
00000000
,
00000010
00000000
00000010
00000000
00000000
00001000
00000000
00000000
,
00010000
00100000
10000000
01000000
,
00200000
00000000
00000000
00000000
,
00000000
00000000
00000000
00300000
,
00000000
00000000
00000000
00000000
;
#NOTES:
     dance-double:
     :
     Medium:
     13:
     :
00000000
00000000
00000000
00000000
,
00000000
00000000
00000000
00000000
,
00000000
00000000
00000000
00000000
,
00000000
00000000
00000000
00000000
,
00000000
00000000
00000000
00000000
,
00011000
00000000
00001000
01000000
00010000
00000000
20000000
00000000
,
30000000
00000000
01000000
00000000
00200000
00000000
00300000
00010000
,
00000000
00000000
00100000
00001000
00000000
00000000
00001000
00000000
,
00020000
00000000
00000000
00030100
00000000
00000000
00000000
00000000
,
00010000
00001000
00000010
00000001
00000100
00001000
00010000
00001000
,
00100000
00000000
00010000
00000000
10000000
00000000
00010000
00000000
01000000
00000000
00001000
00010000
00000000
00000000
00000000
00000000
,
00001000
00010000
00100000
10000000
01000000
00010000
00001000
00010000
,
00000010
00000000
00001000
00000000
00000001
00000000
00001000
00000000
00000100
00000000
00010000
00001000
00000000
00000000
00000000
00000000
,
00010000
00000000
00000000
00000010
00000000
00000000
00001000
00000000
00000002
00000000
00000000
00000103
00000000
00000000
00001000
00000000
,
00020000
00000000
00000000
00031000
00000000
00000000
00100000
00000000
00020000
00000000
00000000
10030000
00000000
00000000
00010000
00000000
,
02000000
03002000
00023000
00030020
00002030
00003200
00000320
00000032
,
00001003
00000010
00010000
00001000
00100000
00010000
10000000
00000000
,
20010000
00000000
00000000
00000000
30100000
00000000
01000000
00010000
00000000
00000000
10000000
00000000
00100000
00000000
01000000
00010000
,
00000000
00000000
01000000
00000000
00100000
00000000
00010000
00001000
00000000
00000000
00010000
00000000
00000010
00000000
00000000
00000000
,
00001002
00000000
00000000
00000000
00000013
00000000
00000100
00001000
00000000
00000000
00000001
00000000
00000010
00000000
00000100
00001000
,
00000000
00000000
00000100
00000000
00000010
00000000
00001000
00010000
00000000
00000000
00001000
00000000
00100000
00000000
00000000
00000000
,
20010000
00000000
00000000
00000000
31000000
00000000
00100000
00010000
00000000
00000000
10000000
00000000
01000000
00000000
00100000
00010000
,
00000000
00000000
00100000
00000000
01000000
00000000
00010000
00001000
00000000
00000000
00010000
00000000
00000100
00000000
00000000
00000000
,
00001002
00000000
00000000
00000000
00000103
00000000
00000010
00001000
00000000
00000000
00000001
00000000
00000100
00000000
00000010
00000000
,
00010000
00001000
01000000
00001000
00001000
00010000
00000100
00001000
,
00000000
00000000
00000001
00000000
00000010
00000000
00000100
00001000
00000000
00000000
00000001
00000000
00000010
00000000
00000100
00001000
,
00000000
00000000
00000100
00000000
00000010
00000000
00001000
00010000
00000000
00000000
00001000
00000000
00100000
00000000
00000000
00000000
,
20010000
00000000
00000000
00000000
30100000
00000000
01000000
00010000
00000000
00000000
10000000
00000000
00100000
00000000
01000000
00010000
,
00000000
00000000
01000000
00000000
00100000
00000000
00010000
00001000
00000000
00000000
00010000
00000000
00000010
00000000
00000000
00000000
,
00002002
00000000
00000000
00000000
00003003
00000000
00000001
00001000
00000000
00000000
00000001
00000000
00000100
00000000
00000010
00001000
,
00000000
00000000
00000010
00000000
00000100
00000000
00001000
00010000
00000000
00000000
00001000
00000000
01000000
00000000
00000000
00000000
,
20010000
32000000
03020000
00032000
,
00003200
00000000
00000000
00000300
00000001
00000010
00000100
00001000
,
00000200
00000000
00000000
00000000
00000300
00000000
00010000
00000000
00001000
00000000
00000000
00000000
00100000
00000000
00000000
00100000
,
00000000
00000000
00010000
00000000
00000000
00010000
00000000
00000000
10000000
00000000
00000000
00000000
00020000
00000000
00000000
00000000
,
02030000
00000000
00000000
00000000
03000000
00000000
00001000
00000000
00010000
00000000
00000010
00000000
00000000
00000010
00000000
00000000
,
00001000
00000000
00000000
00001000
00000000
00000000
00000001
00000000
00000100
00000000
00001000
00000000
00010000
00000000
00000000
00000000
,
00000020
00000000
00000000
00000000
00000030
00010000
00001000
01000000
00000000
00001000
00000000
00001000
,
00010000
00000100
00000000
00010000
00000000
00010000
00001000
00100000
00001000
00100000
00000000
00000000
,
00010000
00000000
00000000
00000000
01000000
00000000
00000000
00100000
00000000
00000000
10000000
00000000
00010000
00000000
00000000
00000000
00100000
00000000
00000000
00001000
00000000
00000000
00010000
00000000
,
00000100
00001000
00000100
00001000
00000001
00000010
00000100
00001000
,
00000100
00000000
00010000
00000000
00001000
00000000
01000000
00000000
00010000
00000000
00000000
10000000
00000000
00000000
00000000
00000000
,
00010000
10000000
01000000
00100000
00010000
00100000
00001000
00000000
,
01000000
00000000
00001000
00000000
00010000
00000000
00000000
00000000
00000100
00000000
00001000
00000000
00000001
00000000
00000000
00000100
,
00000000
00000100
00000000
00000000
00000020
00000000
00000000
00000000
00001030
00000000
00000010
00000000
00010000
00000000
00001000
00000000
,
00010000
00000000
00000000
01000000
00000000
00000000
10000000
00000000
00000000
00100000
00000000
00000000
00020000
00000000
00030000
00000000
,
00001000
00000000
00000000
00000100
00000000
00000000
00000001
00000000
00000000
00000010
00000000
00000000
00002000
00000000
00003000
00000000
,
00010000
00001000
01000000
00010000
10000000
01000000
00010000
00001000
,
00010000
00000000
00000000
00010000
00000000
00000000
00010000
00000000
00000010
00000000
00001000
00000000
00000002
00000000
00000000
00000000
,
00000103
00000000
00000000
00000000
00000000
00000000
00000010
00000100
,
00000000
00000000
00000000
00000000
00000000
00000001
00000000
00000000
,
00000010
00000001
00001000
00000100
00000000
00010000
00000000
00001000
,
00000000
00000000
00000000
00000000
00000000
01000000
00000000
00010000
,
00020000
01000000
10000000
00100000
,
00032000
00000100
00000001
00000010
,
00023000
01000000
10000000
00100000
,
00032000
00000100
00003100
00010000
,
00010000
00001000
00000010
00000001
00000100
00001000
00010000
00001000
,
00100000
00000000
00010000
00000000
10000000
00000000
00010000
00000000
01000000
00000000
00001000
00010000
00000000
00000000
00000000
00000000
,
00001000
00010000
00100000
10000000
01000000
00010000
00001000
00010000
,
00000010
00000000
00001000
00000000
00000001
00000000
00001000
00000000
00000100
00000000
00010000
00001000
00000000
00000000
00000000
00000000
,
00010000
00000000
00000000
00000010
00000000
00000000
00001000
00000000
00000002
00000000
00000000
00000103
00000000
00000000
00001000
00000000
,
00020000
00000000
00000000
00031000
00000000
00000000
00100000
00000000
00020000
00000000
00000000
10030000
00000000
00000000
00010000
00000000
,
02000000
03002000
00023000
00030020
00002030
00003200
00000320
00000032
,
00002003
00000000
00003100
00010000
00002000
00003000
00100000
00010000
,
20000000
00000000
00000000
00000000
30010000
00000000
00100000
00000000
01000000
00000000
00000000
00010000
00000000
00000000
00001000
00000000
,
00000020
00000000
00000000
00000000
00000031
00000000
00001000
00000000
00000001
00000000
00000000
00000100
00000000
00000000
00001000
00000000
,
00020000
00000000
00000000
00000000
00031000
00000000
00100000
00000000
00010000
00000000
00000000
01000000
00000000
00000000
00100000
00000000
,
10000000
00000000
00000000
01000000
00000000
00000000
00010000
00000000
00001000
00000000
00000000
00000010
00000000
00000000
00000001
00000000
,
00002000
00000000
00000000
00000000
00003010
00000000
00010000
00000000
00001000
00000000
00000000
01000000
00000000
00000000
00010000
00000000
,
10000000
00000000
00000000
00100000
00000000
00000000
01000000
00000000
00000000
00100000
00000000
00000000
00010000
00000000
00001000
00000000
,
02000000
00000000
03010000
01000000
00001000
00010000
00000200
00000000
,
00001300
00000000
00000000
00000100
00000000
00000000
00000010
00000000
00000002
00000000
00000003
00000000
00001000
00000000
00000100
00000000
,
00020000
00000000
00030000
00000000
00012000
00000000
00000000
00000000
00013000
00000000
00000000
00100000
00000000
00000000
10000000
00000000
,
00020000
00000000
00000000
00000000
01030000
00000000
00100000
00000000
00010000
00000000
00000000
00001000
00000000
00000000
00100000
00000000
,
00002000
00000000
00000000
00000000
00013000
00000000
00000100
00000000
00001000
00000000
00000000
00000001
00000000
00000000
00000010
00000000
,
00000001
00000000
00000000
00000100
00000000
00000000
00001000
00000000
00010000
00000000
00000000
00100000
00000000
00000000
10000000
00000000
,
00020000
00000000
00000000
00000000
00130000
00000000
00001000
00000000
00010000
00000000
00000000
00000100
00000000
00000000
00001000
00000000
,
00000002
00000000
00000000
00000000
00000013
00000000
00000100
00000000
00001000
00000000
00000000
00000100
00000000
00000000
00010000
00000000
,
00002000
00000000
00000000
01000000
00000000
00000000
00013000
00001000
,
00100000
00010000
10000000
00100000
20000000
00000000
00000000
00000000
,
31000000
00000000
00000000
01000000
00000000
00000000
01000000
00000000
00010000
00000000
00001000
00000000
00000000
00001000
00000000
00000000
,
00001000
00000000
00000010
00000000
00000000
00000010
00000000
00000000
00000010
00000000
00000001
00000000
00000100
00000000
00001000
00000000
,
00010000
00000000
00000000
00010000
00000000
00000000
00010000
00000000
00100000
00000000
10000000
00000000
00000000
10000000
00000000
00000000
,
10000000
00000000
01000000
00000000
00000000
01000000
00000000
00000000
01000000
00000000
00010000
00000000
00001000
00000000
00000010
00000000
,
00000001
00000000
00000010
00000001
00000000
00000000
00000010
00000000
00000001
00000000
00001000
00000000
00000010
00001000
00000000
00000000
,
00000010
00000000
00010000
00000000
00001000
00000000
00010000
00001000
00000000
00000000
01000000
00000000
00010000
00000000
10000000
00000000
,
02000000
00000000
03000000
00000000
10000000
00000000
00020000
00000000
00030000
00000000
01000000
00000000
00002000
00000000
00003000
00000000
00010000
00000000
00000010
00000000
00000000
00001000
00000000
00000000
,
00000002
00000000
00000000
00000020
00000000
00000000
00000000
00000000
,
00000000
00000000
00000000
00000033
,
00000000
00000000
00000000
00000000
;
#NOTES:
     dance-double:
     :
     Hard:
     16:
     :
00000000
00000000
00000000
00000000
,
00000000
00000000
00000000
00000000
,
00000000
00000000
00000000
00000000
,
00000000
00000000
00000000
00000000
,
00000000
00000000
00000000
00011000
,
00002000
00000000
00013000
01000000
02000000
00000000
20000000
00000000
,
33000000
00000000
10000000
00000000
00200000
00000000
00300000
00020000
,
00000000
00030000
00001000
00000200
00000300
00000000
00000001
00000000
,
00002001
00000000
00000000
00003100
00000000
00000000
00000000
00000000
,
00010000
00000100
00010000
00001000
00100000
00000000
00010000
00200000
00300000
00010000
00100000
00010000
10000000
00000000
00100000
20000000
,
30000000
00100000
10000000
00100000
01000000
00000000
00010000
01000000
00010000
01000000
00001000
00010000
00000000
00000000
00000000
00000000
,
00001000
01000000
00001000
00010000
00000010
00000000
00001000
00000020
00000030
00001000
00000010
00001000
00000001
00000000
00000010
00000002
,
00000003
00000010
00000001
00000010
00000100
00000000
00001000
00000100
00001000
00000100
00010000
00001000
00000000
00000000
00000000
00000000
,
00021000
00000000
00000000
00230000
00000000
00000000
20300000
00000000
32000000
00000000
00000000
03020000
00000000
00000000
00032000
00000000
,
00003200
00000000
00000000
00000302
00000000
00000000
00000023
00000000
00002030
00000000
00000000
00023000
00000000
00000000
00230000
00000000
,
20300000
32000000
03200000
00320000
00032000
00003200
00000320
00000032
,
00001003
00000000
00000010
00000000
00010000
00000000
00001000
00100000
00001000
00010000
00001000
00000000
01000000
00000000
00010000
00000000
,
10020000
00000000
00000000
00000000
00130000
00000000
01000000
10000000
00000000
00000000
00020000
00000000
00130000
00000000
00001000
00020000
,
00000000
00030000
00002000
00000000
00003010
00000000
00000001
00001000
00000000
00000000
00000100
00000000
00000010
00000100
00001000
00000100
,
00020000
00000000
00000000
00000000
00030010
00000000
00010000
00001000
00000000
00000000
00010000
00000000
00200000
00000000
01300000
00001000
,
00000000
00000000
00000000
00000000
00000000
00000000
00020000
00000000
00000000
00000000
00000000
00000000
00030010
00000000
00000000
00000000
00000000
00000000
00010000
00000000
00000000
00001000
00000000
00000000
00000000
00000000
00000000
00000000
00000000
00000000
00020000
00000000
00000000
00000000
00000000
00000000
00130000
00000000
00000000
00000000
01000000
00000000
00000000
00000000
00010000
00000000
00000000
00000000
,
20000000
00000000
00000000
00000000
31000000
00000000
00010000
00001000
00000000
00000000
00020000
00000000
01030000
00000000
00010000
00001000
,
00000000
00000000
00010000
00000000
00000100
00000000
00001000
00000001
00000000
00000000
00000020
00000030
00000100
00000010
00000001
00001000
,
00000020
00000000
00000000
00000000
00000130
00000000
00001000
00010000
00000000
00000000
00100000
00000000
02000000
00000000
03020000
00000000
,
10030000
00000000
10000000
00000000
01000000
00000000
00100000
00000000
00010000
00100000
00001000
00010000
00000100
00001000
00000001
00000010
,
00000000
00000000
00002001
00000000
00003010
00000000
00000100
00000001
00000000
00000000
00002000
00000000
00003010
00000000
00010000
00002000
,
00000000
00003000
00020000
00000000
00130000
00000000
10000000
00010000
00000000
00000000
01000000
00000000
00100000
01000000
00010000
01000000
,
00002000
00000000
00000000
00000000
00103000
00000000
00001000
00010000
00000000
00000000
00000100
00000000
00000020
00000000
00001030
00010000
,
00000000
00000000
00000000
00000000
00000000
00000000
00002000
00000000
00000000
00000000
00000000
00000000
00103000
00000000
00000000
00000000
00000000
00000000
00001000
00000000
00000000
00010000
00000000
00000000
00000000
00000000
00000000
00000000
00000000
00000000
00002000
00000000
00000000
00000000
00000000
00000000
00003010
00000000
00000000
00000000
00000100
00000000
00000000
00000000
00001000
00000000
00000000
00000000
,
00000002
00000000
00000000
00000000
00000000
00000000
00001003
00000010
00000000
00000000
00000020
00000000
00000130
00000000
00001000
00010000
,
00000000
00000000
00001000
00000000
01000000
00000000
00010000
10000000
00000000
00000000
00200000
00300000
01000000
00100000
10000000
00010000
,
20000000
01000000
01000000
01000000
30020000
00100000
00230000
00001000
,
00302000
00000000
00000000
00000000
00000000
00000000
00003000
00000000
00010000
00000010
00001000
00000001
00000010
00000100
00001000
00000100
,
00020000
00000000
00000000
00000000
00000000
00030000
00001000
00100000
00020000
00000000
10030000
00000000
10100000
00000000
00000000
00110000
,
00000000
00000000
00011000
00000000
00000000
00001100
00000000
00000000
00000201
00000000
00000000
00000300
00000010
00001000
00000010
00010000
,
00002000
00000000
00000000
00000000
00000000
00000000
00003010
00000000
00000001
00000000
00000101
00000000
00000000
00001100
00000000
00000000
,
00011000
00000000
00000000
00110000
00000000
00000000
10000000
00010000
01000000
00001000
01000000
00001000
00010000
00000000
00000000
00000000
,
00021000
00000000
00000000
00000000
00000000
00000000
00000000
00000000
00000000
00030000
00000010
00001000
00000010
00000000
00010000
00000000
00000000
00000000
00001000
00000000
00000000
00000000
00100000
00010000
,
00100000
00000000
00001000
00000000
00000000
00000000
00010000
00000000
00000000
00000000
00000010
00001000
00000010
00000000
00000100
00000000
00000001
00000000
00000010
00000000
00000000
00001000
00000000
00000000
,
00020000
00000000
00000000
00000000
00031000
00000000
00000000
01000000
00000000
00000000
01000000
00000000
00020000
00000000
00000000
00000000
10030000
00000000
00000000
01000000
00000000
00000000
01000000
00000000
,
00100000
00000000
00001000
00010000
00000010
00000000
00001000
00000010
00000100
00000001
00001000
00000100
00010000
00001000
00100000
00010000
,
20000000
00000000
30100000
00000000
00020000
00000000
00030000
00001000
00010000
00000000
00000010
00002000
00000000
00003000
00000001
00000010
,
00000000
00000100
00000010
00000000
00002000
00000000
00013000
00000000
00001000
00100000
00000000
00010000
20000000
00000000
31000000
00000000
,
00020000
00000000
00031000
00000000
00200000
00000000
00301000
00010000
00000000
00002000
00000000
00013000
00000020
00000000
00001030
00000001
,
00000000
00000010
00000000
00000100
00000010
00000000
00000001
00001000
00000000
00000100
00000000
00010000
00001000
00010000
00001000
00010000
,
00001000
00000000
00001000
00100000
00000000
00100000
00010000
00000000
00010000
10000000
00000000
10000000
02000000
03000000
00010000
00001000
,
00010000
00000000
00010000
00000010
00000000
00000010
00001000
00000000
00001000
00000001
00000000
00000001
00000100
00000010
00002000
00003000
,
00000020
00000000
00000230
00000000
00002300
00000000
00023000
00000000
00130000
01000000
00100000
01000000
00010000
10000000
00010000
10000000
,
02000000
03000000
00100000
00020000
00030000
00100000
00002000
00003000
00010000
00000010
00001000
00000010
00000200
00000000
00000000
00000000
,
00000301
00000000
00000000
00000000
00000000
00000000
00000010
00000001
,
00000000
00000000
00000000
00000000
00000000
00001000
00000000
00000000
,
00000010
00000000
00000000
00010000
00000000
00000000
00001000
00010000
00001000
00010000
00000000
00000000
00000000
00000000
00000000
00100000
00000000
00000000
00000000
00000000
00000000
10000000
00000000
00000000
,
00000000
00000000
00000000
00000000
00000000
00010000
00000000
01000000
,
00020000
01000000
00000000
10000000
00000000
00100000
00000000
00032000
,
00000000
00000100
00000000
00000001
00000000
00000010
00000000
00023000
,
00000000
01000000
00000000
10000000
00000000
00100000
00000000
00032000
,
00000000
00000100
00000000
00000001
00000000
00003020
00000030
00000010
,
00010000
00000010
00010000
00001000
01000000
00000000
00010000
02000000
03000000
00010000
01000000
00010000
10000000
00000000
01000000
20000000
,
30000000
01000000
10000000
01000000
00100000
00000000
00010000
00100000
00010000
00100000
00001000
00010000
00000000
00000000
00000000
00000000
,
00001000
00100000
00001000
00010000
00000100
00000000
00001000
00000200
00000300
00001000
00000100
00001000
00000001
00000000
00000100
00000002
,
00000003
00000100
00000001
00000100
00000010
00000000
00001000
00000010
00001000
00000010
00010000
00001000
00000000
00000000
00000000
00000000
,
00021000
00000000
00000000
02030000
00000000
00000000
23000000
00000000
30200000
00000000
00000000
00320000
00000000
00000000
00032000
00000000
,
00003020
00000000
00000000
00000032
00000000
00000000
00000203
00000000
00002300
00000000
00000000
00023000
00000000
00000000
02030000
00000000
,
23000000
30200000
02300000
03020000
00032000
00003020
00000230
00000302
,
00000023
00000000
00000000
00000000
00001030
00000000
00010000
00000000
00200000
00000000
00300000
00000000
10000000
01000000
00100000
00020000
,
20000000
00000000
00000000
00000000
30030000
00000000
00010000
10000000
00100000
00000000
00000000
00010000
00000000
00000000
00001000
00000000
,
00022000
00000000
00000000
00000000
00033000
00000000
00010000
00001000
00100000
00000000
00000000
00001000
00000000
00000000
00000010
00000000
,
00000022
00000000
00000000
00000000
00000033
00000000
00000001
00001000
00000010
00000000
00000000
00000100
00000000
00001000
00000000
00000000
,
00011000
00000000
00000000
00010000
00000000
00000000
00001000
00000000
01001000
00000000
00000000
01000000
00000000
00000000
00100000
00000000
,
20200000
00000000
00000000
00000000
30300000
00000000
10000000
00010000
01000000
00000000
00000000
00001000
00000000
00000000
00000100
00000000
,
00000110
00000000
00000000
00000001
00000000
00000000
00000011
00000000
00000000
00000010
00000000
00000000
00001000
00000000
00010000
00000000
,
00022000
00000000
00000000
00000000
00033000
00000000
00001000
00100000
00010000
00100000
01000000
10000000
00010000
00000000
00000000
00000000
,
00101000
00000000
00000000
00001000
00000000
00000000
00000010
00000000
00000022
00000000
00000033
00000000
00000001
00000010
00000100
00002000
,
00000002
00000000
00003003
00000000
00001000
00000001
00000100
00000010
00001000
00000000
00001000
00000100
00000000
00000100
00010000
00000000
,
00022000
00000000
00033000
00000000
00001000
00010000
00001000
00100000
00010000
00000000
00010000
10000000
00000000
10000000
00100000
00000000
,
20200000
00000000
30300000
00000000
10000000
00010000
01000000
00000000
01001000
00000000
00001000
00010000
00000000
00010000
00000010
00000000
,
00001010
00000000
00001000
00000001
00000000
00000001
00001000
00000000
00001100
00000000
00000100
00010000
00000000
00010000
00001000
00000000
,
00022000
00000000
00033000
00000000
00001000
00100000
00010000
10000000
00100000
00000000
00100000
10000000
00000000
10000000
00010000
00000000
,
00220000
00000000
00330000
00000000
00100000
00001000
00010000
00000100
00001000
00000000
00000000
00001001
00000000
00000000
00001010
00000000
,
00020010
00000000
00000000
00000000
00000000
00000000
00001000
00000000
00000000
00000000
00030000
00000010
00010000
00001000
00010000
00001000
,
00100000
00010000
00100000
00010000
10000000
00100000
10000000
00200000
02000000
00000000
00000000
00000000
00000000
00000000
03300000
00000000
,
01020000
00000000
00000000
10000000
00000000
00000000
00130000
00000000
00020000
00000000
00032000
00000000
00000000
00000100
00000000
00000000
,
00000001
00000000
00000010
00000000
00000000
00023000
00000000
00000000
02030000
03000000
00010000
01000000
00001000
00010000
00000100
00000000
,
00002100
00000000
00000000
00000001
00000000
00000000
00003010
00000000
00002000
00000000
00023000
00000000
00000000
01000000
00000000
00000000
,
10000000
00000000
00100000
00000000
00000000
00032000
00000000
00000000
00003200
00000300
00001000
00000100
00010000
00001000
01000000
00000000
,
00010000
10000000
00010000
10000000
00010000
10000000
00010000
00100000
00001000
00000000
00010000
00001000
00010000
00001000
00010000
00001000
,
00010000
00000010
00001000
00000000
00000001
00001000
00000001
00001000
00000001
00001000
00000001
00000010
00000100
00000000
00001000
00000000
,
00000100
00000000
00010000
00000000
00001000
00000000
01000000
00000000
00001000
00000000
00010000
00000000
00000010
00000000
00010000
00000000
00001000
00000000
00100000
00000000
00000000
00010000
00000000
00000000
,
20000000
00000000
00000000
00200000
00000000
00000000
00000000
00000000
,
00000000
00000000
00000000
30300000
,
00000000
00000000
00000000
00000000
;
