
//----- song ID: fixe -----//
#TITLE:fixer;
#ARTIST:PHQUASE vs. dj TAKA;
#BANNER:fixer.png;
#BACKGROUND:fixer-bg.png;
#CDTITLE:./CDTitles/DDR WORLD.png;
#MUSIC:fixer.ogg;
#SAMPLESTART:95.634;
#SAMPLELENGTH:15;
#DISPLAYBPM:90:215;
#BPMS:0=150,12=129.87,13=130.152,14=134.983,16=139.969,19=125,20=120,24=110.092,25=100,26=89.955,27=75,31=174.419,32=215,133=215.054,134=180.011,150=200,176=150,212=160;
#NOTES:
     dance-single:
     :
     Beginner:
     5:
     :
0000
0000
0000
0000
,
0000
0000
0000
0000
,
0000
0000
0000
0000
,
0000
0000
0000
0000
,
0000
1000
1000
0001
,
0001
0000
0000
0000
,
0000
0000
0000
0200
,
0000
0000
0000
0000
0000
0000
0000
0000
0000
0300
0000
0000
0000
0000
0000
0000
,
0001
0000
0001
0000
,
1000
0000
0000
0000
,
0010
0000
0010
0000
,
0100
0000
0000
0000
,
0001
0000
0001
0000
,
1000
0000
0000
0000
,
0001
0000
0010
0000
,
0100
0000
0000
0000
,
1000
0000
1000
0000
,
1000
0000
0000
0000
,
0001
0000
0001
0000
,
0001
0000
0000
0000
,
0100
0000
0000
0000
,
0010
0000
0000
0000
,
1000
0000
0001
0000
,
0100
0000
0010
0000
,
0010
0000
0000
0000
,
0000
0000
0000
0000
,
1000
0000
0001
0000
,
0100
0000
0000
0000
,
0010
0000
1000
0000
,
0001
0000
0000
0000
,
0100
0000
0001
0000
,
1000
0000
0000
0000
,
0010
0000
0010
0000
,
1000
0000
0001
0000
,
0001
0000
0000
0000
,
1000
0000
0000
0000
,
0001
0000
0000
0000
,
0100
0000
0000
0000
,
0001
0000
0001
0000
,
1000
0000
1000
0000
,
0010
0000
0010
0000
,
0200
0000
0000
0000
,
0000
0000
0000
0000
,
0000
0000
0000
0000
,
0300
0000
0000
0000
,
0001
0000
0000
0000
,
0001
0000
0000
0000
,
0001
0000
0000
0000
,
0001
0000
0000
0000
,
0001
0000
0001
0000
,
0001
0000
0001
0000
,
0001
0001
0001
0001
,
0001
0000
0000
0000
,
1000
0000
0000
0000
,
0010
0000
0000
0000
,
1000
0000
0000
0000
,
0001
0000
0000
0000
,
0100
0000
0000
0000
,
0001
0000
0000
0000
,
1000
0000
0000
0000
,
0010
0000
0000
0000
,
0100
0000
0100
0000
,
0100
0000
0000
0000
,
0010
0000
0010
0000
,
0010
0000
0000
0000
,
0100
0000
0100
0000
,
0100
0000
0000
0000
,
0010
0000
0010
0000
,
0010
0000
0000
0000
,
1000
0000
0001
0000
,
0100
0000
0000
0000
,
0001
0000
1000
0000
,
0010
0000
0000
0000
,
1000
0000
0100
0000
,
0010
0000
0000
0000
,
0001
0000
0010
0000
,
0100
0000
0000
0000
,
1000
1000
0000
0000
,
0001
0001
0000
0000
,
0100
0100
0000
0000
,
0010
0010
0000
0000
,
1000
0000
0001
0000
,
1000
0000
0001
0000
,
0100
0000
0010
0000
,
0020
0000
0000
0030
,
0000
0000
0000
0000
;
#NOTES:
     dance-single:
     :
     Easy:
     10:
     :
0000
0000
0000
0000
,
0000
0000
0000
0000
,
0000
0000
0000
0000
,
0000
0000
0000
0000
,
0000
0001
1000
0010
,
0200
0000
0000
0000
,
0000
0000
0000
0020
,
0000
0000
0000
0000
0000
0000
0000
0000
0000
0330
0000
0000
0000
0000
0000
0000
,
1001
0000
0001
0000
0100
0000
0000
0001
,
0000
0000
1000
0000
0010
0010
0000
0000
,
0000
1000
0000
0001
0001
0000
0000
0100
,
0100
0000
0000
0001
0000
0010
0010
0000
,
0110
0000
0001
0000
1000
0000
0000
0010
,
0000
1000
0001
0100
,
0000
0000
0000
0000
0010
0000
0000
0000
1000
0000
0000
0001
0000
0000
0100
0000
,
0000
0001
0001
0000
1000
0000
1001
0000
,
0001
0001
0001
0001
,
0100
0020
0200
0330
,
1010
1000
1000
1000
,
0100
0020
0200
0330
,
0011
1000
0101
1000
,
0011
1000
0101
1000
,
2010
0010
0010
3010
,
0020
0130
0110
1001
,
0001
0001
1000
1000
,
0020
0000
0000
0130
,
0001
1001
1000
0100
,
0010
0000
0001
0000
0100
0000
0010
1000
,
0000
1000
0100
0000
1000
0000
0010
0000
,
0100
0101
0011
1001
,
0100
1001
1000
0010
,
0100
0000
0001
0000
0010
0000
0100
1000
,
0000
1000
0010
0000
0100
0000
0001
0000
,
1000
0001
0200
0320
,
1030
0100
0001
0100
,
1000
0010
0001
0010
,
1000
0100
0001
0100
,
1000
0010
0200
0300
,
0001
0010
0100
1000
,
0010
0100
0001
1000
,
1100
0001
0101
1000
,
0020
0000
0000
0000
,
0000
0000
0000
0000
,
0000
0000
0000
0000
,
1030
0000
0000
0000
,
1000
0000
0100
0000
0010
0000
,
0001
1000
0100
0010
,
0001
0100
0010
1000
,
0100
1000
0100
0000
0010
0001
0010
0000
,
0001
0100
0010
1000
0010
0100
,
0001
0010
0100
1000
0100
0010
,
0001
1000
0001
1000
0001
1000
0001
1000
,
0020
0000
0000
0030
,
1000
0001
0100
0010
,
0000
1000
0000
0001
0000
0100
0000
0010
,
0000
1000
0000
1000
0000
0001
0000
0001
,
0000
0100
0000
0100
0000
0010
0000
0000
,
1000
0100
0010
0001
,
0000
1000
0000
0010
0000
0100
0000
0000
,
0001
0000
0000
0010
0000
0000
0100
0000
0000
0000
1000
0000
1000
0000
0000
0000
,
0001
0100
0010
1000
,
0002
0013
0002
0013
,
0002
1003
0002
1003
,
0002
0103
0002
0103
,
0200
0310
0200
0310
,
1000
1000
0100
0100
,
0010
0010
0001
0001
,
1000
0100
1000
0000
0001
0100
0001
0000
,
0020
0000
0000
0130
,
1000
0000
0100
1000
0010
0000
1000
0000
,
0001
0000
0100
0001
0010
0000
0001
0000
,
1000
0000
0100
1000
0010
0000
1000
0000
,
0001
0010
0100
1000
,
0001
0000
0100
0001
0000
0010
0000
0001
,
0200
0000
0310
1000
,
0001
0010
0001
0000
1000
0100
1000
0000
,
0010
1000
0001
0100
,
0001
0010
0001
0010
0000
0000
0000
0000
,
0100
1000
0100
1000
0000
0000
0000
0000
,
0010
0000
0000
0010
0000
0000
0010
0000
0000
0000
0000
0000
0000
0000
0000
0000
,
0110
0010
1010
1000
,
1001
0001
0100
0010
,
1000
0001
0010
0100
,
1000
0010
0100
0000
0001
0010
0100
0000
,
0020
0000
0000
0030
,
0000
0000
0000
0000
;
#NOTES:
     dance-single:
     :
     Medium:
     15:
     :
0000
0000
0000
0000
,
0000
0000
0000
0000
,
0000
0000
0000
0000
,
0000
0000
0000
0000
,
0000
0000
1000
0000
0001
0000
1000
0010
,
0200
0000
0000
0000
,
0302
0000
0000
2000
,
0000
0000
0000
0000
0000
0000
0000
0000
0000
3003
0000
0000
0000
0000
0000
0000
,
0110
0000
0001
1000
0010
0000
0000
1000
,
0000
0000
0000
0000
0100
0000
0010
0000
0001
0000
1000
0001
0000
0000
0000
0000
,
0000
0001
0001
0010
0100
0000
0000
1000
,
0010
0000
0000
1000
1000
0010
0100
0000
,
0101
0000
0001
0010
0100
0000
0000
1000
,
0000
0000
0000
0000
0000
0000
0001
0000
0000
0001
0000
0000
0100
0000
0010
0000
0100
0000
0010
0000
0000
0000
0000
0000
,
0000
0000
0000
0000
1000
0000
0001
0000
1000
0000
0000
0001
0000
0000
1000
0000
,
0001
1000
0001
0000
1000
0000
0100
0000
0010
0000
0000
0000
0011
0000
0000
0000
,
0001
0000
0001
0000
0001
0000
0001
1000
,
0000
0100
0000
1000
0020
0000
0000
0030
,
0110
0000
0100
0000
0100
0000
0001
0010
,
0000
0001
0000
0100
0020
0000
0000
0030
,
1000
1000
0001
0001
0100
0100
0010
0010
,
0100
0100
0001
0001
0010
0010
0100
0100
,
1100
1010
0101
0011
,
0200
0310
1001
0110
,
1001
0000
0001
0100
0010
0010
0100
0001
,
1000
0010
0200
0000
0000
0000
0310
0000
,
1000
1000
0001
0010
0100
0010
0001
1000
,
0010
0100
0001
1000
0100
1000
0001
0100
,
0010
0100
0001
0010
0100
1000
0100
1000
,
0001
0100
0010
0000
1010
0000
1001
0000
,
0001
0001
1000
0100
1000
0010
0100
0001
,
1000
0100
1000
0001
0100
0010
1000
0001
,
0010
0001
0100
0010
0100
0001
0010
0100
,
1000
0001
0100
0010
2000
0000
3002
0000
,
1003
0100
0001
0100
1000
0010
0001
0010
,
1000
0100
0001
0100
1000
0010
0001
0010
,
1000
0100
0001
0100
1000
0010
0001
1000
,
0100
0001
0010
0100
2000
0000
3000
0000
,
0001
0100
0001
0010
0100
1000
0010
1000
,
0001
0010
0001
0100
0001
1000
0100
1000
,
0010
0000
1000
0000
0001
0000
0010
0000
0001
0000
1000
0000
0001
1000
0001
1000
,
0002
0000
0000
0000
,
0000
0000
0000
0000
,
0000
0000
0000
0000
,
0013
0010
0001
1000
0010
0100
0000
0000
,
0001
0100
1000
0100
0001
0010
,
1000
0010
0001
0100
1000
0100
0001
0010
,
1000
0010
0001
0100
1000
0100
0001
0010
1000
0010
0001
1000
,
0001
0100
1000
0000
0100
0000
0001
0000
1000
0010
0001
0000
0010
0000
1000
0000
,
0001
0100
1000
0000
0100
0001
0010
0000
1000
0010
0001
0000
0100
0001
0010
0000
,
0001
1000
0010
0100
0001
1000
0100
1000
0001
0100
0010
1000
,
0001
1000
0001
1000
0001
1000
0001
1000
0001
1000
0001
1000
0001
1000
0001
1000
,
0020
0000
0000
0030
,
1000
0000
0001
0000
0100
0010
0100
0000
0001
0000
0100
0010
0100
0000
0001
0000
,
1000
0000
0001
0000
0000
0000
0011
0000
0000
0000
1000
0100
0000
0000
1000
0000
,
0000
0000
0001
0100
0000
0000
0001
0010
0000
0000
0100
1000
0000
0000
0010
0000
,
1000
0000
0000
0001
0000
0000
0100
0000
0001
0010
0001
0000
0010
0000
0100
0000
,
1000
0000
0001
0000
0100
0010
0100
0000
0001
0000
1000
0100
1000
0000
0001
0000
,
0010
0000
0000
0001
0000
0000
0100
0000
0000
0000
0010
0000
1000
0001
1000
0000
,
0100
0000
0000
1000
0000
0000
0010
0000
0000
0000
0100
0000
0001
1000
0001
0000
,
0010
0100
1000
0010
0100
0001
1000
0100
,
1000
0000
0100
1000
0100
0000
1000
0100
1000
0000
0100
1000
0100
0000
0000
0000
,
1000
0000
0001
0010
0001
0000
0010
0001
0010
0000
0001
0010
0001
0000
0000
0000
,
1000
0000
0010
1000
0010
0000
1000
0010
1000
0000
0010
1000
0010
0000
0000
0000
,
0100
0000
0001
0100
0001
0000
0100
0001
0100
0000
0001
0000
0010
0000
0100
0000
,
1000
1000
0010
0100
0001
0001
0010
0100
,
1000
1000
0001
0100
0010
0010
1000
0001
,
1000
0100
1000
0100
1000
0000
0001
0100
0001
0100
0001
0000
1000
0000
0010
0000
,
1000
0001
1000
0001
1000
0001
1000
0001
2000
0000
0000
0000
3000
0000
0000
0000
,
1001
0000
0001
0000
0100
0000
0010
1000
0001
0000
0010
0000
0100
0000
1000
0000
,
1010
0000
0010
0000
0100
0000
0001
1000
0100
0000
1000
0000
0010
0000
0100
0000
,
0101
0000
0001
0000
0010
0000
0100
1000
0001
0000
0100
0000
0010
0000
1000
0000
,
1001
0000
0001
0000
0010
0000
0100
0010
0001
0000
1000
0010
0100
0000
0010
0000
,
1010
0000
1000
0000
0100
0000
0010
0000
0100
0000
1000
0000
0010
0000
0001
0010
,
0100
1000
0100
0001
0100
1000
0100
0001
,
0010
0100
0010
0100
1000
0000
0001
0000
0100
0010
0100
0010
1000
0000
0001
0000
,
1000
0000
0000
0000
0001
0000
0000
0000
1000
0001
0100
0010
0100
0001
1000
0000
,
0010
0110
1000
1001
0000
0000
0000
0000
,
0001
0100
0001
0100
0001
0100
0001
0100
0002
0000
0000
0000
0013
0000
0000
0000
,
0001
0010
0000
0100
1000
0000
0020
0000
0100
0000
0000
0001
0000
0000
1030
0000
,
0001
0000
1000
0010
0100
0000
0001
1000
0010
0000
1000
0001
0100
0000
0010
0000
,
1000
0100
0010
0100
1000
0010
1000
0100
,
0020
0032
0203
0320
,
1030
0000
0001
0100
0010
0000
1000
0100
0010
0000
0001
0100
0010
0000
1000
0100
,
0020
0000
0000
0030
,
0000
0000
0000
0000
;
#NOTES:
     dance-single:
     :
     Hard:
     18:
     :
0000
0000
0000
0000
,
0000
0000
0000
0000
,
0000
0000
0000
0000
,
0000
0000
0000
0000
,
0000
0000
0001
0000
0010
0000
0100
1000
,
0020
0000
0000
0000
,
2030
0000
0000
0002
,
0000
0000
0000
0000
0000
0000
0000
0000
0000
3003
0000
0000
0000
0000
0000
0000
,
0110
0000
0000
0000
1000
0001
1000
0000
0100
0000
0000
0000
0000
0000
0010
0000
,
0000
0000
0000
0000
0100
0000
1000
0000
0001
0000
1000
0010
0100
0000
0000
0000
,
0000
0010
0010
0100
0100
0000
0000
0001
,
1000
0000
0000
0000
0000
0000
0010
1000
0100
0000
0010
0000
0200
0000
0300
0000
,
0110
0000
0000
0000
0001
1000
0001
0000
0100
0000
0000
0000
0000
0000
0010
0000
,
0000
0000
0000
0000
0000
0000
0100
0000
0000
0001
0000
0000
1000
0000
0100
0000
0010
0000
0001
0000
0000
0000
0000
0000
,
0000
0000
0000
0000
0001
1000
0001
0000
0100
0000
0000
0010
0000
0000
1000
0000
,
0001
0010
0100
1000
0001
1000
0010
0100
0001
0000
0000
0000
1001
0000
0000
0000
,
1000
0100
1000
0010
0100
0001
2000
0100
,
3001
0000
1000
0000
0010
0000
0100
0000
0001
0100
0001
0100
0001
0100
0001
0100
,
0001
0100
0001
1000
0100
1000
0002
0010
,
1003
0000
0001
0000
0100
0000
0010
0000
1000
0010
1000
0010
1000
0010
1000
0010
,
1000
0000
0001
0000
1000
0100
0010
0001
1000
0000
0001
0000
1000
0000
0010
0100
,
0010
0000
1000
0000
0001
0010
0100
1000
0001
0000
1000
0000
0001
0000
0100
0010
,
0100
0001
1000
0010
1000
0001
0010
0100
1000
0001
1000
0010
0100
0001
1000
0001
,
0020
0130
0011
1100
,
1001
0000
0001
0000
1000
0000
0001
0100
0001
0000
1000
0000
0001
0000
1000
0100
,
1000
0001
0200
0000
0000
0000
0310
0000
,
1000
1000
1001
0001
0100
0010
1000
0001
,
0010
0001
0100
0010
1000
0100
0010
0001
,
1000
0010
0100
0010
1000
0001
0010
0100
,
1000
0001
0100
0000
0110
0000
1010
0000
,
0101
0000
1000
0000
1001
0000
0001
1000
0010
0000
0100
0000
0001
1000
0001
1000
,
0001
0000
0010
0000
0100
0000
1000
0001
0100
0000
0010
0000
1000
0001
1000
0001
,
1000
0000
0100
0000
0010
0000
0001
1000
0010
0000
0100
0000
0001
1000
0001
1000
,
0001
0020
0200
0000
0030
0000
0300
0000
,
1000
0001
0010
0001
1000
0010
0100
0010
1000
0001
0010
0001
1000
0010
0100
0001
,
1000
0100
1000
0001
0100
0010
0100
0001
1000
0100
1000
0001
0100
0010
0100
0001
,
1000
0100
0010
0100
1000
0001
0100
0001
1000
0100
0010
0100
1000
0001
0100
0010
,
1000
0001
0010
0100
1000
0001
0100
0010
1000
0001
1000
0001
2000
0000
3000
0000
,
0001
1000
0100
1000
0001
0100
0010
1000
0001
1000
0100
0010
0001
1000
0010
1000
,
0001
0010
0001
1000
0010
0100
0001
1000
0001
0010
0100
1000
0001
0100
0001
1000
,
0100
0010
0100
1000
0001
0100
0010
0100
0001
1000
0100
0010
0001
0100
0010
1000
,
0002
0000
0000
0000
,
0000
0000
0000
0000
,
0000
0000
0000
0000
,
1003
0001
0100
0001
1000
0100
0000
0000
,
0110
0010
0001
1000
0010
0100
,
0110
0010
1000
0001
0010
0100
1000
0010
,
0110
0100
0001
1000
0100
1000
0010
0100
0001
0010
0001
1000
,
0001
0100
0010
1000
0100
1000
0001
0100
0010
1000
0001
0010
0100
1000
0010
0100
,
0001
0000
0000
0000
0000
0000
0000
0000
0000
0000
1000
0000
0000
0000
0000
0000
0000
0000
0000
0000
0100
0000
0000
0000
0000
0000
0000
0000
0000
0000
1000
0000
0000
0000
0000
0000
0000
0000
0000
0001
0000
0000
0000
0000
0000
0000
0000
0000
1000
0000
0000
0000
0000
0000
0000
0000
0000
0000
0010
0000
0000
0000
0000
0000
0000
0000
0000
0000
0100
0000
0000
0000
0000
0000
0000
0000
0000
0000
0010
0000
0000
0000
0000
0000
0000
0000
0000
1000
0000
0000
0000
0000
0000
0000
0000
0000
0001
0000
0000
0000
0000
0000
0000
0000
0000
0000
0010
0000
0000
0000
0000
0000
0000
0000
0000
0000
0001
0000
0000
0000
0000
0000
0000
0000
0000
0000
1000
0000
0000
0000
0000
0000
0000
0000
0000
0001
0000
0000
0000
0000
0000
0000
0000
0000
0100
0000
0000
0000
0000
0000
0000
0000
0000
0000
0010
0000
0000
0000
0000
0000
0000
0000
0000
0000
0100
0000
0000
0000
0000
0000
0000
0000
0000
0000
0001
0000
0000
0000
0000
0000
0000
0000
0000
1000
0000
0000
0000
0000
0000
0000
0000
0000
,
0001
0100
0010
1000
0000
0000
0001
0010
0100
1000
0000
0000
0010
0100
0001
1000
0000
0000
0100
0010
0001
1000
0000
0000
,
0001
1000
0010
0100
0001
1000
0100
1000
0001
0010
0001
1000
0100
1000
0001
0100
0010
1000
0001
0010
0001
1000
0100
1000
,
0020
0000
0000
0000
0000
0000
0000
0000
0000
0000
0000
0000
0000
0000
0130
0001
,
1000
0000
0010
1000
0001
0000
1000
0100
0000
0010
0001
1000
0010
0000
0100
0001
,
1000
0000
0000
1000
0000
0000
1000
0000
0001
0000
0010
0000
0010
0000
0000
0000
,
0001
0000
0000
0001
0000
0000
0001
0000
1000
0000
0010
0000
0100
0000
0000
0000
,
0010
0000
0000
0010
0000
0000
0010
0000
0100
0001
1000
0001
0010
0000
0100
1000
,
0001
0000
0100
0001
1000
0000
0001
0010
0000
0100
1000
0001
0100
0000
0010
1000
,
0001
0000
0000
0001
0000
0000
0001
0000
1000
0000
0010
0000
0100
0001
1000
0001
,
0010
0000
0100
1000
0000
1000
0001
0000
0100
0000
0010
0000
0100
0001
1000
0001
,
0010
0100
1000
0010
1000
0100
0010
0001
0100
0010
1000
0000
0001
0010
0100
1000
,
0001
0000
0000
1000
0001
1000
0001
0000
0000
1000
0100
1000
0100
0000
0000
0010
0001
0010
0001
0000
0000
1000
0010
1000
,
0010
0000
0000
0100
0001
0100
0001
0000
0000
1000
0100
1000
0001
0000
0000
1000
0010
0100
0001
0000
0000
1001
0000
0000
,
1000
0000
0000
0001
1000
0001
1000
0000
0000
0001
0100
0001
0100
0000
0000
0010
1000
0010
1000
0000
0000
0001
0010
0001
,
0010
0000
0000
0000
0000
0000
0100
0000
1000
0000
0100
0000
1000
0000
0000
0000
0000
0000
0001
0000
0100
0000
0010
0000
1000
0000
0000
0000
0000
0000
1001
0000
0000
0000
0000
0000
0001
0000
0000
0100
0000
0000
0001
0000
0000
0100
0000
0000
,
0010
0000
0010
0000
1000
0000
1000
0000
0001
0000
0001
0000
1000
0100
1000
0100
,
0010
0000
0010
0000
0001
0000
0001
0000
1000
0010
0100
0001
1000
0001
0010
0100
,
1000
0000
0001
0000
1000
0000
0001
0000
0000
0010
0000
0000
0001
0000
0000
1000
0000
0000
0010
0000
0000
0100
0000
0000
0001
0000
1000
0000
0001
0000
1000
0000
0000
0100
0000
0000
1000
0000
0000
0001
0000
0000
0100
0000
0000
0010
0000
0000
,
1000
0000
0001
0000
1000
0000
0001
0000
1000
0000
0001
0000
1000
0000
0000
0100
0000
0000
0020
0000
0000
0000
0000
0000
0031
0000
0000
1000
0000
0000
0010
0000
0000
1000
0000
0000
0100
0000
0000
0010
0000
0000
0001
0000
0000
1000
0000
0000
,
0010
0000
0100
0001
0010
0000
0011
0000
0100
0000
1000
0001
0100
0000
0010
0000
,
0100
0001
1000
0001
0010
0100
2000
0000
0000
0000
3010
0000
0100
0000
0001
0000
,
0010
0000
0100
1000
0010
0000
1010
0000
0100
0000
0001
1000
0100
0000
0010
0000
,
0011
0000
1100
0000
0000
0000
1001
0000
1000
0100
0010
0001
0100
0001
0010
0100
,
1000
0000
0010
0100
0001
0000
0010
0000
0100
0000
1001
0000
0000
0000
1000
0100
,
0020
0000
0000
0000
0030
0100
1000
0010
,
1000
0100
0010
0100
1000
0000
0001
0000
1000
0010
0100
0010
1000
0001
0010
0100
,
0010
0001
0100
0000
0010
1000
0100
0000
0010
0001
1000
0010
0100
0001
1000
0100
,
1100
0000
0110
0000
0011
0000
1001
0000
1000
0001
0100
0001
1000
0100
0010
0001
,
1000
1000
0010
0010
0100
0100
0001
0001
1000
0100
1000
0100
0010
0001
0100
0010
,
1000
1000
0000
0001
0001
0000
1000
0200
0000
0000
0310
0000
0001
1000
0010
0100
,
0001
0001
0010
0100
1000
1000
0010
0100
0001
0001
0010
0100
1000
0001
1000
0010
,
0110
0000
0100
0001
0010
0000
0110
0000
0100
1000
0010
0000
0110
0000
0010
1000
,
0001
0000
0010
0001
1000
0000
0010
1000
0100
1000
0010
0100
0001
0010
0001
1000
,
0010
0000
0000
0100
0001
1000
0100
0000
0000
0010
0001
1000
0010
0000
0000
0100
0001
1000
0100
0010
0001
1000
0001
0100
,
0020
0000
0000
0030
,
0000
0000
0000
0000
;
#NOTES:
     dance-double:
     :
     Easy:
     10:
     :
00000000
00000000
00000000
00000000
,
00000000
00000000
00000000
00000000
,
00000000
00000000
00000000
00000000
,
00000000
00000000
00000000
00000000
,
00000000
00001000
00010000
00001000
,
00020000
00000000
00000000
00000000
,
00000000
00000000
00000000
00002000
,
00000000
00000000
00000000
00000000
00000000
00000000
00000000
00000000
00000000
00033000
00000000
00000000
00000000
00000000
00000000
00000000
,
00011000
00000000
00010000
00000000
00000100
00000000
00000000
00001000
,
00000000
00000000
00000010
00000000
00001000
00000001
00000000
00000000
,
00000000
00000100
00000000
00000010
00000010
00000000
00000000
00010000
,
00001000
00000000
00000000
00010000
00000000
00001000
00001000
00000000
,
00011000
00000000
00001000
00000000
00100000
00000000
00000000
00010000
,
00000000
10000000
01000000
00100000
,
00000000
00000000
00000000
00000000
00001000
00000000
00000000
00000000
00010000
00000000
00000000
00001000
00000000
00000000
00010000
00000000
,
00000000
00000100
00001000
00000000
00000010
00000000
00001010
00000000
,
00001000
00001000
00001000
00001000
,
00000100
00020000
00002000
00033000
,
00101000
00100000
00100000
00100000
,
00010000
02000000
00200000
03300000
,
01010000
00001000
01010000
00001000
,
01010000
10000000
01010000
10000000
,
00210000
00010000
00010000
00310000
,
00020000
00130000
00011000
00010010
,
00000010
00001000
00000100
00000100
,
00002000
00000000
00000000
00003010
,
00010000
00001000
00010000
00000100
,
00000010
00000001
00001000
00000010
,
00000100
00001000
00010000
00001000
,
01000000
01010000
00110000
11000000
,
00000000
10010000
10000000
01000000
,
00100000
00010000
01000000
00001000
,
00010000
00000100
00000010
00000001
,
00001000
00000010
00020000
00032000
,
00013000
00001000
00000100
00001000
,
00010000
01000000
00010000
00001000
,
00000100
00001000
00010000
01000000
,
00010000
00001000
00020000
00032000
,
00013000
00000010
00001000
00000100
,
00000001
00000100
00001000
00000010
,
00010000
00001000
00100000
01000000
,
20000000
00000000
00000000
00000000
,
00000000
00000000
00000000
00000000
,
00000000
00000000
00000000
00000000
,
30100000
00000000
00000000
00000000
,
10000000
00000000
01000000
00000000
00100000
00000000
,
00010000
01000000
00001000
00010000
,
00001000
00000100
00000001
00000010
,
00000100
00001000
00000100
00000000
00010000
00001000
00010000
00000000
,
00001000
00100000
01000000
10000000
01000000
00100000
,
00001000
00010000
00000010
00001000
00000010
00010000
,
00001000
00010000
00001000
00010000
00001000
00010000
00001000
00010000
,
00002000
00000000
00000000
00003000
,
00010000
00000100
00001000
00000010
,
00000000
00001000
00000000
00000001
00000000
00000100
00000000
00000100
,
00000000
00000010
00000000
00010000
00000000
00001000
00000000
00001000
,
00000000
00100000
00000000
00010000
00000000
00000000
00000000
00000000
,
10000000
00010000
01000000
00100000
,
00000000
10000000
00000000
01000000
00000000
00100000
00000000
00000000
,
00001000
00000000
00000000
00010000
00000000
00000000
00001000
00000000
00000000
00000000
00010000
00000000
00000100
00000000
00000000
00000000
,
00001000
00000010
00000100
00000001
,
00002000
00003010
00002000
00003010
,
00002000
00003001
00002000
00003001
,
00002000
00003010
00002000
00003010
,
00000020
00010030
00000020
00010030
,
00001000
00010000
01000000
00010000
,
00001000
00000100
00001000
00010000
,
00001000
00010000
00001000
00000000
01000000
00010000
01000000
00000000
,
00200000
00000000
00000000
01300000
,
00001000
00000000
01000000
00010000
00100000
00000000
00001000
00000000
,
00010000
00000000
00000100
00001000
00000010
00000000
00010000
00000000
,
00001000
00000000
01000000
00010000
00100000
00000000
00001000
00000000
,
00010000
00001000
00000100
00000010
,
00001000
00000000
00000001
00000100
00000000
00000010
00000000
00000100
,
00000002
00000000
00000003
00000010
,
00000100
00001000
00000100
00000000
00010000
00001000
00010000
00000000
,
00001000
00100000
00010000
10000000
,
00010000
01000000
00010000
01000000
00000000
00000000
00000000
00000000
,
00001000
00010000
00001000
00010000
00000000
00000000
00000000
00000000
,
00000010
00000000
00000000
00000010
00000000
00000000
00000010
00000000
00000000
00000000
00000000
00000000
00000000
00000000
00000000
00000000
,
00000110
00000010
00001010
00001000
,
00001001
00000000
00000001
00000000
,
00000010
00001000
00010000
00001000
,
00100000
01000000
10000000
00000000
00100000
01000000
00010000
00000000
,
00200000
00000000
00000000
00300000
,
00000000
00000000
00000000
00000000
;
#NOTES:
     dance-double:
     :
     Medium:
     15:
     :
00000000
00000000
00000000
00000000
,
00000000
00000000
00000000
00000000
,
00000000
00000000
00000000
00000000
,
00000000
00000000
00000000
00000000
,
00000000
00000000
00001000
00000000
00010000
00000000
00000100
00001000
,
00000020
00000000
00000000
00000000
,
00002030
00000000
00000000
00000002
,
00000000
00000000
00000000
00000000
00000000
00000000
00000000
00000000
00000000
00003003
00000000
00000000
00000000
00000000
00000000
00000000
,
00000011
00000000
00000010
00000100
00001000
00000000
00000000
00000010
,
00000000
00000000
00000000
00000000
00010000
00000000
00001000
00000000
00100000
00000000
00010000
00100000
00000000
00000000
00000000
00000000
,
00000000
00010000
00010000
10000000
01000000
00000000
00000000
00100000
,
00010000
00000000
00000000
01000000
01000000
00010000
10000000
00000000
,
10100000
00000000
00100000
01000000
00010000
00000000
00000000
00100000
,
00000000
00000000
00000000
00000000
00000000
00000000
00001000
00000000
00000000
00001000
00000000
00000000
00010000
00000000
00001000
00000000
00010000
00000000
00001000
00000000
00000000
00000000
00000000
00000000
,
00000000
00000000
00000000
00000000
00010000
00000000
00000100
00000000
00000010
00000000
00000000
00000001
00000000
00000000
00001000
00000000
,
00000001
00000001
00000100
00000010
00001000
00000000
00001001
00000000
,
00000001
00000000
00000001
00000000
00000001
00000000
00000001
00000100
,
00000000
00001000
00000000
00010000
02000000
00000000
00000000
03000000
,
10000000
00000000
10000000
00000000
10000000
00000000
10000000
01000000
,
00000000
00010000
00000000
00001000
00000200
00000000
00000000
00000300
,
00000110
00000000
00000010
00001000
00000100
00000000
00010000
00001000
,
00000010
00000000
00001000
00010000
01000000
00000000
00010000
00001000
,
00100000
00110000
10010000
11000000
,
02000000
03100000
10010000
01100000
,
10010000
00000000
00010000
01000000
00100000
00100000
01000000
00010000
,
00100000
00001000
00020000
00000000
00000000
00000000
00031000
00000000
,
00010000
00010000
00000100
00001000
00000001
00000100
00000010
00001000
,
00000100
00010000
00001000
00010000
00100000
01000000
00010000
10000000
,
00100000
01000000
00010000
10000000
01000000
00100000
00010000
01000000
,
00001000
00011000
00010100
00001100
,
00000010
00000000
00001001
00000000
00000001
00000010
00000100
00001000
,
00000010
00010000
00001000
01000000
00100000
10000000
00010000
01000000
,
00100000
10000000
01000000
00100000
00001000
00010000
00000100
00001000
,
00000001
00000100
00000010
00010000
00002000
00000000
00023000
00000000
,
00031000
00010000
01000000
10000000
00100000
00010000
00100000
10000000
,
01000000
00010000
00001000
00000010
00000001
00000100
00001000
00000100
,
00000001
00000010
00001000
00010000
01000000
10000000
00100000
00010000
,
00001000
00010000
01000000
00100000
00002000
00000000
00023000
00000000
,
00031000
00000100
00000010
00001000
00000100
00000010
00001000
00010000
,
00001000
00010000
01000000
00100000
00010000
01000000
00100000
00010000
,
00001000
00010000
00001000
00000100
00000010
00001000
00000100
00000010
,
00002000
00000000
00000000
00000000
,
00000000
00000000
00000000
00000000
,
00000000
00000000
00000000
00000000
,
00013000
00010000
00001000
01000000
00100000
00100000
00000000
00000000
,
10000000
01000000
00010000
00001000
00000010
00000001
,
00001000
00000001
00000100
00001000
00010000
00100000
10000000
00010000
,
10000000
01000000
10000000
01000000
00010000
01000000
00010000
00001000
00010000
00001000
00000010
00001000
,
00000010
00000001
00000100
00000000
00001000
00000000
00010000
00000000
00100000
10000000
01000000
00000000
00010000
00000000
00001000
00000000
,
00010000
00001000
00000010
00000000
00001000
00000010
00000001
00000000
00000010
00000001
00001000
00000000
00000001
00000100
00001000
00000000
,
00000100
00001000
00010000
00100000
10000000
00010000
10000000
01000000
00010000
00001000
00010000
00001000
,
00010000
00001000
00010000
00001000
00010000
00001000
00010000
00001000
00010000
00001000
00010000
00001000
00010000
00001000
00010000
00001000
,
00020000
00000000
00000000
00030000
,
00001000
00000000
00010000
00000000
00000100
00001000
00000100
00000000
00010000
00000000
00000010
00001000
00000010
00000000
00010000
00000000
,
00001000
00000000
00010000
00000000
00000000
00000000
00010100
00000000
00000000
00000000
00000100
00001000
00000000
00000000
00000100
00000000
,
00000000
00000000
00001000
00000010
00000000
00000000
00001000
00000001
00000000
00000000
00000010
00000001
00000000
00000000
00000100
00000000
,
00000010
00000000
00000000
00001000
00000000
00000000
00000100
00000000
00010000
00001000
00010000
00000000
00001000
00000000
00010000
00000000
,
00100000
00000000
01000000
00000000
00010000
00100000
00010000
00000000
10000000
00000000
00100000
01000000
00100000
00000000
10000000
00000000
,
00000000
00000000
10100000
00000000
00000000
00000000
00100000
00000000
00000000
00000000
01000000
00010000
00000000
00000000
00100000
00000000
,
00001000
00000000
00000000
00010000
00000000
00000000
00001000
00000000
00000000
00000000
00000100
00000000
00000010
00000100
00000010
00000000
,
00001000
00000001
00000100
00001000
00010000
01000000
00100000
00010000
,
10000000
00000000
01000000
10000000
00000000
00000000
00100000
01000000
00000000
00000000
00010000
00100000
00000000
00000000
00001000
00010000
,
00000000
00000000
00000010
00000100
00000000
00000000
00000001
00001000
00000000
00000000
00000010
00000100
00000000
00000000
00001000
00000000
,
00010000
00000000
01000000
00100000
00000000
00000000
00010000
00100000
00000000
00000000
00001000
00010000
00000000
00000000
00001000
00000010
,
00000000
00000000
00000001
00000010
00000000
00000000
00000100
00001000
00000000
00000000
00000010
00000000
00010000
00000000
00001000
00000000
,
00010000
00010000
01000000
10000000
00100000
00100000
10000000
01000000
,
00010000
00010000
00001000
00100000
00010000
00010000
01000000
00100000
,
00010000
00001000
00000100
00000001
00000010
00001000
00010000
01000000
,
10000000
01000000
10000000
00000000
01000000
00000000
00100000
00000000
00020000
00000000
00000000
00000000
00030000
00000000
00000000
00000000
,
10010000
00000000
10000000
00000000
00100000
00000000
01000000
00010000
10000000
00000000
00100000
00000000
00010000
00000000
00001000
00000000
,
00010000
00000000
00000100
00000000
00000010
00000000
00000100
00001000
00000001
00000000
00000100
00000000
00000010
00000000
00010000
00000000
,
00001000
00000000
00010000
00000000
00100000
00000000
01000000
00010000
01000000
00000000
00001000
00000000
00010000
00000000
01000000
00000000
,
10000000
00000000
00100000
00000000
00010000
00000000
00100000
01000000
00100000
00000000
01000000
00100000
01000000
00000000
00100000
00000000
,
00010000
00001000
00000100
00000010
00001000
00000100
00000001
00000100
,
00001000
00000100
00000001
00001000
00000010
00000001
00000010
00001000
,
00010000
00001000
00010000
00000000
00001000
00000000
00010000
00000000
00100000
01000000
00100000
00000000
00010000
00000000
00001000
00000000
,
00010000
00000000
00010000
00000000
00001000
00000000
00001000
00000000
00010000
00001000
00010000
00001000
00010000
00001000
00010000
00000000
,
01000000
00010000
00001000
00000100
00000000
00000000
00000000
00000000
,
00001000
00010000
00001000
00010000
00001000
00010000
00001000
00010000
00002000
00000000
00000000
00000000
00013000
00000000
00000000
00000000
,
00010000
00001000
00000000
00000010
00000001
00000000
00000020
00000000
00000001
00000000
00000000
00000001
00000000
00000000
00000031
00000000
,
00000001
00000000
00000100
00000000
00001000
00000000
00010000
00000000
01000000
00000000
10000000
01000000
00100000
00000000
00010000
00000000
,
01000000
00000000
00001000
00010000
00001000
00000000
00100000
00000000
00001000
00010000
00001000
00000000
00000100
00000000
00001000
00000000
,
00020000
00030200
00000320
00000032
,
00000103
00000000
00000001
00000100
00000010
00000000
00010000
00000000
00001000
00000000
01000000
00100000
10000000
00000000
01000000
00000000
,
00200000
00000000
00000000
00300000
,
00000000
00000000
00000000
00000000
;
#NOTES:
     dance-double:
     :
     Hard:
     18:
     :
00000000
00000000
00000000
00000000
,
00000000
00000000
00000000
00000000
,
00000000
00000000
00000000
00000000
,
00000000
00000000
00000000
00000000
,
00000000
00000000
00001000
00000000
00010000
00000000
01000000
00100000
,
00020000
00000000
00000000
00000000
,
02030000
00000000
00000000
00200000
,
00000000
00000000
00000000
00000000
00000000
00000000
00000000
00000000
00000000
03300000
00000000
00000000
00000000
00000000
00000000
00000000
,
10010000
00000000
00000000
00000000
10000000
01000000
10000000
00000000
00100000
00000000
00000000
00000000
00000000
00000000
01000000
00000000
,
00000000
00000000
00000000
00000000
00010000
00000000
00100000
00000000
00001000
00000000
00010000
00001000
00010000
00000000
00000000
00000000
,
00000000
00001000
00000100
00000010
00000010
00000000
00000000
00001000
,
00000001
00000000
00000000
00000000
00000000
00000000
00000100
00000001
00000010
00000000
00000100
00000000
00000020
00000000
00000030
00000000
,
00000110
00000000
00000000
00000000
00000100
00001000
00000100
00000000
00010000
00000000
00000000
00000000
00000000
00000000
00001000
00000000
,
00000000
00000000
00000000
00000000
00000000
00000000
00100000
00000000
00000000
00010000
00000000
00000000
10000000
00000000
00100000
00000000
01000000
00000000
00010000
00000000
00000000
00000000
00000000
00000000
,
00000000
00000000
00000000
00000000
00100000
00001000
00100000
00000000
00001000
00000000
00000000
00010000
00000000
00000000
01000000
00000000
,
00100000
00010000
00100000
00001000
00010000
00001000
00010000
00000100
00001000
00000000
00000000
00000000
00001010
00000000
00000000
00000000
,
00000010
00010000
00001000
00010000
00000100
00001000
00000010
00000100
,
00001000
00000000
00010000
00000000
00001000
00000000
01000000
00000000
00010000
01000000
00010000
01000000
00010000
01000000
00010000
00000000
,
00100000
00001000
00010000
01000000
00100000
00010000
10000000
00100000
,
01000000
00000000
00010000
00000000
00100000
00000000
00001000
00000000
00010000
00001000
00010000
00001000
00010000
00001000
00010000
00000000
,
00001000
00000000
00000100
00000000
00000010
00001000
00000001
00001000
00000001
00000000
00000010
00000000
00000100
00000000
00001000
00000010
,
00001000
00000000
00000001
00000000
00000010
00000100
00001000
00000100
00001000
00000000
00000010
00000000
00001000
00000000
00000001
00000000
,
00000010
00000100
00001000
00000100
00010000
00001000
00010000
00001000
00100000
00010000
10000000
01000000
10000000
00010000
01000000
00100000
,
02000000
03100000
01010000
10100000
,
00100000
00000000
00010000
00000000
00001000
00000000
00010000
00000100
00010000
00000000
00001000
00000000
00000010
00000000
00000001
00000010
,
00000001
00000100
00000020
00000000
00000000
00000000
00010030
00000000
,
00001000
00001000
00011000
00010000
00001000
00000100
00001000
00010000
,
01000000
00100000
00010000
10000000
00100000
00010000
00001000
00000100
,
00000010
00010000
00001000
00000010
00000100
00010000
00001000
00010000
,
00100000
01000000
00010000
00000000
00110000
00000000
00101000
00000000
,
00011000
00001000
00010000
01000000
10000000
00100000
00010000
00100000
,
10000000
01000000
00010000
00001000
00000010
00000001
00001000
00000010
,
00000001
00000000
00000010
00000000
00001000
00000000
00010000
00000000
01000000
00000000
00100000
00000000
10000000
00010000
10000000
00010000
,
10000000
01000000
00100000
00000000
00002000
00000000
00023000
00000000
,
00031000
00010000
00000100
00001000
00000001
00001000
00000010
00010000
00001000
01000000
00010000
10000000
00010000
00100000
00001000
00010000
,
00000100
00001000
00000001
00001000
00000010
00010000
00001000
01000000
00010000
10000000
00010000
00100000
00001000
00010000
00001000
00010000
,
00000100
00001000
00000010
00010000
00001000
00010000
00001000
01000000
00010000
00100000
00001000
00010000
00001000
00010000
00000100
00001000
,
00000010
00010000
00001000
00010000
00001000
01000000
00010000
00100000
01000000
10000000
01000000
10000000
00200000
00000000
00300000
00000000
,
10000000
01000000
10000000
01000000
00100000
00010000
00100000
00010000
01000000
00001000
01000000
00001000
00010000
00001000
00010000
00001000
,
00010000
00000010
00010000
00000010
00001000
00000100
00001000
00000100
00000010
00000001
00000010
00000001
00001000
00000010
00001000
00000010
,
00010000
00001000
00010000
00001000
01000000
00010000
01000000
00010000
10000000
01000000
00100000
00010000
01000000
00100000
10000000
00010000
,
00200000
00000000
00000000
00000000
,
00000000
00000000
00000000
00000000
,
00000000
00000000
00000000
00000000
,
00301000
00001000
00010000
00001000
00010000
00000100
00000000
00000000
,
00000110
00000010
00000001
00000100
00000010
00001000
,
00000100
00010000
00001000
00100000
00010000
01000000
00100000
10000000
,
01000000
10000000
00100000
01000000
00010000
00100000
00001000
00010000
00000100
00001000
00000010
00000100
,
00000001
00000010
00000001
00000100
00000010
00001000
00000100
00010000
00001000
00100000
00010000
01000000
00100000
10000000
01000000
10000000
,
00010000
00000000
00000000
00000000
00000000
00000000
00000000
00000000
00000000
00000000
00100000
00000000
00000000
00000000
00000000
00000000
00000000
00000000
00000000
00000000
00010000
00000000
00000000
00000000
00000000
00000000
00000000
00000000
00000000
00000000
10000000
00000000
00000000
00000000
00000000
00000000
00000000
00000000
00000000
01000000
00000000
00000000
00000000
00000000
00000000
00000000
00000000
00000000
10000000
00000000
00000000
00000000
00000000
00000000
00000000
00000000
00000000
00000000
00100000
00000000
00000000
00000000
00000000
00000000
00000000
00000000
00000000
00000000
01000000
00000000
00000000
00000000
00000000
00000000
00000000
00000000
00000000
00000000
00010000
00000000
00000000
00000000
00000000
00000000
00000000
00000000
00000000
00100000
00000000
00000000
00000000
00000000
00000000
00000000
00000000
00000000
00001000
00000000
00000000
00000000
00000000
00000000
00000000
00000000
00000000
00000000
00010000
00000000
00000000
00000000
00000000
00000000
00000000
00000000
00000000
00000000
00000100
00000000
00000000
00000000
00000000
00000000
00000000
00000000
00000000
00000000
00001000
00000000
00000000
00000000
00000000
00000000
00000000
00000000
00000000
00000010
00000000
00000000
00000000
00000000
00000000
00000000
00000000
00000000
00000100
00000000
00000000
00000000
00000000
00000000
00000000
00000000
00000000
00000000
00000001
00000000
00000000
00000000
00000000
00000000
00000000
00000000
00000000
00000000
00000010
00000000
00000000
00000000
00000000
00000000
00000000
00000000
00000000
00000000
00000001
00000000
00000000
00000000
00000000
00000000
00000000
00000000
00000000
00001000
00000000
00000000
00000000
00000000
00000000
00000000
00000000
00000000
,
00000001
00000100
00000010
00001000
00000000
00000000
00000100
00010000
00001000
00100000
00000000
00000000
00010000
01000000
00100000
10000000
00000000
00000000
00010000
01000000
00001000
00100000
00000000
00000000
,
00001000
00010000
00001000
00010000
00001000
00010000
00001000
00010000
00001000
00010000
00001000
00010000
00001000
00010000
00001000
00010000
00001000
00010000
00001000
00010000
00001000
00010000
00001000
00010000
,
00002000
00000000
00000000
00000000
00000000
00000000
00000000
00000000
00000000
00000000
00000000
00000000
00000000
00000000
00013000
00100000
,
01000000
00000000
00010000
00100000
01000000
00000000
10000000
01000000
00000000
00100000
00001000
00010000
00001000
00000000
00010000
00001000
,
00000010
00000000
00000000
00000001
00000000
00000000
00000010
00000000
00000100
00000000
00001000
00000000
00001000
00000000
00000000
00000000
,
00000010
00000000
00000000
00010000
00000000
00000000
00001000
00000000
00010000
00000000
00100000
00000000
10000000
00000000
00000000
00000000
,
00100000
00000000
00000000
00100000
00000000
00000000
00100000
00000000
01000000
00010000
10000000
00010000
00100000
00000000
01000000
10000000
,
00010000
00000000
01000000
00001000
00010000
00000000
00000100
00000010
00000000
00000100
00001000
00000010
00010000
00000000
00001000
00010000
,
00001000
00000000
00000000
00001000
00000000
00000000
00001000
00000000
00000100
00000000
00000010
00000000
00000100
00000001
00001000
00000001
,
00000010
00000000
00000100
00010000
00000000
00001000
01000000
00000000
00100000
00000000
10000000
00000000
00100000
01000000
00010000
10000000
,
01000000
00100000
00010000
00100000
00001000
00010000
00001000
00000100
00000010
00001000
00000001
00000000
00001000
00000100
00000010
00000000
,
00000001
00000000
00000000
00000100
00000010
00000100
00000010
00000000
00000000
00001000
00000001
00001000
00000001
00000000
00000000
00000010
00000100
00000010
00000100
00000000
00000000
00001000
00000100
00001000
,
00000100
00000000
00000000
00010000
00001000
00010000
00001000
00000000
00000000
00100000
00010000
00100000
00010000
00000000
00000000
01000000
00001000
01000000
00001000
00000000
00000000
00010000
00000000
00000000
,
00100000
00000000
00000000
10000000
00010000
10000000
00010000
00000000
00000000
00100000
01000000
00100000
01000000
00000000
00000000
10000000
00010000
10000000
00010000
00000000
00000000
01000000
00100000
01000000
,
00100000
00000000
00000000
00000000
00000000
00000000
00010000
00000000
00001000
00000000
00010000
00000000
00001000
00000000
00000000
00000000
00000000
00000000
00100000
00000000
00010000
00000000
00100000
00000000
00010000
00000000
00000000
00100000
00000000
00000000
01000000
00000000
00000000
10000000
00000000
00000000
00010000
00000000
00000000
01000000
00000000
00000000
00100000
00000000
00000000
00010000
00000000
00000000
,
00001000
00000000
00001000
00000000
00000010
00000000
00000010
00000000
00000100
00000000
00000100
00000000
00010000
00001000
00010000
00001000
,
00010000
00000000
00010000
00000000
01000000
00000000
01000000
00000000
00100000
00010000
00100000
00010000
00100000
00010000
00100000
01000000
,
10000000
00000000
00010000
00000000
10000000
00000000
00010000
00000000
00000000
01000000
00000000
00000000
00100000
00000000
00000000
00010000
00000000
00000000
00001000
00000000
00000000
00010000
00000000
00000000
00000010
00000000
00001000
00000000
00000010
00000000
00001000
00000000
00000000
00000001
00000000
00000000
00000100
00000000
00000000
00000001
00000000
00000000
00000010
00000000
00000000
00000100
00000000
00000000
,
00001000
00000000
00000100
00000000
00001000
00000000
00000100
00000000
00001000
00000000
00000100
00000000
00001000
00000000
00000000
00000010
00000000
00000000
00010000
00000000
00000000
00001000
00000000
00000000
00100000
00000000
00000000
00010000
00000000
00000000
01000000
00000000
00000000
00100000
00000000
00000000
00010000
00000000
00000000
00001000
00000000
00000000
00100000
00000000
00000000
00010000
00000000
00000000
,
01000000
00000000
00001000
00010000
00100000
00000000
01100000
00000000
01000000
00000000
00010000
10000000
01000000
00000000
00010000
00000000
,
00001000
00000000
00010000
00001000
00000010
00000000
00000110
00000000
00000100
00000000
00001000
00000001
00000100
00000000
00001000
00000000
,
00010000
00000000
00001000
00010000
00100000
00000000
01100000
00000000
01000000
00000000
00010000
00100000
01000000
00000000
10000000
00000000
,
00100000
00000000
00010000
00000000
00000000
00000000
00001000
00000000
00010000
00000010
00001000
00000100
00010000
00001000
00000010
00000001
,
00001000
00000000
00000001
00000100
00001000
00000000
00010000
00000000
00100000
00000000
01000000
00000000
10000000
00000000
00010000
00100000
,
02000000
00000000
00000000
00000000
03000000
00010000
00100000
00001000
,
00010000
01000000
10000000
01000000
00010000
00000000
00001000
00000000
00000100
00000001
00000100
00000010
00001000
00000001
00000010
00000100
,
00001000
00000010
00010000
00000000
00001000
01000000
00010000
00000000
10000000
00100000
00010000
00001000
00010000
00001000
00010000
01000000
,
10000000
00000000
10100000
00000000
01010000
00000000
00010000
00000000
10000000
00100000
00010000
00001000
00010000
00001000
00000010
00000001
,
00001000
00000000
00001100
00000000
00000011
00000000
00000001
00000000
00000010
00000100
00001000
00000010
00010000
00001000
00010000
00001000
,
01000000
01000000
00000000
00100000
00100000
00000000
10000000
00020000
00100000
00000000
00000000
00100000
00000000
00000000
00130000
00000000
,
00010000
01000000
00100000
00010000
00001000
00010000
00001000
00000100
00000010
00010000
00001000
00010000
00001000
01000000
00100000
00010000
,
00001000
00000000
00010000
00000100
00010000
00000000
00001000
00000000
00000100
00001000
00000100
00000000
00001000
00000000
00010000
00000100
,
00010000
00000000
00001000
00000000
00010000
00001000
00000100
00001000
00010000
00000010
00001000
00000100
00000010
00000001
00000100
00000010
,
00001000
00000000
00000000
00000001
00000100
00000010
00001000
00000000
00000000
00000010
00010000
00001000
01000000
00000000
00000000
00010000
01000000
00100000
10000000
00000000
00000000
00010000
00100000
01000000
,
00200000
00000000
00000000
00300000
,
00000000
00000000
00000000
00000000
;
