
//----- song ID: blan -----//
#TITLE:blue anthem;
#ARTIST:OSTER project feat. 花たん;
#ARTISTTRANSLIT:OSTER project feat. HaNaTan;
#BANNER:blue anthem.png;
#BACKGROUND:blue anthem-bg.png;
#CDTITLE:./CDTitles/DDR WORLD.png;
#MUSIC:blue anthem.ogg;
#SAMPLESTART:70.501;
#SAMPLELENGTH:15;
#BPMS:0=160;
#BGSTAGE:16;
#NOTES:
     dance-single:
     :
     Beginner:
     3:
     :
0000
0000
0000
0000
,
0000
0000
0000
0000
,
0000
0000
0000
0000
,
0000
0000
0000
0000
,
0000
0000
0000
0000
,
1000
0000
0000
0000
,
0001
0000
0000
0000
,
0000
0000
0000
0000
,
0010
0000
0010
0000
,
0100
0000
0100
0000
,
1000
0000
1000
0000
,
0001
0001
0001
0000
,
1000
0000
0000
0001
,
0000
1001
0000
0000
,
0000
0000
0000
0000
,
0001
0000
0000
0000
,
0001
0000
0001
0000
,
1000
0000
0000
0000
,
1000
0000
1000
0000
,
0010
0000
0000
0000
,
0010
0000
0010
0000
,
0100
0000
0000
0000
,
0100
0000
0100
0000
,
0002
0000
0000
0000
,
0000
0000
0000
0003
,
2000
0000
0000
0000
,
0000
0000
0000
3000
,
0100
0000
0100
0000
,
0010
0000
0010
0000
,
0001
0000
1000
0000
,
0001
0000
1001
0000
,
1000
0000
1000
0000
,
1000
1000
1000
0000
,
0010
0000
0010
0000
,
0010
0010
0010
0000
,
0100
0000
0100
0000
,
0001
0000
1000
0000
,
2002
0000
0000
3003
,
0000
0000
0000
0000
,
0001
0000
1001
0000
,
1000
0000
1001
0000
,
0001
0000
0001
0000
,
0010
0010
0010
0000
,
0100
0000
0100
0000
,
0100
0000
0100
0000
,
2002
0000
0000
0000
,
3003
0000
0000
0000
,
1000
0000
0100
0000
,
0010
0010
0010
0000
,
0001
0000
0100
0000
,
0010
0010
0010
0000
,
1001
0000
0000
0000
,
1001
0000
0000
0000
,
1000
0000
0001
0000
,
1000
1000
1000
0000
,
0010
0000
0100
0000
,
0001
0001
0001
0000
,
0010
0000
0100
0000
,
1000
1000
1000
0000
,
1001
0000
0000
0000
,
1001
0000
0000
0000
,
1000
0000
1000
0000
,
0001
0000
0001
0000
,
0100
0000
0100
0000
,
0010
0000
0010
0000
,
2002
0000
0000
0000
,
0000
0000
0000
0000
,
3003
0000
0000
0000
,
0000
0000
0000
0000
,
1001
0000
0000
0000
,
1001
0000
0000
0000
,
0001
0000
1000
0000
,
0001
0000
1000
0000
,
1000
0000
0001
0000
,
2002
0000
0000
0000
,
0000
0000
0000
0000
,
3003
0000
0000
0000
,
0000
0000
0000
0000
;
#NOTES:
     dance-single:
     :
     Easy:
     6:
     :
0000
0000
0000
0000
,
0000
0000
0000
0000
,
0000
0000
0000
0000
,
0000
0000
0000
0000
,
0000
0000
0000
0000
,
1000
0000
0000
0001
0000
1000
0000
0002
,
0000
0000
0000
0000
,
0000
0000
0000
0003
,
0001
0010
0001
0000
,
1000
0010
1000
0000
,
1010
0000
0101
0000
,
0001
0010
0100
1000
,
1001
0000
0000
0110
0000
0000
1001
0000
,
0000
0220
0000
0000
,
0000
0000
0000
0330
,
0001
0000
0001
0000
,
1000
0000
1000
0000
,
0010
0100
0010
0000
,
1000
0001
1000
0001
,
1000
0000
1000
0000
,
0001
0000
0001
0000
,
0100
0010
0100
0000
,
0001
1000
0001
1000
,
0002
0000
0000
0003
,
0020
0000
0000
0030
,
0200
0000
0000
0300
,
2000
0000
0000
3000
,
0010
1000
0001
1000
,
0100
0010
0001
1000
,
0110
0000
0000
1001
0000
0000
0110
0000
,
0000
2002
0000
3003
,
0001
0010
0001
0001
,
1000
0010
1000
1000
,
0001
0100
0001
0001
,
1000
0100
1000
1000
,
0001
0100
0001
1000
,
0001
0010
0001
0010
,
0011
0000
0000
1100
0000
0000
0011
0000
,
0000
0010
0100
0010
,
0001
0001
0100
0001
,
1000
1000
0100
1000
,
0001
0000
0000
0010
0000
0000
0001
0000
,
0000
0100
0000
0000
0010
0000
0010
0000
,
1000
0100
1000
0100
,
0010
0001
0010
0001
,
2002
0000
0000
0000
,
3003
0000
0110
0000
0000
1001
0000
0000
,
1000
0100
0010
0100
,
0010
0100
0010
0001
,
0001
0010
0100
0010
,
0100
0010
0100
1000
,
0001
0100
0010
0000
,
0100
0010
1000
0000
,
0001
0100
0010
1000
,
0100
0000
0110
0000
0000
0011
0000
0000
,
0001
0100
0010
0100
,
0010
0100
0010
1000
,
1000
0100
0010
0100
,
0010
0001
0001
0001
,
0010
0100
1000
0010
,
0100
0010
1000
0010
,
1010
0000
0001
0001
,
0101
0000
0100
0100
,
0110
0000
0000
1001
0000
0000
0110
0000
,
0000
0000
1001
0000
0000
1100
0000
0000
,
0022
0000
0000
0000
,
0000
0000
0000
0000
,
0033
0000
0000
0000
,
0000
0000
0000
0000
,
0001
0001
0001
0001
,
1000
1000
1000
1000
,
0110
0000
1001
0000
,
1000
0001
1000
0001
,
0010
0100
0010
0100
,
0220
0000
0000
0000
,
0000
0000
0000
0000
,
0330
0000
0000
0000
,
0000
0000
0000
0000
;
#NOTES:
     dance-single:
     :
     Medium:
     11:
     :
0000
0000
0000
0000
,
0000
0000
0000
0000
,
0000
0000
0000
0000
,
0000
0000
0000
0000
,
0000
0100
0010
0100
,
1001
0000
0001
0001
0000
1000
0000
2002
,
0000
0000
0000
0000
,
0000
0000
0000
3003
,
1000
0000
0100
0000
1000
0000
0000
0001
,
0010
0000
0000
0001
0000
0000
0000
0001
,
0100
0000
0000
0010
1000
0000
0000
0010
,
1000
0000
0000
0000
0001
0000
0000
0000
0100
0000
0000
0100
0000
0000
0100
0000
,
0010
0010
0000
1000
1000
0000
0001
0001
,
0000
2002
0000
0000
,
0000
0000
0000
3003
,
1000
0000
0000
1000
0000
0000
1000
0000
,
0100
0000
0001
0100
0000
1000
0000
0010
,
0000
0100
0001
0200
0000
0000
0000
0000
,
0000
0000
0000
0010
0000
0010
0300
0000
,
0001
0000
0000
0001
0000
0000
0001
0000
,
0100
0000
1000
0100
0000
0001
0000
0010
,
0000
0100
1000
0100
0000
0000
0000
1000
,
0001
0010
0000
0100
0000
0010
0000
0000
,
0100
0000
0000
0100
0000
0000
0100
0000
,
0010
0000
0001
0100
0000
0010
1000
0100
,
0000
1000
0002
0000
0000
0000
0013
0100
,
0010
0000
0001
0100
0000
0001
0100
0010
,
0000
0100
0010
0100
0000
1000
0100
0001
,
0100
1000
0000
0100
0000
0010
0000
0000
,
1000
1000
0000
0001
0001
0000
0010
0010
,
0000
2002
0000
3003
,
0011
0000
0000
0000
0001
0000
0000
0010
0000
0000
0001
0000
0000
0000
1000
0000
,
0000
1000
0000
0000
0000
1001
0000
0000
,
1010
0000
0000
0000
1000
0000
0000
0010
0000
0000
1000
0000
0000
0000
0001
0000
,
0000
0001
0000
0000
0000
1001
0000
0000
,
0101
0000
0000
0000
0001
0000
0000
0100
0000
0000
0001
0000
0000
0000
0010
0000
,
0000
0100
0100
0000
1000
0000
0010
0000
,
1010
0000
0000
0110
0000
0000
0101
0000
,
0000
0000
0001
0000
0001
0000
0000
0000
1000
0000
0000
0001
0000
0000
1000
0000
,
0000
0000
0010
0000
0000
1000
0000
0000
0001
0000
0000
1000
0000
0000
0010
0000
,
0000
0000
0100
0000
0000
0001
0000
0000
1000
0000
0000
0001
0000
0000
0010
0000
,
0001
0001
0000
0100
0100
0000
0010
0010
,
0000
0000
1000
0000
1000
0000
0000
0001
0000
0000
1000
0000
1000
0000
0000
0000
,
0001
0100
0010
1000
0001
0100
0010
1000
,
0100
0010
0001
0010
0100
1000
0010
0100
,
0020
0000
0000
0000
,
0030
0000
1001
0000
0000
1001
0000
0000
,
1000
0000
0000
0100
0000
0000
1000
0000
0001
0000
0000
0010
0000
0000
0001
0000
,
0010
0011
0101
0110
,
0010
0000
0000
1000
0000
0000
0100
0000
0010
0000
0000
0001
0000
0000
0100
0000
,
1000
0000
0100
0001
0200
0000
0300
0010
,
0010
1000
0001
1000
0000
0100
0000
0100
,
0010
0100
1000
0100
0000
0010
0000
0001
,
0010
0000
0000
0100
0000
0000
0010
0000
1000
0000
0010
0000
0001
0000
0010
0000
,
0000
0002
2000
0000
3003
0000
1000
0000
,
0001
0000
0000
0010
0000
0000
1000
0000
0001
0000
0000
0100
0000
0000
1000
0000
,
0000
1200
0010
0301
,
0001
0000
0000
0100
0000
0000
1000
0000
0001
0000
0000
0010
0000
0000
1000
0000
,
0001
0000
0000
0000
0100
0000
0000
0000
1000
0000
0000
0100
0000
0000
0001
0000
,
0000
0100
1000
0010
0000
0100
0001
0010
,
0000
0001
0010
0001
0000
0100
0010
0100
,
0002
0000
0000
2000
0000
0000
0000
0000
,
0000
0000
3003
0001
,
1000
1000
0000
0010
0010
0000
0100
0100
,
0010
0000
1000
0001
0000
1000
0000
0000
,
0010
0000
0100
0200
0000
0000
0000
0000
,
0000
0000
0000
0000
,
0300
0000
0000
0000
,
0000
0000
0000
0000
,
0001
0000
0000
0100
0000
0000
0010
0000
0000
0000
1000
0000
1000
0000
0000
0000
,
0001
0000
0000
0010
0000
0000
0100
0000
0000
0000
1000
0000
1000
0000
0001
0000
,
1000
0000
0000
0010
0010
0000
0000
0100
,
0001
0010
0100
1000
0010
0001
0010
1000
,
0100
0010
0001
0100
1000
0100
0001
2000
,
0002
0000
0000
0000
,
0000
0000
0000
0000
,
3003
0000
0000
0000
,
0000
0000
0000
0000
;
#NOTES:
     dance-single:
     :
     Hard:
     15:
     :
0000
0000
0000
0000
,
0000
0000
0000
0000
,
0000
0000
0000
0000
,
0000
0000
0000
0000
,
0000
2000
3020
0032
,
0013
1000
0100
1001
0000
0110
0000
2002
,
0000
0000
0000
0000
,
0000
0000
0000
3003
,
0001
0010
0001
0100
0010
0100
0000
1000
,
0100
0000
0100
0010
0000
0100
0000
1000
,
0100
0000
0000
0000
0000
0000
0001
0010
0001
0000
0000
0100
0000
0000
0010
0000
,
1000
0000
0000
0000
0001
0000
0000
0000
0010
0000
0000
0010
0000
0000
0010
0000
,
0100
0100
0000
0010
0010
0000
0100
0100
,
0000
2002
0000
0000
,
0000
0000
0000
3003
,
1000
0001
0010
0100
0000
0100
0010
0000
,
0001
1000
0100
0010
0000
0010
0000
0010
,
0001
1000
0001
0200
0000
0000
1000
0000
,
0010
0000
0001
0001
0000
0010
0300
0010
,
0100
0000
0010
0000
0100
0000
1000
0000
0000
0000
0001
0000
0010
0000
0100
0010
,
0100
0010
0001
0010
1000
0100
0000
0001
,
0100
0000
1000
0000
0100
0000
0001
0000
0000
0000
0000
0000
0000
0000
0100
0010
,
0100
0000
1000
0000
0000
0000
0001
0000
1000
0001
0100
0001
1000
0000
0000
0000
,
0002
0000
2003
0000
3100
0010
0200
1300
,
0002
0013
0100
2000
3100
0010
0001
0200
,
0310
1000
0020
0000
0031
0000
0010
1000
,
0100
0000
0001
0000
0100
0000
1000
0000
0010
1000
0010
0000
0010
0100
0010
0000
,
1000
0001
0100
0001
0010
1000
0010
0001
,
0010
1000
0000
0010
0001
0100
0000
0001
,
0010
0010
0100
0010
0010
1000
0010
0010
,
0000
2002
0000
3003
,
0011
0000
1000
0000
0001
0010
0000
0010
0001
0000
1000
0000
0100
0000
0010
0000
,
0001
0000
0010
0000
0100
0000
1000
0000
0001
0000
1000
0100
0010
0100
0001
0000
,
0101
0000
0001
0000
0100
0010
0000
0010
0100
0000
1000
0000
0100
0000
0001
0000
,
1000
0000
0001
0000
0100
0000
1000
0000
0010
0000
0001
0010
0100
0010
1000
0000
,
1010
0000
0001
0000
1000
0001
0000
0100
0010
0000
0001
0000
0010
0000
0100
0000
,
0010
1000
0020
0000
0001
0000
1030
0000
,
1010
0010
0010
0110
0010
0010
0011
0000
,
0000
0000
0100
0000
0100
0000
0000
0000
0001
0000
0000
1000
0001
0000
1000
0000
,
0010
0000
1000
0000
0010
1000
0000
0001
0100
0000
0001
0100
0000
0010
1000
0000
,
0100
0000
0010
0000
0001
0010
0000
0100
1000
0000
0100
1000
0000
0001
0010
0000
,
0011
0001
0000
1100
1000
0000
0110
0010
,
0000
0000
1001
0000
0010
0000
0000
0100
0000
0000
0010
0000
1001
0000
0000
0000
,
0001
0100
0010
0100
1000
0100
0010
0000
,
1000
0000
0000
1000
0000
0000
1000
0000
0001
0000
0001
0000
0001
0000
0000
0000
,
0001
0100
0010
1000
0010
1000
0001
0100
0010
0100
0010
0100
0001
1000
0001
0000
,
0000
0000
0110
0000
0000
1001
0000
0000
,
1000
0000
0000
0001
0100
0000
0001
0000
0010
0000
0000
0001
0100
0000
0001
0000
,
1000
0000
0010
1000
0010
0000
0010
0100
0010
0000
0010
0001
0010
0000
1000
0000
,
0010
0000
0000
1000
0100
0000
1000
0000
0010
0000
0000
1000
0100
0000
1000
0000
,
0001
0000
0010
0001
0100
0000
2002
0000
0000
0000
0000
0000
3003
0000
0001
1000
,
0001
0100
0010
0100
0001
1000
0001
0010
,
0010
0100
1000
0100
0010
0100
1000
0001
,
0010
0000
0000
0100
0000
0000
0010
0000
0001
1000
0010
0100
0010
0100
0001
0000
,
1000
0000
0001
1000
0010
0000
0000
0000
0100
0000
2002
0000
3003
0000
0000
0000
,
0001
0000
0000
0100
1000
0000
0001
0000
0010
0000
0000
1000
0010
0000
0001
0000
,
1000
0000
0100
0000
0001
0000
0100
0001
0100
0000
0100
0010
0100
0000
0100
1000
,
0100
0000
0000
0010
0001
0000
1000
0000
0100
0000
0000
0001
0100
0000
1000
0000
,
0100
0000
0010
0001
0010
0000
0000
0000
0011
0000
0000
0110
0000
0000
1010
0000
,
0000
0000
0010
0000
1000
0000
0100
1000
0100
0000
0010
0001
0010
0000
0001
0000
,
0100
0000
1000
0100
0001
1000
0010
0000
0100
0000
0001
0100
1000
0100
0010
0000
,
1001
0000
0000
0001
1000
0000
0010
0000
1000
0000
0001
0010
0100
0000
1000
0000
,
0001
0000
1000
0000
0001
0000
1000
0000
1000
0100
0010
0001
0010
0001
1000
0000
,
0011
0001
0010
1100
1000
0100
1001
0010
,
1001
0000
2010
0000
0000
0001
0000
0000
,
3100
0000
0000
0001
0010
0000
1000
0000
0010
0000
0001
0000
0100
0000
0010
0000
,
0101
0000
0000
1000
0010
0000
0001
0000
0010
0000
1000
0000
0100
0000
0010
0000
,
0012
0000
0000
1000
0000
0000
0103
0000
1000
0010
0000
1000
0010
0000
1000
0000
,
2010
0000
0000
0001
0000
0000
3100
0000
1000
0001
0100
0001
0010
0000
0100
0000
,
0001
0100
0000
0100
1000
0000
1010
0000
1000
0010
0000
0010
0001
0000
0011
0000
,
0001
0010
0000
0010
0100
0000
0110
0000
0100
0001
0000
0001
1000
0000
1001
0000
,
1100
0010
0001
1001
0101
0010
1000
1001
,
1010
0000
0001
1000
0100
0000
1000
0001
0010
0000
1000
0010
0001
0000
0100
0010
,
1000
0001
1000
0001
0010
0100
1000
0001
1000
0001
0100
0010
1000
0001
1000
0001
,
0200
0000
0000
0000
,
0000
0000
0000
0000
,
0300
0000
0000
0000
,
0000
0000
0000
0000
;
#NOTES:
     dance-double:
     :
     Easy:
     6:
     :
00000000
00000000
00000000
00000000
,
00000000
00000000
00000000
00000000
,
00000000
00000000
00000000
00000000
,
00000000
00000000
00000000
00000000
,
00000000
00000000
00000000
00000000
,
00011000
00000000
00000000
00010000
00000000
00001000
00000000
00022000
,
00000000
00000000
00000000
00000000
,
00000000
00000000
00000000
00033000
,
00010000
00000100
00001100
00000000
,
00000110
00000000
00001001
00000000
,
00000101
00000000
00001010
00000000
,
00010000
00001000
00100000
00010000
,
00100000
00000000
00000000
00100000
00000000
00000000
00100000
00000000
,
00000000
20020000
00000000
00000000
,
00000000
00000000
00000000
30030000
,
10000000
00000000
00010000
00000000
,
00100000
00000000
00001000
00000000
,
00010000
00000010
00001000
00000000
,
00000001
00001000
00000100
00000000
,
00001000
00000000
00000010
00000000
,
00010000
00000000
00001000
00000000
,
00100000
00010000
01000000
00000000
,
02200000
00000000
00000000
03300000
,
10000000
00010000
10010000
00000000
,
00101000
00000000
00011000
00000000
,
00010000
00000100
00001100
00000000
,
00000101
00000000
00000110
00000000
,
00000001
00001000
00000001
00000000
,
00000100
00000010
00000100
00000000
,
00010010
00000000
00000000
00011000
00000000
00000000
00101000
00000000
,
00000000
00022000
00000000
00033000
,
00010000
00000100
00010000
00000010
,
00010000
00001000
00010000
00100000
,
01000000
10000000
01000000
00100000
,
01000000
00010000
01000000
00001000
,
00010000
00001000
00000100
00000000
,
00000100
00001000
00010000
00000000
,
00100000
00000000
00000000
01000000
00000000
00000000
10010000
00000000
,
00000000
10000000
10010000
00000000
,
10000000
01000000
10000000
01000000
,
00100000
00010000
00100000
00010000
,
00110000
00000000
00000000
10010000
00000000
00000000
01010000
00000000
,
00000000
01001000
00000000
00000000
00001000
00000000
00001000
00000000
,
00010000
00000010
00000100
00000001
,
00000010
00001000
00010000
01000000
,
02200000
00000000
00000000
00000000
,
03300000
00000000
10010000
00000000
00000000
01100000
00000000
00000000
,
10000000
10000000
00010000
00010000
,
00100000
00001000
00010000
00000100
,
00000010
00000010
00000100
00000100
,
00001000
00000001
00001001
00000000
,
00000202
00000000
00000000
00000303
,
00002020
00000000
00000000
00003030
,
00000010
00010000
00001000
00100000
,
00110000
00000000
10010000
00000000
00000000
01010000
00000000
00000000
,
10000000
10000000
00010000
00010000
,
01000000
00001000
00010000
00000010
,
00000110
00000000
00001001
00000000
,
00000001
00000010
00002200
00003300
,
00010000
00001000
00100000
00010000
,
10000000
01000000
00010000
00001000
,
00022000
00000000
00000000
00033000
,
00010000
00001000
00000010
00000100
,
00000110
00000000
00000000
00001001
00000000
00000000
00000110
00000000
,
00000000
00000000
00001001
00000000
00000000
00010100
00000000
00000000
,
00022000
00000000
00000000
00000000
,
00000000
00000000
00000000
00000000
,
00033000
00000000
00000000
00000000
,
00000000
00000000
00000000
00000000
,
00010000
00010000
00001000
00001000
,
01000000
01000000
00100000
00100000
,
01100000
00000000
10010000
00000000
,
10000000
01000000
00010000
00001000
,
00000010
00000001
00000100
00000001
,
00002002
00000000
00000000
00000000
,
00000000
00000000
00000000
00000000
,
00003003
00000000
00000000
00000000
,
00000000
00000000
00000000
00000000
;
#NOTES:
     dance-double:
     :
     Medium:
     12:
     :
00000000
00000000
00000000
00000000
,
00000000
00000000
00000000
00000000
,
00000000
00000000
00000000
00000000
,
00000000
00000000
00000000
00000000
,
00000000
00011000
00010000
00001000
,
00010000
00000000
00000010
00000010
00000000
00000100
00000000
00000200
,
00000000
00000000
00000000
00000000
,
00000000
00000000
00000000
00000300
,
00001000
00010000
00100000
10000000
,
01000000
00000000
00010000
00001000
00000000
00000010
00000000
00000002
,
00000000
00000000
00000000
00000000
00000000
00000000
00000013
00000000
00000010
00000000
00000000
00001000
00000000
00000000
00010000
00000000
,
00000010
00000000
00000000
00000000
00001000
00000000
00000000
00000000
00000001
00000000
00000000
00000100
00000000
00000000
00001000
00000000
,
00010000
00010000
00000000
00100000
00100000
00000000
01000000
01000000
,
00000000
20020000
00000000
00000000
,
00000000
00000000
00000000
30030000
,
10100000
00000000
10000000
01000000
00000000
00100000
00001000
00000000
,
00010000
00000000
00000100
00000010
00000000
00000001
00000000
00000001
,
00000000
00000010
00001000
00020000
00000000
00000000
00000000
00000000
,
00000000
00000000
00000000
01000000
00000000
01000000
00030000
00000000
,
01100000
00000000
01000000
00010000
00000000
00001000
00000100
00000000
,
00000001
00000000
00000010
00001000
00000000
00010000
00000000
00010000
,
00000000
00000010
00000100
00000020
00000000
00000000
00000000
00000130
,
00001000
00010000
00000000
00100000
00000000
02200000
03300000
00000000
,
10000000
01000000
10000000
11000000
,
00110000
00000000
00100000
00010000
00000000
00010000
00100000
00001000
,
00000000
00010000
00000200
00000000
00000000
00000000
00000310
00000001
,
00000010
00000000
00000010
00001000
00000000
00001000
00000010
00000001
,
00000000
00000001
00000100
00000000
00000000
00000100
00001000
00010000
,
00100000
10000000
00000000
10000000
00000000
00010000
00000000
00000000
,
10000000
10000000
00000000
01000000
01000000
00000000
00100000
00100000
,
00000000
00202000
00000000
00303000
,
00011000
00000000
00000000
00000000
00001000
00000000
00000000
00100000
00000000
00000000
01000000
00000000
00000000
00000000
00010000
00000000
,
00000000
01000000
00000000
00000000
00000000
01100000
00000000
00000000
,
01010000
00000000
00000000
00000000
00010000
00000000
00000000
00000100
00000000
00000000
00000010
00000000
00000000
00000000
00000001
00000000
,
00000000
00000010
00000000
00000000
00000000
00000110
00000000
00000000
,
00001001
00000000
00000000
00000000
00000001
00000000
00000000
00000100
00000000
00000000
00001000
00000000
00000000
00000000
00010000
00000000
,
00000000
00100000
10000000
00000000
10000000
01000000
10000000
00000000
,
00110000
00000000
00000000
00101000
00000000
00000000
00010100
00000000
,
00000000
00000000
00000100
00000000
00000010
00000000
00000000
00000000
00000001
00000000
00000000
00000001
00000000
00000000
00000001
00000000
,
00000000
00000000
00000001
00000000
00000000
00000100
00000000
00000000
00000010
00000000
00000000
00001000
00000000
00000000
00010000
00000000
,
00000000
00000000
00001000
00000000
00000000
00010000
00000000
00000000
01000000
00000000
00000000
00100000
00000000
00000000
10000000
00000000
,
01000000
01000000
00000000
00100000
00100000
00000000
00010000
00010000
,
00000000
00000000
00001000
00000000
00001000
00000000
00000000
00000100
00000000
00000000
00000100
00000000
00000110
00000000
00000000
00000000
,
00000010
00000001
00000100
00001000
00010000
01000000
10000000
00100000
,
00010000
00000000
00000000
00010000
00000000
00000000
00010000
00000000
00000000
00000000
00001000
00000000
00001000
00000000
00000000
00000000
,
00010000
00000100
00001000
00000010
00010000
00001000
00100000
00010000
,
00000000
00000000
01100000
00000000
00000000
10010000
00000000
00000000
,
10000000
00000000
00000000
01000000
00000000
00000000
00010000
00000000
10000000
00000000
00000000
00100000
00000000
00000000
00010000
00000000
,
00001000
00000110
00001001
00000101
,
00000001
00000000
00000000
00000100
00000000
00000000
00001000
00000000
00000001
00000000
00000000
00000010
00000000
00000000
00001000
00000000
,
00010000
00000000
01000000
20000000
00000000
00000000
30000000
00010000
,
00100000
10000000
01000000
00010000
00000000
00001000
00000000
00001000
,
00000010
00000001
00000100
00001000
00000000
00010000
00000000
00100000
,
00010000
00000000
00000000
00001000
00000000
00000000
00000100
00000000
00010000
00000000
00001000
00000000
00000010
00000000
00000100
00000000
,
00000000
00000100
00000010
00000000
00000000
00001001
00000000
00000000
,
00000001
00000000
00000000
00000010
00000000
00000000
00001000
00000000
00000001
00000000
00000000
00000100
00000000
00000000
00001000
00000000
,
00000100
00010000
00001000
00011000
,
00010000
00000000
00000000
00001000
00000000
00000000
00000010
00000000
00010000
00000000
00000000
00001000
00000000
00000000
00000100
00000000
,
00000010
00000000
00000000
00000000
00000100
00000000
00000000
00000000
00010000
00000000
00000000
00001000
00000000
00000000
00000010
00000000
,
00000000
00000001
00000100
00001000
00000000
00010000
00100000
10000000
,
00000000
00100000
00010000
00001000
00000000
00001000
00010000
00100000
,
20000000
00000000
00000000
01000000
01000000
00000000
00010000
00000000
,
00100000
00010000
31000000
01000000
,
00100000
00010000
00001000
00000100
00000001
00000100
00001000
00000100
,
00000010
00000000
00000110
00000000
00000000
00001001
00000000
00000000
,
00000220
00000000
00000000
00000000
,
00000000
00000000
00000000
00000000
,
00000330
00000000
00000000
00000000
,
00000000
00000000
00000000
00000000
,
00000001
00000000
00000000
00000100
00000000
00000000
00001000
00000000
00000100
00000000
00001000
00000000
00010000
00000000
00000000
00000000
,
00010000
00000000
00000000
00100000
00000000
00000000
10000000
00000000
00100000
00000000
10000000
00000000
01000000
00000000
00100000
00000000
,
00100000
00000000
00000000
10000000
10000000
00000000
00000000
00100000
,
00100000
00010000
10000000
00010000
01000000
00100000
00010000
00000000
,
00001000
00000100
00000001
00000010
00000100
00000010
00000001
00002000
,
00000002
00000000
00000000
00000000
,
00000000
00000000
00000000
00000000
,
00003003
00000000
00000000
00000000
,
00000000
00000000
00000000
00000000
;
#NOTES:
     dance-double:
     :
     Hard:
     15:
     :
00000000
00000000
00000000
00000000
,
00000000
00000000
00000000
00000000
,
00000000
00000000
00000000
00000000
,
00000000
00000000
00000000
00000000
,
00000000
00000000
00010000
00001000
00000010
00000000
00000010
00001000
,
00010000
00100000
10000000
10010000
00000000
01100000
00000000
20020000
,
00000000
00000000
00000000
00000000
,
00000000
00000000
00000000
30030000
,
10000000
00000000
01000000
00100000
00010000
00000000
01000000
00100000
,
00010000
00000000
00001000
00000100
00000000
00000010
00000000
00000200
,
00000000
00000000
00000000
00000000
00000000
00000000
00001300
00010000
00001000
00000000
00000000
01000000
00000000
00000000
00100000
00000000
,
01100000
00000000
00000000
00000000
01010000
00000000
00000000
00000000
10100000
00000000
00000000
10000000
00000000
00000000
00010000
00000000
,
01000000
01100000
00000000
00001000
00011000
00000000
00000010
00001010
,
00000000
00002002
00000000
00000000
,
00000000
00000000
00000000
00003003
,
00000001
00000000
00000010
00000100
00000000
00000100
00000010
00000000
,
00000010
00001000
00000001
00000100
00000000
00000100
00010000
00001000
,
00100000
00000000
00010000
01000000
00000000
10000000
01000000
00000000
,
00100000
00000000
00010000
00001000
00000000
00001000
00000010
00000001
,
00000000
00000000
00000001
00000000
00000100
00000000
00001000
00000000
00000000
00000000
00001000
00000000
00010000
00000000
00100000
00010000
,
00100000
00000000
00000000
10000000
00000000
00000000
00010000
00000000
00100000
00000000
00001000
00000000
00000000
00000000
00010000
00000000
,
00001000
00000000
00010000
00000000
00001000
00000000
01000000
00000000
00000000
00000000
00100000
00000000
10000000
00000000
01000000
00010000
,
01000000
00000000
00100000
00000000
00000000
00000000
00010000
00000000
00100000
00010000
00100000
00010000
10000000
00000000
00000000
00000000
,
01000000
00000000
00000000
00100000
00010000
00000000
00100000
00000000
00001000
00000000
00000000
00001000
00000000
00000000
00001000
00000000
,
00010000
00000000
00000100
00000010
00000100
00000000
00000000
00000000
00001000
00000000
00000100
00000000
00000000
00000000
00000010
00000000
,
00000001
00000000
00000000
00000100
00001000
00000000
00000100
00000000
00010000
00000000
00000000
00010000
00000000
00000000
00010000
00000000
,
00000000
00000000
01000000
00000000
00100000
00000000
01000000
10000000
00000000
01000000
00010000
00000000
01000000
00000000
00000000
00000000
,
00100000
00010000
00100000
10000000
01000000
00010000
10000000
00100000
,
00010000
00001000
00000100
00010000
00001000
00000010
00000100
00001000
,
00000001
00001001
00000000
00001000
00001010
00000000
00000010
00000110
,
00000000
00002002
00000000
00003003
,
00000001
00000000
00000000
00000000
00000100
00000000
00000000
00000100
00001000
00000000
00010000
00000000
00000000
00000000
00100000
00000000
,
10000000
00000000
00000000
01000000
00000000
00000000
00010000
00000000
00000000
00000000
00000100
00000000
00000010
00000000
00000000
00000000
,
00000001
00000000
00000000
00000000
00000010
00000000
00000000
00000010
00001000
00000000
00010000
00000000
00000000
00000000
01000000
00000000
,
10000000
00000000
00000000
00100000
00000000
00000000
00010000
00000000
00000000
00000000
00011000
00000000
00000000
00000000
00000000
00000000
,
00010000
00000000
00001000
00000000
00010000
00001000
00000000
00000100
00000000
00000000
00000010
00000000
00000000
00000000
00001000
00000000
,
00000000
00000010
00000100
00000000
00000001
00000100
00010000
00001000
,
00000010
00000000
00000000
00000100
00000000
00000000
00000110
00000000
,
00000000
00000000
00000001
00000000
00001000
00000000
00000000
00000000
00000010
00000000
00000000
00000010
00000000
00000000
00000010
00000000
,
00000100
00000000
00000010
00000000
00000100
00000001
00000000
00001000
00000010
00000000
00001000
00000010
00000000
00010000
00001000
00000000
,
00100000
00000000
00010000
00000000
10000000
00100000
00000000
01000000
00010000
00000000
01000000
00010000
00000000
00100000
00010000
00000000
,
00001000
00001100
00000000
00000010
00000110
00000000
00000001
00001001
,
00000000
00000000
00001000
00000000
00000100
00000000
00000000
00010000
00000000
00000000
00001000
00000000
00011000
00000000
00000000
00000000
,
00100000
00000000
00001000
00000000
00010000
00000000
00001000
00000000
01000000
00010000
10000000
00010000
10000000
00000000
00000000
00000000
,
00100000
00000000
00000000
00100000
00000000
00000000
00100000
00000000
01000000
00001000
00010000
00000000
00001000
00010000
00000010
00000000
,
00001000
00000000
00000010
00000000
00010000
00000000
00001000
00000000
00010000
00001000
00010000
00001000
00010000
00000000
00001000
00010000
,
00001000
00000000
00011000
00000000
00000000
01001000
00000000
00000000
,
00001000
00000000
00000000
00100000
00010000
00000000
00001000
00000000
00000100
00000000
00000000
00010000
00001000
00000000
00000010
00000000
,
00000021
00000100
00001000
00000130
,
00010000
00000000
00000000
00000010
00001000
00000000
00010000
00000000
01000000
00000000
00000000
00001000
00010000
00000000
00100000
00000000
,
01200000
00000000
00000000
00000000
10300000
00000000
20020000
00000000
00000000
00000000
00000000
00000000
30030000
00000000
10000000
01000000
,
00100000
00010000
00100000
00002000
00000000
00010000
00000000
00003100
,
00000010
00010000
00001000
00020000
00000000
00001000
00000000
01030000
,
00100000
00000000
00000000
00010000
00000000
00000000
00100000
00000000
01000000
00000000
00010000
00000000
00001000
00000000
00000100
00000000
,
00000000
00000000
00000010
00000001
00000010
00000000
00000000
00000000
00000010
00000000
00001000
00000000
00000010
00000000
00000000
00000000
,
00000010
00000000
00000000
00010000
00001000
00000000
00000100
00000000
00010000
00000000
00000000
00001000
00000010
00000000
00000001
00000000
,
00000010
00001000
00000100
00000001
00001000
00000010
00000001
00000010
,
00000100
00000000
00000000
00010000
00001000
00000000
00100000
00000000
01000000
00000000
00000000
00001000
00010000
00000000
00000010
00000000
,
00000100
00000000
00010000
00001000
00010000
00000000
00000000
00000000
00101000
00000000
00000000
00011000
00000000
00000000
01010000
00000000
,
00000000
00000000
00010000
00000000
00100000
00000000
10000000
00100000
00010000
00000000
01000000
00001000
00010000
00000000
00001000
00000000
,
00000100
00000000
00000001
00000000
00000010
00000001
00000100
00000000
00000010
00000000
00000100
00000000
00001000
00000000
00010000
00000000
,
00100000
01000000
10000000
01000000
00100000
00010000
00001000
01000000
,
00100000
00010000
00100000
10000000
01000000
00010000
00001000
00000010
,
00000110
00000100
00000100
00001100
00001000
00001000
00001001
00000001
,
00000011
00000000
00000110
00000000
00000000
00001001
00000000
00000000
,
00000011
00000000
00000000
00000001
00000000
00000000
00000100
00000000
00001000
00000000
00010000
00000000
00000100
00000000
00001000
00000000
,
00010000
00000000
00000000
10000000
00000000
00000000
01000000
00000000
00010000
00000000
00001000
00000000
01000000
00000000
00010000
00000000
,
00001000
00000000
00000000
00000001
00000000
00000000
00000010
00000000
00001000
00000000
00010000
00000000
00000010
00000000
00001000
00000000
,
00010000
00000000
00000000
10000000
00000000
00000000
00100000
00000000
00010000
00000000
00001000
00000000
00100000
00000000
00010000
00000000
,
00001000
00000100
00000000
00001000
00000100
00000000
00000010
00000000
00000001
00000100
00000000
00000001
00000100
00000000
00001000
00000000
,
00010000
00100000
00000000
00010000
00100000
00000000
10000000
00000000
01000000
00010000
00000000
01000000
00010000
00000000
00001000
00000000
,
00011000
00000000
00000000
00000010
00000110
00000000
00000000
00000001
,
00001000
00000000
00000001
00000100
00001000
00000000
00010000
00000100
00001000
00000000
00010000
00000000
00100000
10000000
00100000
00000000
,
00010000
00100000
01000000
00000000
10000000
00100000
01000000
00000000
00100000
00010000
00100000
01000000
00100000
00000000
10000000
00020000
,
20000000
00000000
00000000
00000000
,
00000000
00000000
00000000
00000000
,
30030000
00000000
00000000
00000000
,
00000000
00000000
00000000
00000000
;
