
//----- song ID: ztrd -----//
#TITLE:絶対零度;
#ARTIST:かねこちはる;
#TITLETRANSLIT:Zettaireido;
#ARTISTTRANSLIT:Chiharu Kaneko;
#BANNER:Zettaireido.png;
#BACKGROUND:Zettaireido-bg.png;
#CDTITLE:./CDTitles/MUSECA 1.5.png;
#MUSIC:Zettaireido.ogg;
#SAMPLESTART:65.406;
#SAMPLELENGTH:15;
#BPMS:0=209;
#NOTES:
     dance-single:
     :
     Beginner:
     5:
     :
0000
0000
0000
0000
,
0000
0000
0000
0000
,
0000
0000
0000
0000
,
0000
0000
0000
0000
,
0000
0000
0000
0000
,
0000
0000
0000
0000
,
0000
0000
0000
0000
,
0000
0000
0000
0000
,
0000
0000
0000
0000
,
0000
0000
0000
0000
,
0001
0000
0000
0000
,
0001
0000
0000
0000
,
0010
0000
0000
0000
,
0000
0000
0000
0000
,
0010
0000
0000
0000
,
0010
0000
0000
0000
,
1000
0000
0000
0000
,
0000
0000
0000
0000
,
1000
0000
1000
0000
,
0100
0000
0000
0000
,
1000
0000
1000
0000
,
0010
0000
0000
0000
,
0010
0000
1000
0000
,
0010
0000
0000
0000
,
0010
0000
0010
0000
,
0001
0000
0000
0000
,
1001
0000
0000
0000
,
0000
0000
0000
0000
,
1001
0000
0000
0000
,
0000
0000
0000
0000
,
0001
0000
0001
0000
,
0010
0000
0000
0000
,
0001
0000
0100
0000
,
0001
0000
0000
0000
,
0002
0000
0000
0000
,
0003
0000
0000
0000
,
0020
0000
0000
0000
,
0030
0000
0000
0000
,
2000
0000
0000
0000
,
3000
0000
0000
0000
,
0200
0000
0000
0000
,
0300
0000
0000
0000
,
1000
0000
1000
0000
,
0010
0000
0010
0000
,
1000
0000
0010
0000
,
1000
0000
0000
0000
,
0010
0000
0010
0000
,
0001
0000
0001
0000
,
0010
0000
0001
0000
,
0001
0000
0000
0000
,
0000
0000
0000
0000
,
0100
0000
0000
0000
,
0000
0000
0000
0000
,
0010
0000
0000
0000
,
0000
0000
0000
0000
,
1000
0000
0000
0000
,
0000
0000
0000
0000
,
1000
0000
0010
0000
,
1000
0000
0010
0000
,
0001
0000
0001
0000
,
0010
0000
0000
0000
,
0001
0000
0010
0000
,
0001
0000
0010
0000
,
1000
0000
1000
0000
,
0010
0000
0000
0000
,
1001
0000
0000
0000
,
0110
0000
0000
0000
,
1000
0000
1000
0000
,
0010
0000
0000
0000
,
1001
0000
0000
0000
,
0110
0000
0000
0000
,
0001
0000
0001
0000
,
0010
0000
0000
0000
,
0001
0000
0001
0000
,
0100
0000
0001
0000
,
0010
0000
0010
0000
,
1000
0000
0000
0000
,
1000
0000
1000
0000
,
0100
0000
1000
0000
,
0010
0000
0010
0000
,
0001
0000
0000
0000
,
1001
0000
0000
0000
,
0110
0000
0000
0000
,
0010
0000
0010
0000
,
0010
0000
0000
0000
,
1001
0000
0000
0000
,
0110
0000
0000
0000
,
0001
0000
1000
0000
,
0001
0000
1000
0000
,
0001
0000
1000
0000
,
0001
0000
0000
0000
,
0020
0000
0000
0000
,
0030
0000
0000
0000
,
0002
0000
0000
0000
,
0003
0000
0000
0000
,
0020
0000
0000
0000
,
0030
0000
0000
0000
,
2000
0000
0000
0000
,
3000
0000
0000
0000
,
1000
0000
1000
0000
,
0010
0000
0010
0000
,
0002
0000
0000
0000
,
0000
0000
0000
0000
,
0003
0000
0000
0000
,
0000
0000
0000
0000
;
#NOTES:
     dance-single:
     :
     Easy:
     9:
     :
0000
0000
0000
0000
,
0000
0000
0000
0000
,
0000
0000
0000
0000
,
0000
0000
0000
0000
,
0000
0000
0000
0000
,
0000
0000
0000
0000
,
0000
0000
0000
0000
,
0000
0000
0000
0000
,
0000
0000
0000
0000
,
0000
0000
0000
0000
,
0001
0010
0001
0010
,
0001
0100
0001
0000
,
1000
0010
1000
0010
,
1000
0100
1000
0000
,
0001
0010
0100
0000
,
1000
0010
0100
0000
,
0001
1000
0001
1000
,
0100
0100
0010
0000
,
0002
0000
0003
0001
,
0020
0000
0030
0010
,
0100
1000
0001
1000
,
0200
0000
0000
0300
,
1000
0001
1001
0000
,
0010
0100
0010
0000
,
0110
0000
1001
0000
,
1000
0010
0100
0001
,
2000
0000
0000
3000
,
1000
1000
1000
0000
,
0002
0000
0000
0003
,
0001
0001
0001
0000
,
1000
0001
0010
0000
,
0001
1000
0010
0000
,
1000
0001
0100
0001
,
1000
0100
1000
0000
,
0002
0000
0000
0003
,
0200
0000
0000
0300
,
0020
0000
0000
0030
,
2000
0000
0000
3000
,
1000
0001
0100
0000
,
0001
0010
0100
0000
,
2000
0000
0002
3003
,
2002
0000
0000
3003
,
1000
0100
0010
0001
,
0100
0010
1000
0000
,
0001
0100
0001
0010
,
0100
1000
0001
0000
,
1001
0000
0110
0000
,
0001
1000
1001
0000
,
0001
0100
0010
1000
,
0002
0000
0000
0000
,
0000
0000
0000
0003
,
2000
0000
0000
0000
,
0000
0000
0000
3000
,
0020
0000
0000
0000
,
0000
0000
0000
0030
,
0200
0000
0000
0000
,
0000
0000
0300
0000
,
0110
0000
1001
0000
,
0001
0010
0100
0000
,
0110
0000
1001
0000
,
1000
0010
0100
0000
,
0001
1000
0100
1000
,
0010
1000
0001
0000
,
1000
0001
0100
0001
,
0010
0010
0010
0000
,
0001
0000
0001
0010
,
0100
0000
0100
1000
,
0001
0100
0001
0000
,
1000
0010
1000
0000
,
1000
0000
1000
0010
,
0100
0000
0100
0001
,
1000
0100
1000
0000
,
0001
0010
0001
0000
,
1000
0100
0010
0001
,
1000
0010
0100
0001
,
1000
1000
0010
0100
,
0001
0001
0010
0100
,
2000
0000
3000
1000
,
0002
0000
0003
0001
,
1000
0010
0100
0001
,
0010
0010
0010
0000
,
0110
0000
1001
0000
,
1000
0100
0010
0000
,
0110
0000
1001
0000
,
0001
0010
0100
0000
,
1000
0001
0100
0010
,
1000
0001
0010
0000
,
0001
0001
0001
0001
,
1000
1000
1000
1000
,
0010
0010
0100
0100
,
0010
0100
0010
0000
,
0110
0000
1001
0000
,
1000
0001
0100
0000
,
0110
0000
1001
0000
,
0001
1000
0100
0000
,
1100
0000
0011
0000
,
0001
1000
0010
0000
,
1010
0000
0101
0000
,
0100
0001
1000
0000
,
1010
0000
0101
0000
,
1100
0000
0011
0000
,
2002
0000
0000
0000
,
0000
0000
0000
0000
,
3003
0000
0000
0000
,
0000
0000
0000
0000
;
#NOTES:
     dance-single:
     :
     Medium:
     14:
     :
0000
0000
0000
0000
,
0000
0000
0000
0000
,
0000
0000
0000
0000
,
0000
0000
0000
0000
,
0000
0000
0000
0000
,
0000
0000
0000
0000
,
0000
0000
0000
0000
,
0000
0000
0000
0000
,
0000
0000
0000
0000
,
0000
0000
0000
0000
,
0001
0010
0100
0000
1000
0010
0100
0000
,
0001
0010
0001
1000
0010
1000
0001
0000
,
1000
0100
0010
0000
0001
0100
0010
0000
,
1000
0010
1000
0001
0010
0001
1000
0000
,
0001
0010
0100
1000
0100
0010
0001
0000
,
1000
0010
0100
0001
0100
0010
1000
0000
,
0001
0010
0100
1000
0010
0100
0001
0010
,
0100
0010
0100
0010
0100
0010
0100
0000
,
1000
0100
0010
0001
0000
0001
0100
0010
,
1000
0010
0100
0001
0000
0001
1000
0100
,
0010
0000
0011
0000
0001
0010
0100
1000
,
0001
0100
1000
0100
0000
0110
0000
0000
,
1000
0000
0010
0000
0100
0000
0000
0000
0001
0000
0000
1000
0000
0000
0001
0000
,
0100
0000
0010
0000
1000
0000
0000
0100
0000
0000
0000
0000
1000
0000
0000
0000
,
0100
0010
0100
0000
0010
0001
0010
0000
,
0001
0000
1000
0000
0001
0000
0000
0000
0100
0000
0000
0100
0000
0000
0100
0000
,
0020
2030
3002
0203
,
0310
0000
0000
1000
0000
0000
0010
0000
0100
0000
0001
0000
1000
0000
0000
0000
,
0001
0000
0000
0010
0000
0000
0001
0000
1000
0000
0100
0000
1000
0000
0001
0000
,
0200
0000
0000
0000
2300
0000
0000
0000
3100
0000
0000
0001
0000
0000
1000
0000
,
0100
0010
0001
0000
0100
0010
1000
0000
,
0010
0100
0001
0000
0010
0100
1000
0000
,
0001
0010
1000
0010
0001
1000
0100
0010
,
0001
0100
0010
1000
0001
0100
0010
0000
,
1000
0000
0001
0100
0000
0100
0010
1000
,
0001
0000
0000
0010
0000
0000
0100
0000
0000
0000
0100
0000
0001
0000
0100
0000
,
1000
0000
0000
0000
1100
0000
0000
0000
0100
0000
0000
0010
0000
0000
0001
0000
,
1000
0000
0000
0010
0000
0000
0100
0000
0002
0000
0000
0000
2003
0000
0000
0000
,
3001
0000
0100
0010
0000
0010
1000
0100
,
1000
0000
0000
0001
0000
0000
0200
0000
0000
0000
0000
0000
0300
0000
0010
0000
,
0100
0000
0000
0000
0110
0000
0000
0000
1000
0000
0000
0010
0000
0000
0100
0000
,
0001
0000
2000
0002
0000
0000
3003
0000
,
1000
0100
1000
0100
0001
0100
0001
0100
,
1000
0001
0010
0100
0001
1000
0010
0000
,
0001
0000
0000
0000
0011
0000
0000
0000
0010
0000
0000
0001
0000
0000
0100
0000
,
0010
0000
0000
1000
0000
0000
0100
0000
2000
0000
0000
0000
3002
0000
0000
0000
,
1003
0010
1000
0010
0001
0010
0001
0010
,
1000
0001
0100
0010
0001
1000
0100
0000
,
0010
0000
0000
0000
1010
0000
0000
0000
1000
0000
0000
0001
0000
0000
1000
0000
,
0002
0000
0000
0000
,
0000
0000
0000
0003
,
2000
0000
0000
0000
,
0000
0000
0000
3000
,
1000
0001
1000
0001
0000
0001
0010
0000
,
0001
0100
0010
0000
1000
0100
0010
0000
,
0001
1000
0010
0100
0001
1000
0100
0010
,
0001
0010
1000
0010
0001
1000
0001
0000
,
1000
0010
0010
0100
0010
0010
1000
0001
,
0001
0010
0001
0001
0010
0100
1000
0000
,
0001
0010
0010
0100
0010
0010
0001
1000
,
1000
0010
1000
1000
0010
0100
0001
0000
,
1000
0100
0100
0010
0100
0100
1000
0001
,
0001
0100
0001
0001
0100
0010
1000
0000
,
0001
0010
0100
1000
0001
0010
0100
1000
,
0010
0000
0000
0110
0000
0000
0100
0000
0001
0000
1000
0000
0002
0000
0000
0000
,
1003
0000
0000
0000
0000
0000
1000
0000
0010
0000
0000
0100
0000
0000
0001
0000
,
0100
0000
0000
0000
0000
0000
0001
0000
1000
0000
0000
0001
0000
0000
0010
0000
,
0100
0000
0000
0000
0100
0000
0000
0000
1000
0000
0000
0001
0000
0000
1000
0000
,
0020
0100
1000
0100
,
1030
0000
0000
0000
0000
0000
1000
0000
0100
0000
0000
0010
0000
0000
0100
0000
,
0010
0000
0000
0000
0000
0000
0010
0000
0001
0000
0000
1000
0000
0000
0001
0000
,
1000
0000
0000
1000
0001
0010
0001
0000
,
0100
0000
0000
0010
0000
0000
0100
0000
0000
0010
0000
0000
0100
0000
0000
0000
,
0001
0010
0100
1000
0010
0100
1000
0100
,
0001
1000
0100
0001
1000
0010
0001
1000
,
0100
0010
0001
0010
0100
1000
0010
0100
,
0001
0010
1000
0010
0001
1000
0100
0010
,
0001
0100
0001
0100
0010
0001
0010
0001
,
1000
0100
1000
0100
0001
1000
0001
1000
,
0100
0010
0001
1000
0100
0001
0100
1000
,
0002
0203
0320
2030
3002
0023
0230
2300
,
3001
0100
0001
1000
0000
0000
1000
0100
,
0010
0001
1000
0001
0000
0000
0001
0010
,
0100
0000
0110
0000
1000
0100
0001
0100
,
1000
0010
0001
0010
0000
0110
0000
0000
,
1000
0000
0000
0000
1010
0000
0000
0000
0010
0000
0000
0100
0000
0000
0001
0000
,
0100
0010
1000
0001
0000
0000
1000
0000
,
0100
0110
0001
1001
,
0010
0110
1000
1001
,
0001
0010
1000
0010
0001
0100
1000
0100
,
0001
1000
0001
1000
0001
0000
0000
0000
,
1000
0100
0010
0100
1000
0010
0001
0010
,
1000
0100
0010
0100
1000
0001
0010
0100
,
1000
0100
0001
0100
1000
0010
0100
0001
,
1000
0100
0001
0100
1000
0010
0100
0000
,
0001
0100
0010
0100
0001
0010
1000
0010
,
0001
0100
0010
0100
0001
1000
0010
0100
,
0001
0100
1000
0100
0001
0010
0100
1000
,
0001
0100
1000
0100
0001
0010
0100
0000
,
1000
0000
0000
0010
0000
0100
0000
0010
0100
0000
0000
0001
0000
0010
0000
0100
,
0010
0000
0000
0100
0000
1000
0000
0001
0100
0000
0000
0010
0000
0000
0100
0020
,
0000
0000
0000
0000
,
0000
0000
0000
0000
,
0030
0000
0000
0000
,
0000
0000
0000
0000
;
#NOTES:
     dance-single:
     :
     Hard:
     17:
     :
0000
0000
0000
0000
,
0000
0000
0000
0000
,
0000
0000
0000
0000
,
0000
0000
0000
0000
,
0000
0000
0000
0000
,
0000
0000
0000
0000
,
0000
0000
0000
0000
,
0000
0000
0000
0000
,
0000
0000
0000
0000
,
0000
0000
0000
0000
,
0001
0010
0100
1000
0010
0100
0001
0010
,
0100
1000
0010
0100
0001
0010
0100
1000
,
0001
0100
0010
1000
0100
0010
0001
0100
,
0010
1000
0100
0010
0001
0100
0010
1000
,
0100
0010
0100
0000
0010
0000
0001
0000
1000
0001
1000
0000
0010
0000
0100
0000
,
0001
1000
0001
0000
0100
0000
0001
0000
0010
0100
0010
0000
0001
0000
1000
0000
,
0010
1000
0010
0000
0100
0001
0100
0000
0001
0010
0001
0000
1000
0100
1000
0000
,
0001
1000
0001
1000
0001
1000
0001
1000
0001
1000
0001
1000
0001
0000
0000
0000
,
1000
0000
0010
0000
0100
0000
0010
0000
0000
0000
0010
0000
1000
0010
0100
0001
,
0100
0000
0001
0000
1000
0000
0100
0000
0000
0000
0100
0000
0010
0001
0010
0100
,
1000
0001
0010
0001
1000
1000
0100
0100
,
0010
0001
1000
0010
0100
0001
1000
0100
0000
0000
0110
0000
0000
0000
0000
0000
,
0001
0000
0010
0000
1000
0000
0000
0000
0001
0000
0100
1000
0000
1000
0001
0000
,
1000
0000
0000
0000
0000
0000
0010
0000
0000
0000
0000
0000
0100
0000
0000
0000
0000
0000
0001
0000
0000
1000
0000
0000
0000
0000
0000
0000
0000
0000
0000
0000
0000
0000
0000
0000
1000
0000
0000
0000
0100
0000
0000
0000
0010
0000
0000
0000
,
0001
0000
0001
0000
1000
0000
1000
0000
0010
0100
0010
0100
0010
0100
0010
0100
,
0020
0000
0000
0000
2030
0000
0000
0000
3001
0000
0000
0001
0000
0000
0001
0000
,
1000
0000
0100
0010
0000
0000
0000
0000
0002
0000
0000
0000
2003
0000
0000
0000
,
3010
0000
0000
0010
0000
0000
0010
0100
0010
0000
1000
0000
0001
0000
1000
0000
,
0100
0000
0010
0001
0000
0010
0001
0010
0001
1000
0001
1000
0001
0000
0000
0000
,
2000
0000
0000
0000
3002
0000
0000
0000
0103
0000
0000
0010
0000
0000
0100
0000
,
0001
0000
0000
0000
0100
0000
0000
0000
0010
0000
1000
0001
1000
0000
0000
0000
,
0002
0000
0000
0000
1003
0100
0010
0001
1000
0000
0001
0000
1000
0000
0000
0000
,
0001
0010
0100
0000
1000
0010
0100
0000
0001
0100
0010
1000
0001
0100
0010
0000
,
1000
0000
0000
0000
0100
0010
0001
0000
1000
0100
0010
0001
1000
0000
0000
0000
,
0001
0000
0000
0000
0100
0000
0001
0000
0000
0000
1000
0010
0100
0000
0001
0000
,
1000
0000
0000
0100
0000
0000
0220
0000
0000
0000
0000
0000
0330
0000
0001
1000
,
0001
0000
0000
0000
0100
0000
0000
0000
0010
0000
0000
1000
0000
0000
0001
0000
,
1000
0000
0000
0100
0000
0000
0010
0000
0002
0000
0000
0000
2003
0000
0000
0000
,
3001
0000
0000
0000
0010
0000
0100
0000
0000
0000
0100
1000
0001
0000
0100
0000
,
0010
0000
0000
1000
0000
0000
2002
0000
0000
0000
0000
0000
3003
0000
0001
0010
,
0100
0000
0000
0000
1000
0000
0000
0000
0001
0000
0000
0100
0000
0000
0010
0000
,
0100
0000
0002
2000
0000
0000
3003
0000
,
1000
0000
0010
0000
1000
0000
0010
0000
0000
0000
1000
0100
0010
0000
0001
0000
,
1000
0000
0001
0100
0000
0001
0100
0000
0000
0000
0100
0000
0001
0000
1000
0001
,
1000
0000
0000
0000
1010
0000
0000
0000
0101
0000
0000
0001
0000
0000
1000
0000
,
0001
0000
0000
0000
0000
0000
0100
0000
0000
0010
0000
0000
0000
0000
0000
0100
0000
0000
0010
0000
0000
0000
0000
0000
1000
0000
0000
0000
0001
0000
0000
0000
0010
0000
0000
0000
0100
0000
0000
0000
1000
0000
0000
0000
0010
0000
0000
0000
,
0100
0000
0000
0000
0001
0000
1001
0000
0000
0000
1000
0100
0010
0000
0001
0000
,
0011
0000
0000
0100
0000
0000
2002
0000
0000
0000
0000
0000
3003
0000
1000
0010
,
0100
0000
0001
0000
1000
0000
0010
0000
1000
0000
0001
1000
0000
0001
1000
0000
,
0002
0000
0000
0000
,
0000
0000
0000
0003
,
2000
0000
0000
0000
,
0000
0000
0000
3000
,
0001
1000
0001
1000
0001
0000
1001
0000
0000
0000
1000
0000
0001
0000
0010
0000
,
0100
0001
0100
1000
0001
0010
0100
1000
,
0010
0100
0010
0100
0001
1000
0001
1000
,
0001
0010
0100
0000
1000
0010
0100
0000
0010
0100
0001
1000
0010
0000
0000
0000
,
0010
1000
1010
0010
0100
0001
1001
1000
,
0100
0000
0010
0000
0110
0000
0100
0000
1000
0000
0001
0000
0101
0000
0100
0010
,
0100
0001
0011
0010
0100
1000
1001
0001
,
0100
0000
0001
0000
0011
0000
0010
0000
0100
0000
1000
0000
1001
0000
0001
1000
,
0001
0001
0100
0100
0010
0010
1010
0000
,
1000
1000
0100
0100
0010
0010
0011
0000
,
0001
0010
0100
0000
1000
0001
0010
0000
0001
0100
0001
0100
0010
1000
0010
0000
,
1000
0000
0000
1010
0000
0000
1000
0100
0020
0000
0032
0000
2003
0000
3002
0000
,
1003
0000
0000
0000
0000
0000
1000
0000
0100
0000
0000
0010
0000
0000
0100
0000
,
0010
0000
0000
0000
0000
0000
0001
0000
0100
0000
0000
0010
0000
0000
0100
0000
,
0010
0000
0000
0000
0110
0000
0000
0000
1010
0000
0000
1000
0000
0000
0001
0000
,
0010
0000
0000
0000
0011
0000
0000
0000
0001
0000
0000
0100
0000
0000
1000
0000
,
0100
0000
0000
0000
0000
0000
0100
0000
0001
0000
0000
1000
0000
0000
0001
0000
,
1000
0000
0000
0000
0000
0000
1000
0000
0010
0000
0000
0100
0000
0000
0001
0000
,
0100
0000
0000
0100
0001
1000
0001
1000
,
0010
0000
0000
1010
0000
0000
1000
0000
0000
1100
0000
0000
1001
0000
0001
0000
,
1000
0000
0100
0010
0100
0000
0010
0001
0010
0000
0001
1000
0000
0001
1000
0000
,
0001
0000
0100
0010
0100
0000
0010
1000
0010
0000
1000
0001
0000
1000
0001
0000
,
1000
0000
0100
0010
0001
0000
0100
0010
1000
0000
0010
0100
0000
0010
0100
0000
,
0001
0000
0100
0000
1000
0000
0100
0000
0001
0000
1000
0001
0000
1000
0001
0000
,
0010
0000
0100
1000
0100
0000
1000
0010
1000
0000
0001
0100
0000
0001
0100
0000
,
0001
0000
0010
0100
0010
0000
0100
1000
0100
0000
1000
0010
0000
1000
0010
0000
,
1000
0100
0010
0000
0001
1000
0100
0000
1000
0010
0100
0001
1000
0010
0100
0001
,
2000
3020
0230
2300
3002
0023
0230
0302
,
1003
0000
0100
0000
1000
0000
0001
0000
0000
0000
0000
0000
0001
0010
0100
1000
,
0001
0000
0100
0000
0001
0000
1000
0000
0000
0000
0000
0000
1000
0100
0010
0001
,
1000
0010
0100
0001
0010
0010
0100
0100
,
1000
0100
1000
0010
0100
0001
0010
0000
0000
0000
0011
0000
0000
0000
0000
0000
,
0001
0000
1000
0100
1000
0000
0001
0100
0001
0000
0100
0010
0000
1000
0010
0000
,
1000
0000
0000
0001
0000
0000
0100
0000
0000
0000
0000
0000
0001
0000
0000
1000
0000
0000
0001
0000
0000
1000
0000
0000
0000
0000
0000
0000
0000
0000
0000
0000
0000
0000
0000
0000
1000
0000
0000
0000
0100
0000
0000
0000
0010
0000
0000
0000
,
0001
0001
1000
1000
0010
0010
0110
0000
,
1000
1000
0001
0001
0010
0010
0110
0000
,
1000
0100
0010
0000
0001
0000
1000
0000
0001
0100
0010
0000
1000
0000
0001
0000
,
1000
0100
0010
0000
0001
0100
0010
1000
0020
0000
0000
0000
0030
0000
0000
0000
,
1000
0000
0100
0010
0001
1000
0000
0100
0000
1000
0001
0000
0100
0010
0100
0000
,
0001
0000
0100
0010
1000
0001
0000
0100
0000
0001
1000
0000
0100
0010
0100
0000
,
1000
0000
0010
0100
0001
1000
0000
0010
0000
1000
0001
0000
0010
0100
0010
0000
,
0001
0000
0010
0100
1000
0001
0000
0010
0000
0001
1000
0000
0010
0100
0010
0000
,
1000
0000
0010
0100
0001
1000
0000
0100
0000
1000
0010
0000
1000
0001
1000
0000
,
0001
0000
0010
0100
1000
0001
0000
0100
0000
0010
0100
0000
0001
1000
0001
0000
,
1000
0000
0010
0100
0001
1000
0000
0100
0000
0001
0100
0000
1000
0100
0010
0000
,
0001
0000
0100
0010
1000
0001
0000
0010
0000
1000
0010
0000
0001
0010
0100
0000
,
1000
0001
1000
0001
0000
1000
0000
0001
0100
0010
0100
0010
0000
0100
0000
0010
,
1000
0001
1000
0001
0000
1000
0000
0001
0010
0100
0010
0100
0010
0000
0100
0020
,
0000
0000
0000
0000
,
0000
0000
0000
0000
,
0030
0000
0000
0000
,
0000
0000
0000
0000
;
#NOTES:
     dance-double:
     :
     Easy:
     9:
     :
00000000
00000000
00000000
00000000
,
00000000
00000000
00000000
00000000
,
00000000
00000000
00000000
00000000
,
00000000
00000000
00000000
00000000
,
00000000
00000000
00000000
00000000
,
00000000
00000000
00000000
00000000
,
00000000
00000000
00000000
00000000
,
00000000
00000000
00000000
00000000
,
00000000
00000000
00000000
00000000
,
00000000
00000000
00000000
00000000
,
00001000
00010000
00001000
00010000
,
00000100
00001000
00000100
00000000
,
00001000
00000001
00001000
00000001
,
00000010
00000100
00000010
00000000
,
00000001
00000010
00000100
00000000
,
00001000
00000010
00000100
00000000
,
00000010
00001000
00000010
00010000
,
00001000
00001000
00010000
00000000
,
00002000
00000000
00000000
00003000
,
00200000
00000000
00000000
00300000
,
00010000
00100000
01000000
10000000
,
00020000
00000000
00000000
00030000
,
10000000
01000000
10000000
00000000
,
01000000
00100000
01000000
00000000
,
00100000
00010000
00100000
00001000
,
00010000
00001000
00010000
00000000
,
00022000
00000000
00000000
00033000
,
00010000
00000100
00001000
00000000
,
00000220
00000000
00000000
00000330
,
00000001
00001000
00000001
00000000
,
00000001
00001000
00000001
00001000
,
00000100
00001000
00000100
00000000
,
00010000
00000100
00010000
00000100
,
00010000
00001000
00010000
00000000
,
00002000
00000000
00000000
00003000
,
02000000
00000000
00000000
03000000
,
00020000
00000000
00000000
00030000
,
20000000
00000000
00000000
30000000
,
10000000
00000000
01000000
00000000
,
00100000
00010000
00100000
00000000
,
00001000
00000000
00010000
00000000
,
00011000
00000000
00000000
00000000
,
00010000
00001000
00010000
00000100
,
00001000
00000010
00001000
00000000
,
00001000
00000100
00000010
00000001
,
00001000
00000001
00000010
00000000
,
00000110
00000000
00001001
00000000
,
00000001
00001000
00000100
00000000
,
00010000
00001000
00010000
00000000
,
00011000
00000000
00000000
00000000
,
00000000
00000000
00000000
00000000
,
00011000
00000000
00000000
00000000
,
00000000
00000000
00000000
00000000
,
00001000
00000000
01000000
00000000
,
00010000
00000000
01000000
00000000
,
00100000
00000000
10000000
00000000
,
00100000
01000000
00100000
00000000
,
10000000
01000000
00100000
00100000
,
00010000
00100000
00001000
00000000
,
00010000
00001000
00010000
00010000
,
00000100
00001000
00000010
00000000
,
00001000
00000001
00000100
00000010
,
00001000
00000001
00000010
00000100
,
00001000
00000100
00010000
00001000
,
00011000
00000000
00000000
00000000
,
00001000
00010000
00001000
00000000
,
00001000
01000000
00010000
00000000
,
00010000
00100000
01000000
10000000
,
00010000
10000000
00010000
00000000
,
10000000
01000000
10000000
00000000
,
10000000
00010000
01000000
00000000
,
01000000
00001000
00010000
00001000
,
00011000
00000000
00000000
00000000
,
00001000
00010000
00000010
00001000
,
00000100
00001000
00000010
00000100
,
00000001
00000001
00000010
00000100
,
00001000
00001000
00000100
00010000
,
00011000
00000000
00001000
00100000
,
00010000
00000000
00010000
01000000
,
01100000
00000000
00100000
10000000
,
00020000
00000000
00000000
00030000
,
10000000
01000000
00100000
00000000
,
00100000
00001000
00010000
00000000
,
00001000
00010000
00000010
00000000
,
00000010
00001000
00000001
00000000
,
00000001
00000010
00000100
00001000
,
00000100
00010000
00001000
00000000
,
00020000
00000000
00000000
00030000
,
00002000
00000000
00000000
00003000
,
00010000
00001000
00010000
00001000
,
00010000
00001000
00011000
00000000
,
00010000
00001000
01000000
00010000
,
10000000
01000000
10000000
00000000
,
00100000
10000000
00010000
00100000
,
00001000
00010000
00001000
00000000
,
00001000
00010000
00000010
00001000
,
00000001
00000010
00000001
00000000
,
00000100
00000001
00001000
00000100
,
00010000
00001000
00010000
00000000
,
00011000
00000000
01001000
00000000
,
01010000
00000000
01100000
00000000
,
20020000
00000000
00000000
00000000
,
00000000
00000000
00000000
00000000
,
30030000
00000000
00000000
00000000
,
00000000
00000000
00000000
00000000
;
#NOTES:
     dance-double:
     :
     Medium:
     14:
     :
00000000
00000000
00000000
00000000
,
00000000
00000000
00000000
00000000
,
00000000
00000000
00000000
00000000
,
00000000
00000000
00000000
00000000
,
00000000
00000000
00000000
00000000
,
00000000
00000000
00000000
00000000
,
00000000
00000000
00000000
00000000
,
00000000
00000000
00000000
00000000
,
00000000
00000000
00000000
00000000
,
00000000
00000000
00000000
00000000
,
00001000
00010000
00001000
00000000
00010000
00000000
00000100
00000000
,
00001000
00000100
00001000
00000000
00000001
00000010
00000001
00000000
,
00000100
00000010
00000100
00000000
00000010
00000000
00001000
00000000
,
00000010
00010000
00000010
00000000
00010000
00001000
00010000
00000000
,
00001000
00100000
00001000
00100000
00010000
00100000
00010000
00000000
,
01000000
00100000
01000000
00100000
10000000
00100000
10000000
00000000
,
00010000
10000000
01000000
00100000
00010000
10000000
01000000
00100000
,
00010000
00100000
00001000
00100000
00010000
00100000
00001000
00000000
,
00010000
00001000
00010000
00000100
00000000
00001000
00000100
00000000
,
00000010
00000001
00001000
00000001
00000000
00000100
00000010
00000000
,
00001010
00000000
00010010
00000000
00000010
00010000
00001000
00010000
,
00001000
01000000
00010000
00100000
00000000
00110000
00000000
00000000
,
00010000
00000000
00100000
00000000
01000000
00000000
00000000
00000000
10000000
00000000
00000000
00010000
00000000
00000000
10000000
00000000
,
01000000
00000000
00000000
00000000
00100000
00000000
00000000
00110000
00000000
00000000
00000000
00000000
00010000
00000000
00000000
00000000
,
10000000
01000000
00100000
00000000
00010000
00100000
00001000
00000000
,
00010000
00000000
00001000
00000000
00010000
00000000
00000000
00000000
00001000
00000000
00000000
00010000
00000000
00000000
00000100
00000000
,
00002000
00003020
00000230
00000302
,
00000013
00000000
00000000
00000100
00000000
00000000
00000010
00000000
00000001
00000000
00001000
00000000
00000001
00000000
00000000
00000000
,
00001000
00000000
00000000
00000100
00000000
00000000
00001000
00000000
00000100
00000000
00010000
00000000
00001000
00000000
00000000
00000000
,
02000000
00000000
00000000
00000000
03020000
00000000
00000000
00000000
00130000
00000000
00000000
01000000
00000000
00000000
10000000
00000000
,
00010000
01010000
10000000
11000000
,
01000000
00100000
00010000
00000000
00100000
00001000
00010000
00000000
,
00001000
00010000
00000100
00001000
00000010
00000100
00000001
00000000
,
00000010
00000100
00001000
00000100
00010000
00001000
00010000
00000000
,
00001000
00000000
01000000
00010000
00000000
00010000
00100000
01000000
,
10000000
00000000
00000000
00010000
00000000
00000000
10000000
00000000
00000000
00000000
00000000
00000000
00000000
00000000
10000000
00000000
,
01000000
00000000
00000000
00000000
01100000
00000000
00000000
00000000
00100000
00000000
00000000
00010000
00000000
00000000
00100000
00000000
,
00001000
00000000
00000000
00010000
00000000
00000000
00001000
00000000
00020000
00000000
00000000
00000000
00030020
00000000
00000000
00000000
,
00001030
00000000
00000001
00000100
00000000
00000100
00000010
00001000
,
00000100
00000000
00000000
00000010
00000000
00000000
00000200
00000000
00000000
00000000
00000000
00000000
00000300
00000000
00000000
00000000
,
00000110
00000000
00000000
00000000
00001001
00000000
00000000
00000000
00000001
00000000
00000000
00000010
00000000
00000000
00001000
00000000
,
00010000
00000000
00002000
00020000
00000000
00000000
00033000
00000000
,
00001000
00010000
00001000
00010000
00100000
00010000
00100000
10000000
,
00010000
01000000
00100000
10000000
00100000
01000000
00010000
00000000
,
00110000
00000000
00000000
00000000
11000000
00000000
00000000
00000000
10000000
00000000
00000000
01000000
00000000
00000000
00100000
00000000
,
00001000
00000000
00000000
00010000
00000000
00000000
00001000
00000000
00000200
00000000
00000000
00000000
00000302
00000000
00000000
00000000
,
00000013
00000100
00000010
00000100
00010000
00001000
00010000
00001000
,
01000000
00100000
01000000
00100000
10000000
00010000
01000000
00000000
,
00100000
00000000
00000000
00000000
10100000
00000000
00000000
00000000
10000000
00000000
00000000
00010000
00000000
00000000
01000000
00000000
,
00002000
00000000
00000000
00000000
,
00000000
00000000
00000000
00003000
,
00020000
00000000
00000000
00000000
,
00000000
00000000
00000000
00030000
,
00001000
00010000
00001000
00010000
00000000
00010000
00000100
00000000
,
00001000
00000010
00000000
00000100
00000001
00000000
00001000
00000000
,
00000001
00000010
00000100
00000000
00000010
00000100
00001000
00000000
,
00000100
00010000
00001000
00010000
00001000
00100000
00010000
00000000
,
00100000
00010000
01000000
00100000
10000000
01000000
00100000
00010000
,
01000000
00100000
10000000
01000000
00010000
00000000
00011000
00000000
,
00001000
00000010
00000001
00000100
00000010
00001000
00000100
00000010
,
00000001
00000100
00000010
00001000
00000100
00000000
00000110
00000000
,
00000001
00000100
00000001
00000100
00000010
00001000
00000010
00001000
,
00010000
01000000
00010000
01000000
00100000
10000000
00100000
10000000
,
00010000
10000000
01000000
00100000
00010000
00001000
00000100
00000000
,
00000010
00000000
00000000
00000001
00000000
00000000
00000001
00000000
00001000
00000000
00000001
00000000
00002000
00000000
00000000
00000000
,
00003001
00000000
00000000
00000000
00000000
00000000
00000001
00000000
00000100
00000000
00000000
00000001
00000000
00000000
00000010
00000000
,
00000100
00000000
00000000
00000000
00000000
00000000
00000100
00000000
00001000
00000000
00000000
00000100
00000000
00000000
00010000
00000000
,
00001000
00000000
00000000
00000000
00011000
00000000
00000000
00000000
00010000
00000000
00000000
00001000
00000000
00000000
01000000
00000000
,
00020000
00000000
00000000
00000000
00130000
00000000
00000000
00000000
00100000
00000000
00000000
01000000
00000000
00000000
10000000
00000000
,
01000000
00000000
00000000
00000000
00000000
00000000
10000000
00000000
01000000
00000000
00000000
01000000
00000000
00000000
00100000
00000000
,
00010000
00000000
00000000
00000000
00000000
00000000
00010000
00000000
00100000
00000000
00000000
00100000
00000000
00000000
00001000
00000000
,
00010000
00000000
00000000
00010000
00000010
00001000
00000010
00001000
,
00000010
00000000
00000000
00000100
00000000
00000000
00000010
00000000
00000000
00000100
00000000
00000000
00000010
00000000
00000000
00000000
,
00001000
00000001
00000010
00000100
00001000
00000010
00001000
00000100
,
00010000
00001000
00100000
00001000
00010000
00001000
01000000
00010000
,
00100000
01000000
10000000
00000000
00100000
01000000
00010000
00000000
,
00100000
01000000
00010000
00001000
00010000
01000000
00100000
00000000
,
00010000
10000000
00010000
10000000
00100000
01000000
00100000
00010000
,
00001000
00010000
00001000
00010000
00000010
00000100
00000010
00000100
,
00000001
00000010
00000100
00000000
00001000
00000010
00000100
00000000
,
00000001
00000100
00001000
00000000
00010000
00100000
10000000
00000000
,
10000000
01000000
10000000
00010000
00000000
00010000
00100000
00000000
,
00001000
00010000
00001000
00010000
00000000
00010000
00000100
00001000
,
00000100
00000000
00000110
00000000
00000001
00001000
00000001
00000100
,
00000001
00000010
00000100
00001000
00000000
00000110
00000000
00000000
,
00000001
00000000
00000010
00000000
00001000
00000000
00000000
00000000
00010000
00000000
00000000
01000000
00000000
00000000
10000000
00000000
,
01000000
00100000
00010000
10000000
00000000
00000000
10000000
00000000
,
01000000
01100000
00100000
00101000
,
00001000
00011000
00010000
00010100
,
00000100
00001000
00000010
00001000
00000100
00001000
00000010
00000000
,
00000100
00000001
00000010
00000001
00000100
00000000
00000000
00000000
,
00000001
00000100
00000001
00000100
00000010
00001000
00000010
00000000
,
00001000
00000100
00001000
00000100
00010000
00001000
00010000
00000000
,
00001000
01000000
00001000
01000000
00010000
00100000
00010000
00000000
,
10000000
00100000
10000000
00100000
01000000
00010000
01000000
00000000
,
00010000
00100000
00010000
10000000
01000000
00100000
01000000
00000000
,
00100000
00010000
00100000
00001000
00010000
00000010
00001000
00000000
,
00000010
00000100
00000010
00001000
00000001
00000010
00000100
00000000
,
00001000
00000001
00000100
00000010
00001000
00000100
00010000
00000000
,
00001000
00000000
00000000
01000000
00000000
00010000
00000000
00100000
00010000
00000000
00000000
00100000
00000000
00001000
00000000
00010000
,
00001000
00000000
00000000
00010000
00000000
00000010
00000000
00001000
00000100
00000000
00000000
00010000
00000000
00000000
00001000
00020000
,
00000000
00000000
00000000
00000000
,
00000000
00000000
00000000
00000000
,
00030000
00000000
00000000
00000000
,
00000000
00000000
00000000
00000000
;
#NOTES:
     dance-double:
     :
     Hard:
     17:
     :
00000000
00000000
00000000
00000000
,
00000000
00000000
00000000
00000000
,
00000000
00000000
00000000
00000000
,
00000000
00000000
00000000
00000000
,
00000000
00000000
00000000
00000000
,
00000000
00000000
00000000
00000000
,
00000000
00000000
00000000
00000000
,
00000000
00000000
00000000
00000000
,
00000000
00000000
00000000
00000000
,
00000000
00000000
00000000
00000000
,
00001000
00010000
00001000
00010000
00000100
00000010
00000100
00000010
,
00000001
00001000
00000001
00001000
00000001
00000010
00000100
00001000
,
00000100
00010000
00000100
00010000
00001000
00100000
00001000
00100000
,
00010000
01000000
00010000
01000000
00100000
10000000
01000000
00100000
,
00010000
00100000
00010000
00000000
00100000
00000000
00001000
00000000
00010000
00001000
00010000
00000000
00000100
00000000
00001000
00000000
,
00000010
00000100
00000010
00000000
00001000
00000000
00000001
00000000
00000010
00000100
00000010
00000000
00000100
00000000
00001000
00000000
,
00000100
00010000
00000100
00000000
00010000
00001000
00010000
00000000
00001000
00100000
00001000
00000000
00100000
00010000
00100000
00000000
,
00010000
01000000
00010000
01000000
00010000
01000000
00010000
01000000
00010000
01000000
00010000
01000000
00010000
00000000
00000000
00000000
,
10000000
00000000
01000000
00000000
00100000
00000000
00010000
00000000
00000000
00000000
00010000
00000000
00100000
00001000
00010000
00000000
,
00001000
00000000
00010000
00000000
00000010
00000000
00001000
00000000
00000000
00000000
00001000
00000000
00000010
00000100
00000001
00000000
,
00001000
00000100
00000001
00000100
00001000
00001000
00000100
00000100
,
00010000
00001000
00010000
00001000
01000000
00010000
01000000
00000000
00000000
00000000
01100000
00000000
00000000
00000000
00000000
00000000
,
00100000
00000000
10000000
00000000
01000000
00000000
00000000
00000000
00100000
00000000
00001000
00010000
00000000
00010000
00001000
00000000
,
00010000
00000000
00000000
00000000
00000000
00000000
00000010
00000000
00000000
00000000
00000000
00000000
00001000
00000000
00000000
00000000
00000000
00000000
00000100
00000000
00000000
00000010
00000000
00000000
00000000
00000000
00000000
00000000
00000000
00000000
00000000
00000000
00000000
00000000
00000000
00000000
00000010
00000000
00000000
00000000
00000001
00000000
00000000
00000000
00000010
00000000
00000000
00000000
,
00000001
00000000
00000100
00000000
00000010
00000000
00001000
00000000
00000100
00010000
00000100
00000000
00010000
00001000
00010000
00001000
,
00020000
00000000
00000000
00000000
02030000
00000000
00000000
00000000
13000000
00000000
00000000
10000000
00000000
00000000
10000000
00000000
,
00010000
00000000
01000000
00100000
00000000
00000000
00000000
00000000
20000000
00000000
00000000
00000000
32000000
00000000
00000000
00000000
,
03100000
00000000
00000000
00100000
00000000
00000000
00100000
00001000
00010000
00000000
00001000
00000000
00011000
00000000
00000000
00000000
,
00010000
00000000
00000010
00001000
00000000
00000010
00000100
00000010
00000100
00000010
00000100
00000010
00000100
00000000
00000000
00000000
,
00000002
00000000
00000000
00000000
00002003
00000000
00000000
00000000
00003100
00000000
00000000
00000010
00000000
00000000
00000010
00000000
,
00000001
00000010
00000100
00010000
00001000
00000100
00000010
00010000
,
00001000
00100000
00010000
01000000
00100000
00010000
00100000
00000000
,
10000000
01000000
00100000
00000000
01000000
00100000
00010000
00000000
00100000
00001000
00010000
00000000
00001000
00010000
00000100
00000000
,
00001000
00000000
00000000
00000000
00000100
00000010
00000100
00000000
00000010
00000001
00000010
00000001
00001000
00000000
00000000
00000000
,
00000001
00000000
00000000
00000000
00000100
00000000
00000010
00000000
00000000
00000000
00000010
00001000
00000010
00000000
00010000
00000000
,
00001000
00000000
00000000
00010000
00000000
00000000
00022000
00000000
00000000
00000000
00000000
00000000
00033000
00000000
00010000
00001000
,
00010000
00000000
00000000
00000000
00100000
00000000
00000000
00000000
10000000
00000000
00000000
00010000
00000000
00000000
00010000
00000000
,
10000000
00000000
00000000
01000000
00000000
00000000
00100000
00000000
00002000
00000000
00000000
00000000
00023000
00000000
00000000
00000000
,
00031000
00000000
00000000
00000000
00010000
00000000
00000100
00000000
00000000
00000000
00000100
00001000
00000100
00000000
00000010
00000000
,
00000001
00000000
00000000
00000100
00000000
00000000
00000220
00000000
00000000
00000000
00000000
00000000
00000330
00000000
00000001
00001000
,
00000001
00000000
00000000
00000000
00000010
00000000
00000000
00000000
00001000
00000000
00000000
00010000
00000000
00000000
01000000
00000000
,
10000000
00000000
00020000
20000000
00000000
00000000
30030000
00000000
,
10000000
01000000
00010000
00001000
00100000
01000000
00010000
00001000
,
00000010
00000000
00000001
00001000
00000000
00000001
00001000
00000000
00000010
00000000
00000001
00000000
00000010
00000000
00001000
00000000
,
00000001
00000000
00000000
00000000
00000011
00000000
00000000
00000000
00001100
00000000
00000000
00001000
00000000
00000000
00000100
00000000
,
00010000
00000000
00000000
00000000
00000000
00000000
00001000
00000000
00000000
00010000
00000000
00000000
00000000
00000000
00000000
00001000
00000000
00000000
00010000
00000000
00000000
00000000
00000000
00000000
00001000
00000000
00000000
00000000
00100000
00000000
00000000
00000000
00010000
00000000
00000000
00000000
01000000
00000000
00000000
00000000
00100000
00000000
00000000
00000000
10000000
00000000
00000000
00000000
,
01000000
00010000
00001000
00100000
01000000
00100000
00001000
00010000
,
00000100
00000000
00000000
00001000
00000000
00000000
00002020
00000000
00000000
00000000
00000000
00000000
00003030
00000000
00001000
00000001
,
00001000
00000000
00000000
00000000
00001001
00000000
00000000
00000000
00000001
00000000
00000000
00000100
00000000
00000000
00001000
00000000
,
00020000
00000000
00000000
00000000
,
00000000
00000000
00000000
00030000
,
00002000
00000000
00000000
00000000
,
00000000
00000000
00000000
00003000
,
00001000
00010000
00001000
00010000
00001000
00000000
00011000
00000000
00000000
00000000
00001000
00000000
00010000
00000000
00000000
00000000
,
00100000
00010000
00000000
00001000
00000100
00000000
00001000
00010000
,
00001000
00010000
01000000
00000000
00010000
00001000
00000010
00000000
,
00001000
00000000
00010000
00000000
00001000
00010000
00001000
00000000
00010000
00001000
00010000
00001000
00010000
00000000
00000000
00000000
,
00001000
01000000
01010000
00010000
00100000
01100000
01000000
10000000
,
10010000
00010000
00100000
10000000
00010000
01000000
10000000
00010000
,
01000000
00100000
00110000
00010000
00001000
00011000
00010000
00000010
,
00001010
00001000
00000100
00000001
00001000
00000010
00000001
00001000
,
00000001
00000001
00001000
00001000
00000100
00000100
00010000
00010000
,
00001000
00001000
00100000
00100000
00010000
00010000
01000000
01000000
,
00100000
10000000
00100000
00000000
01000000
00010000
01000000
00000000
00010000
00100000
00010000
00100000
00001000
00010000
00001000
00000000
,
00010000
00000000
00000000
00011000
00000000
00000000
00001000
00010000
00002000
00000000
00023000
00000000
00032000
00000000
00023000
00000000
,
00031000
00000000
00000000
00000000
00000000
00000000
00001000
00000000
00010000
00000000
00000000
00000100
00000000
00000000
00000010
00000000
,
00000001
00000000
00000000
00000000
00000000
00000000
00000001
00000000
00000100
00000000
00000000
00001000
00000000
00000000
00010000
00000000
,
00001000
00000000
00000000
00000000
00011000
00000000
00000000
00000000
01001000
00000000
00000000
01000000
00000000
00000000
00010000
00000000
,
00100000
00000000
00000000
00000000
01100000
00000000
00000000
00000000
01000000
00000000
00000000
10000000
00000000
00000000
00010000
00000000
,
01000000
00000000
00000000
00000000
00000000
00000000
01000000
00000000
00100000
00000000
00000000
10000000
00000000
00000000
00010000
00000000
,
00100000
00000000
00000000
00000000
00000000
00000000
00100000
00000000
00001000
00000000
00000000
00010000
00000000
00000000
00000100
00000000
,
00010000
00000000
00000000
00010000
00000010
00001000
00000100
00010000
,
00000010
00000000
00000000
00001010
00000000
00000000
00001000
00000000
00000000
00001100
00000000
00000000
00001001
00000000
00000000
00000000
,
00000001
00000000
00000010
00000100
00000010
00000000
00000100
00001000
00000100
00000000
00010000
00001000
00000000
00010000
00001000
00000000
,
01000000
00000000
00010000
00100000
00010000
00000000
00100000
01000000
00100000
00000000
01000000
10000000
00000000
01000000
10000000
00000000
,
00100000
00000000
10000000
01000000
10000000
00000000
00010000
01000000
00010000
00000000
00100000
01000000
00000000
00100000
01000000
00000000
,
00010000
00000000
00001000
00000000
00000010
00000000
00000001
00000000
00001000
00000000
00000100
00000010
00000000
00000100
00000010
00000000
,
00000001
00000000
00000010
00000000
00000001
00000000
00001000
00000000
00000010
00000000
00010000
00001000
00000000
00010000
00001000
00000000
,
00100000
00000000
00010000
00000000
10000000
00000000
00100000
00000000
10000000
00000000
01000000
10000000
00000000
01000000
10000000
00000000
,
00010000
01000000
00001000
00000000
00010000
00000000
00000100
00000000
00001000
00000100
00010000
00000000
00000100
00000000
00001000
00000000
,
00000002
00000203
00000320
00002030
00023000
02030000
03200000
20300000
,
31000000
00000000
00100000
00000000
00010000
00000000
10000000
00000000
00000000
00000000
00000000
00000000
10000000
01000000
00100000
00010000
,
00100000
00000000
00001000
00000000
00010000
00000000
00001000
00000000
00000000
00000000
00000000
00000000
00001000
00010000
00000010
00001000
,
00000010
00000100
00000001
00000000
00000010
00000010
00000100
00000100
,
00001000
00000100
00001000
00000100
00010000
00001000
00010000
00000000
00000000
00000000
00011000
00000000
00000000
00000000
00000000
00000000
,
00001000
00000000
00010000
00000000
01000000
00000000
10000000
00000000
00100000
00000000
01000000
00010000
00000000
01000000
00010000
00000000
,
00100000
00000000
00000000
00000000
00000000
00000000
00001000
00000000
00000000
00000000
00000000
00000000
00010000
00000000
00000000
00001000
00000000
00000000
00010000
00000000
00000000
00001000
00000000
00000000
00000000
00000000
00000000
00000000
00000000
00000000
00000000
00000000
00000000
00000000
00000000
00000000
00010000
00000000
00000000
00000000
00000100
00000000
00000000
00000000
00001000
00000000
00000000
00000000
,
00000100
00000100
00000010
00000010
00000001
00000001
00001001
00000000
,
00001000
00001000
00000100
00000100
00010000
00010000
00011000
00000000
,
00001000
00010000
00001000
00000000
00100000
00000000
00010000
00000000
01000000
00100000
01000000
00000000
00010000
00000000
10000000
00000000
,
01000000
00100000
00010000
00000000
01000000
00100000
10000000
00000000
00020000
00000000
00000000
00000000
00030000
00000000
00000000
00000000
,
10000000
00000000
01000000
00000000
00100000
00010000
00000000
00100000
00000000
00001000
00010000
00000000
00001000
00010000
00001000
00000000
,
00010000
00000000
00000100
00000000
00001000
00000010
00000000
00000100
00000000
00000010
00001000
00000000
00000001
00000100
00000001
00000000
,
00000010
00000000
00000100
00000000
00001000
00000100
00000000
00010000
00000000
00001000
00010000
00000000
00001000
01000000
00001000
00000000
,
00100000
00000000
00010000
00000000
00100000
01000000
00000000
10000000
00000000
00010000
01000000
00000000
00100000
01000000
00100000
00000000
,
10000000
00000000
00010000
00100000
00010000
00100000
00000000
01000000
00000000
10000000
00100000
00000000
01000000
00001000
01000000
00000000
,
00001000
00000000
00010000
00001000
00010000
00001000
00000000
00010000
00000000
00000100
00001000
00000000
00000100
00000010
00000100
00000000
,
00000010
00000000
00000001
00000100
00000001
00000100
00000000
00000010
00000000
00001000
00000010
00000000
00010000
00001000
00010000
00000000
,
00001000
00000000
00100000
00001000
00100000
00010000
00000000
01000000
00000000
00010000
00100000
00000000
01000000
10000000
01000000
00000000
,
10000000
01000000
10000000
01000000
00000000
00100000
00000000
00010000
00100000
00001000
00100000
00001000
00000000
00010000
00000000
00001000
,
00010000
00000100
00010000
00000100
00000000
00001000
00000000
00000100
00000010
00000100
00000010
00000000
00000001
00000000
00001000
00000002
,
00000000
00000000
00000000
00000000
,
00000000
00000000
00000000
00000000
,
00000003
00000000
00000000
00000000
,
00000000
00000000
00000000
00000000
;
