
//----- song ID: zatt -----//
#TITLE:雑踏、僕らの街;
#ARTIST:Covered by taru;
#TITLETRANSLIT:Zattou, bokura no machi;
#BANNER:Zattou, bokura no machi.png;
#BACKGROUND:Zattou, bokura no machi-bg.png;
#CDTITLE:./CDTitles/DDR WORLD.png;
#MUSIC:Zattou, bokura no machi.ogg;
#SAMPLESTART:48.903;
#SAMPLELENGTH:15;
#BPMS:0=171;
#NOTES:
     dance-single:
     :
     Beginner:
     2:
     :
0000
0000
0000
0000
,
0000
0000
0000
0000
,
0000
0000
0000
0000
,
0000
0000
0000
0000
,
0000
0000
0000
0000
,
0000
0000
0000
0000
,
0001
0000
0000
0000
,
1000
0000
0000
0000
,
0010
0000
0000
0000
,
0000
0000
0000
0000
,
0000
0000
0000
0000
,
0020
0000
0000
0000
,
0030
0000
0000
0000
,
2000
0000
0000
0000
,
3000
0000
0000
0000
,
0001
0000
0000
0000
,
0000
0000
1000
0000
,
0000
0000
0000
0000
,
0010
0000
0000
0000
,
0000
0000
0100
0000
,
0000
0000
0000
0000
,
0002
0000
0000
0003
,
0000
0000
2000
0000
,
0000
3000
0000
0000
,
0020
0000
0000
0030
,
0000
0000
0100
0000
,
0000
0001
0000
0000
,
0000
1000
0000
0000
,
0000
0100
0000
0000
,
0000
1000
0000
0000
,
0000
0001
0000
0000
,
0000
0010
0000
0000
,
0010
0000
0000
0001
,
0000
0000
2000
0000
,
0000
0000
3000
0000
,
0000
0000
0001
0000
,
0001
0000
0001
0000
,
0000
0000
1000
0000
,
1000
0000
1000
0000
,
0000
0000
0010
0000
,
0000
0000
1000
0000
,
0000
0000
0010
0000
,
0010
0000
0010
0000
,
0000
0000
1000
0000
,
1000
0000
1000
0000
,
0000
0000
0001
0000
,
0001
0000
0001
0000
,
0000
0000
0010
0000
,
0000
0000
0001
0000
,
0000
0000
0010
0000
,
0010
0000
0010
0000
,
0000
0000
0001
0000
,
0001
0000
0001
0000
,
0000
0000
1000
0000
,
1000
0000
1000
0000
,
0000
0000
0001
0000
,
0000
0000
1000
0000
,
0000
0000
0010
0000
,
0000
0000
0000
0000
,
0000
0000
0000
0000
,
0000
0000
1000
0000
,
1000
0000
1000
0000
,
0000
0000
0001
0000
,
0000
0000
0000
0000
;
#NOTES:
     dance-single:
     :
     Easy:
     5:
     :
0000
0000
0000
0000
,
0000
0000
0000
0000
,
0000
0000
0000
0000
,
0000
0000
0000
0000
,
0000
0000
0000
0000
,
0000
0000
0000
0000
,
0001
0010
0001
0000
,
1000
0010
1000
0000
,
0100
0000
0010
0000
,
0001
0000
0000
0000
,
0000
0000
0000
0000
,
0002
0000
0010
0000
,
1000
0000
0103
0000
,
0200
0000
0001
0000
,
0010
0000
0301
0000
,
2000
0000
3000
0200
,
0000
0300
0020
0000
,
0030
0001
0000
0001
,
0002
0000
0003
0020
,
0000
0030
0200
0000
,
0300
1000
0000
1000
,
0002
0003
0100
0001
,
0000
1000
0002
0003
,
1000
0010
0000
0000
,
2000
3000
0100
1000
,
0000
0001
2000
3000
,
0001
0200
0300
0020
,
0030
1000
0000
0100
,
0000
1000
0100
1000
,
0000
0001
0000
0100
,
0000
0001
0100
0001
,
0000
0101
0000
0000
,
1001
0000
0000
1100
,
0000
0000
0200
0300
,
0020
0030
0001
0000
,
0000
0000
0002
0003
,
0010
0001
2000
3000
,
0010
1000
0002
0003
,
0020
0030
0200
0300
,
1000
0001
0100
0100
,
0100
0000
0010
0010
,
0010
0000
1000
0001
,
0000
0100
0000
0001
,
1000
0001
2000
3000
,
0010
1000
0002
0003
,
0010
0001
2000
3000
,
0020
0030
0200
0300
,
0001
1000
0100
0100
,
0100
0000
0010
0010
,
0010
0000
0001
1000
,
0000
0100
0000
2000
,
3000
0000
0001
0010
,
0001
0000
1000
0001
,
0001
0000
1000
0010
,
1000
0000
0001
1000
,
1000
0000
0001
0010
,
0001
0000
1000
0010
,
1000
0000
0200
0300
,
0020
0030
0001
0000
,
0000
0000
0000
0000
,
0000
0000
0002
0003
,
0020
0030
0200
0300
,
2000
0000
3000
0000
0001
0000
0000
0001
,
0000
0000
0001
0000
0000
1000
0000
0000
,
1000
0000
0000
1000
0000
0000
0000
0000
,
0000
0000
0000
0000
;
#NOTES:
     dance-single:
     :
     Medium:
     10:
     :
0000
0000
0000
0000
,
0000
0000
0000
0000
,
0000
0000
0000
0000
,
0000
0000
0000
0000
,
0000
0000
0000
0000
,
0000
0000
0000
0000
,
0001
0000
0000
0100
0000
0000
0001
0000
1000
0000
0000
0000
0001
0000
0000
0000
,
1000
0000
0000
0100
0000
0000
1000
0000
0001
0000
0000
0000
0010
0000
0000
0000
,
0100
0000
1000
0002
0000
0000
0003
0000
,
1001
0000
0000
0000
,
0000
0000
0000
0000
,
1010
0000
0010
1000
0001
0000
0010
0001
,
1000
0000
0010
1000
0001
1000
0001
0000
,
1000
0000
0100
1000
0001
0000
0100
0001
,
1000
0000
0100
1000
0001
1000
0001
0000
,
2000
0001
3100
0200
,
1000
0310
0020
0100
,
0031
0002
0010
1003
,
2000
0001
3010
0020
,
1000
0130
0200
0010
,
0301
0002
0100
1003
,
0001
0000
0010
0001
0000
1000
0020
0000
,
0030
0000
1000
0001
1000
0000
0010
1000
,
0000
0001
0020
0000
0030
0000
0000
0001
,
1000
0000
0010
1000
0010
0000
2000
0000
,
3000
0000
0001
1000
0001
0000
0010
0001
,
0000
1000
0200
0000
1000
0000
0320
0000
,
0031
0011
0000
0110
,
0000
0000
1000
0100
1000
0000
0001
0000
,
1000
1010
0000
0110
,
0000
0000
0001
0100
0001
0000
1000
0000
,
0000
0000
1010
0000
0000
0001
0000
0000
,
0101
0000
0000
1000
0000
0000
1100
0000
,
0000
0001
0000
0000
2000
0000
3200
0000
,
0320
0032
1003
0000
,
0000
0000
1002
0013
,
0100
1000
0100
0000
2000
0000
3001
0100
,
0000
0001
1000
0000
0002
0000
0013
0000
,
0200
0000
1300
0000
0100
0010
0000
0001
,
1000
0000
0001
0000
1000
0010
1000
0000
,
0001
0010
0001
0000
1000
0100
1000
0000
,
0001
0100
0001
0000
2000
0000
3010
1000
,
0000
0000
1000
0001
0000
0000
0001
0010
,
0100
1000
0001
0000
2001
0000
3010
0000
,
0100
0001
0100
0000
0002
0000
1003
0100
,
0000
1000
0001
0000
2000
0000
3010
0000
,
0200
0000
0301
0000
0100
0010
0000
1000
,
0001
0000
1000
0000
0001
0010
0001
0000
,
1000
0010
1000
0000
0001
0100
0001
0000
,
1000
0100
1000
0000
0002
0000
0013
0001
,
0000
0000
1000
0010
0000
0000
0100
0001
,
0000
0000
1000
0000
0100
0000
0010
0000
0001
0000
0000
0010
0000
0000
0001
0000
,
0000
0000
0000
0000
1000
0000
0000
0000
0010
0000
0000
0100
0000
0000
0010
0000
,
0000
0000
1000
0000
0001
0000
0000
0000
1000
0000
0000
0010
0000
0000
1000
0000
,
0000
0000
0000
0000
0001
0000
0000
0000
0010
0000
0000
0100
0000
0000
0010
0000
,
0000
0000
0001
0000
1000
0000
0000
0000
0001
0000
0000
0100
0000
0000
0001
0000
,
1000
0000
0000
0000
0001
0000
0000
0000
1000
0000
0000
0100
0000
0000
1000
0000
,
0001
0000
0010
0000
0100
0000
2000
0002
,
0000
3003
1001
0000
,
0000
0000
0000
0000
,
0000
0000
0000
0000
0001
0010
0001
0000
,
0010
0100
0010
0000
0100
1000
0100
0000
,
1000
0000
0001
0000
1000
0000
0000
0000
0001
0000
0000
0100
0000
0000
0001
0000
,
0000
1000
0000
0000
0100
0000
0000
1000
0000
0000
0100
0000
0000
0010
0000
0000
,
0100
0000
0000
0010
0000
0000
0001
0000
0000
0000
0000
0000
0000
0000
0000
0000
,
0000
0000
0000
0000
;
#NOTES:
     dance-single:
     :
     Hard:
     13:
     :
0000
0000
0000
0000
,
0000
0000
0000
0000
,
0000
0000
0000
0000
,
0000
0000
0000
0000
,
0000
0000
0000
0000
,
0000
0000
0000
0000
0000
1000
0100
0010
,
0001
0000
0010
0001
0000
0010
0001
0000
1000
0010
0000
1000
0010
0000
0000
0000
,
0100
0000
0001
0100
0000
0001
0100
0000
0010
0000
1000
0000
0001
0000
0010
0000
,
0100
0000
0100
0020
0000
0000
0030
0000
,
1001
0000
0000
0000
,
0000
0000
0000
0000
,
0001
0000
0000
0001
0010
0000
0001
0000
1000
0000
0000
1000
0010
0000
1000
0000
,
0001
0000
0000
0001
0100
0000
0001
0000
1000
0100
1000
0000
0001
0000
0000
0000
,
1000
0000
0000
1000
0010
0000
1000
0000
0001
0000
0000
0001
0010
0000
0001
0000
,
1000
0000
0000
1000
0100
0000
1000
0000
0001
0100
0001
0000
1000
0000
0000
0000
,
2001
0000
0000
0001
0000
0000
0100
0000
3100
0000
0000
0000
1200
0000
0000
0000
,
0001
0000
0000
0000
0310
0000
0000
0000
0120
0000
0000
0100
0000
0000
0001
0000
,
0031
0000
0000
0000
0012
0000
0000
0010
0000
0000
1000
0000
1003
0000
0000
0000
,
2001
0000
0000
0001
0000
0000
0010
0000
3010
0000
0000
0000
1020
0000
0000
0000
,
0001
0000
0000
0000
0130
0000
0000
0000
0210
0000
0000
0010
0000
0000
0001
0000
,
0301
0000
0000
0000
0102
0000
0000
0100
0000
0000
1000
0000
1003
0000
0000
0000
,
2100
3000
0100
0001
0100
0010
0002
0000
,
1003
0000
0001
0100
0200
0000
0310
0020
,
0000
1030
2000
0000
3001
0100
0001
0000
,
0102
0003
0100
1000
0100
0010
2000
0000
,
3001
0000
1000
0100
0200
0000
0310
0020
,
0000
0031
0002
0000
0100
0000
2003
0000
,
3100
0022
0033
0220
,
0330
0000
0000
0000
1000
0000
0100
0000
0010
0000
0100
0000
0010
0001
0000
1000
,
0000
0010
2020
0000
3030
0000
0220
0000
,
0330
0000
0000
0000
0001
0000
0010
0000
0100
0000
1000
0000
0001
0100
0001
0000
,
1000
0000
0011
0000
0000
1010
0000
0000
,
1100
0000
0000
0101
0000
0000
0110
0000
,
0000
0110
0000
0000
1000
0100
0010
0001
,
1000
0010
0100
0002
2000
3003
0000
1000
,
0010
0000
0010
0100
0000
0000
0001
0000
0102
0000
0000
0000
1003
0000
0001
0000
,
0010
0000
0010
0100
0000
0000
1000
0000
2001
0000
0000
0000
3010
0000
0200
0000
,
0000
0301
1000
0000
0021
0000
0230
0000
,
1300
0000
0000
1000
0001
0000
0100
0000
0010
0000
2000
0000
0000
0000
3001
0000
,
0010
0000
0001
0000
1000
0000
0000
0000
0001
0100
0001
0000
1000
0000
0100
0000
,
0010
0000
0001
0000
0001
0000
0000
0000
1000
0100
1000
0000
0001
0000
0100
0000
,
0010
1000
1000
0000
1010
0000
0011
0001
,
0000
0000
1100
1000
0000
0000
0101
0001
,
0100
0010
0000
0010
0000
0000
1000
0000
2100
0000
0000
0000
3001
0000
1000
0000
,
0010
0000
0010
0100
0000
0000
0001
0000
1002
0000
0000
0000
0013
0000
0200
0000
,
0000
1300
0001
0000
1020
0000
0230
0000
,
0301
0001
1000
0100
0010
0002
0000
1003
,
0010
0000
1000
0000
0001
0000
0000
0000
1000
0100
1000
0000
0001
0000
0100
0000
,
0010
0000
1000
0000
1000
0000
0000
0000
0001
0100
0001
0000
1000
0000
0100
0000
,
0010
0001
0001
0000
1010
0000
0011
0001
,
0000
0000
1100
1000
0000
0000
0101
0001
,
0000
0000
1000
0000
0100
0000
0010
0000
0001
0000
1000
0001
0000
1000
0002
0000
,
0000
0000
0103
0000
0001
0000
1000
0000
0100
0000
0000
0010
0000
0000
0110
0000
,
0000
0000
0001
0000
0100
0000
0010
0000
1000
0000
0001
1000
0000
0001
1000
0000
,
0100
1000
0000
0100
1000
0000
0001
0000
0100
0000
0000
0010
0000
0000
0110
0000
,
0000
0000
1000
0000
0100
0000
0010
0000
0001
0000
0010
0001
0000
0010
0001
0000
,
1000
0010
0000
1000
0010
0000
0000
0000
0100
0000
0001
0100
0000
0001
0200
0000
,
0310
1000
0001
0010
0100
0000
0200
0020
,
0000
0330
1001
0000
,
0000
0000
0000
0000
,
0000
0000
0000
0000
0011
0010
0100
1000
,
0010
0100
0001
1000
0100
0010
0001
0100
,
0010
0000
1000
0000
0100
0000
0010
0000
0110
0000
0000
0001
0000
0000
1000
0000
,
0000
0010
0000
0000
0100
0000
0000
0110
0000
0000
1000
0000
0000
0100
0000
0000
,
0010
0000
0000
0001
0000
0000
1001
0000
0000
0000
0000
0000
0000
0000
0000
0000
,
0000
0000
0000
0000
;
#NOTES:
     dance-double:
     :
     Easy:
     5:
     :
00000000
00000000
00000000
00000000
,
00000000
00000000
00000000
00000000
,
00000000
00000000
00000000
00000000
,
00000000
00000000
00000000
00000000
,
00000000
00000000
00000000
00000000
,
00000000
00000000
00000000
00000000
,
00001000
00010000
00001000
00000000
,
00100000
00010000
00100000
00000000
,
00010000
00000000
10000000
00000000
,
01000000
00000000
00000000
00000000
,
00000000
00000000
00000000
00000000
,
02000000
00000000
10000000
00000000
,
00100000
00000000
03010000
00000000
,
00020000
00000000
00001000
00000000
,
00000010
00000000
00031000
00000000
,
00020000
00000000
00030000
00002000
,
00000000
00003000
00000200
00000000
,
00000300
00000001
00000000
00000001
,
00000002
00000000
00000003
00000020
,
00000000
00000030
00002000
00000000
,
00003000
00010000
00000000
00010000
,
00001000
00000000
00010000
00100000
,
00000000
10000000
00010000
00000000
,
00100000
00001000
00000000
00000000
,
00010000
00000000
00001000
00000010
,
00000000
00000001
00001000
00000000
,
00000010
00020000
00000000
00031000
,
00000000
00010000
00000000
01000000
,
00000000
10000000
00000000
10000000
,
00000000
00100000
00000000
00010000
,
00000000
00001000
00000000
00001000
,
00000000
00101000
00000000
00000000
,
00011000
00000000
00000000
00010010
,
00000000
00000000
00000020
00000030
,
00002000
00003000
00000001
00000000
,
00000000
00000000
00000002
00000003
,
00000010
00000001
00002000
00003000
,
00000010
00001000
00000020
00000030
,
00020000
00030000
00002000
00003000
,
01000000
00001000
01000000
01000000
,
01000000
00000000
00010000
00010000
,
00010000
00000000
01000000
00100000
,
00000000
10000000
00000000
00010000
,
00000000
10000000
20000000
30000000
,
00100000
10000000
00020000
00030000
,
00100000
00010000
00200000
00300000
,
00002000
00003000
00020000
00030000
,
00000100
00010000
00000100
00000100
,
00000100
00000000
00001000
00001000
,
00001000
00000000
00000100
00000010
,
00000000
00000001
00000000
00001000
,
00000000
00000000
00000010
00010000
,
00000010
00000000
00010000
00001000
,
00001000
00000000
00100000
00001000
,
00100000
00000000
00001000
00010000
,
00010000
00000000
00001000
00000000
,
00000010
00000000
00000001
00000000
,
00000100
00000000
00001000
00000000
,
00010000
00000000
00011000
00000000
,
00000000
00000000
00000000
00000000
,
00000000
00000000
00002000
00003000
,
00020000
00030000
00200000
00300000
,
20000000
00000000
30000000
00000000
00010000
00000000
00000000
00010000
,
00000000
00000000
00010000
00000000
00000000
00100000
00000000
00000000
,
00100000
00000000
00000000
00100000
00000000
00000000
00000000
00000000
,
00000000
00000000
00000000
00000000
;
#NOTES:
     dance-double:
     :
     Medium:
     10:
     :
00000000
00000000
00000000
00000000
,
00000000
00000000
00000000
00000000
,
00000000
00000000
00000000
00000000
,
00000000
00000000
00000000
00000000
,
00000000
00000000
00000000
00000000
,
00000000
00000000
00000000
00000000
,
00001000
00000000
00000000
00010000
00000000
00000000
00001000
00000000
00100000
00000000
00000000
00000000
00010000
00000000
00000000
00000000
,
10000000
00000000
00000000
00100000
00000000
00000000
10000000
00000000
00010000
00000000
00000000
00000000
00100000
00000000
00000000
00000000
,
01000000
00000000
00010000
00002000
00000000
00000000
00003000
00000000
,
00011000
00000000
00000000
00000000
,
00000000
00000000
00000000
00000000
,
00010000
00000000
00000010
00001000
00000001
00000000
00000010
00000001
,
00001000
00000000
00000010
00010000
00001000
00000000
00010000
00000000
,
00001000
00000000
00100000
00010000
10000000
00000000
00100000
10000000
,
00010000
00000000
00100000
00001000
00010000
00000000
00001000
00000000
,
00020000
00001000
00030100
00000200
,
00001000
00000310
00000020
00000001
,
00000130
00000200
00020300
00031000
,
00002000
00010000
01003000
02000000
,
00010000
03100000
00200000
10000000
,
01300000
02000000
03002000
00013000
,
00001000
00000100
00000001
00002000
,
00003010
00000000
00010000
00001000
00010000
00000000
00100000
00000000
,
10000000
00020000
00130000
00001000
,
00010000
01000000
10000000
00020000
,
00130000
00000000
00001000
00010000
00001000
00000000
00000010
00000000
,
00000001
00002000
00003010
00000020
,
00010030
00011000
00000000
01001000
,
00000000
00000000
01000000
00010000
01000000
00000000
00100000
00000000
,
00010000
00011000
00000000
00010100
,
00000000
00000000
00000100
00001000
00000100
00000000
00000010
00000000
,
00001000
00000000
00011000
00000000
00000000
00001000
00000000
00000000
,
01001000
00000000
00000000
01000000
00000000
00000000
01010000
00000000
,
00000000
00010000
00000000
00000000
20000000
00000000
32000000
00000000
,
03020000
00032000
00013000
00000000
,
00000000
00000000
00021000
00030010
,
00001000
00000010
00001000
00000000
00000002
00000000
00001003
00000100
,
00000000
00010000
00001000
00000000
00020000
00000000
00130000
00000000
,
20000000
00000000
31000000
00000000
00010000
00001000
00000000
00010000
,
00000100
00000000
00001000
00000000
00000001
00001000
00000001
00000000
,
00000010
00000000
00001000
00000000
00010000
00001000
00010000
00000000
,
00100000
00000000
10000000
00000000
00020000
00000000
00130000
00001000
,
00000000
00000000
00010000
00000010
00000000
00000000
00001000
00000001
,
00000100
00001000
00012000
00103000
,
00010000
00100000
00010000
00000000
20000000
00000000
30010000
01000000
,
00000000
00001000
00010000
00000000
00002000
00000000
00003010
00000000
,
00000002
00000000
00000103
00000000
00001000
00010000
00000000
00001000
,
01000000
00000000
00010000
00000000
10000000
00010000
10000000
00000000
,
00100000
00000000
00010000
00000000
00001000
00010000
00001000
00000000
,
00000010
00000000
00000001
00000000
00002000
00000000
00003010
00010000
,
00000000
00000000
00001000
00100000
00000000
00000000
00010000
10000000
,
01000000
00000000
00000000
00000000
00010000
00000000
00000000
00000000
00001000
00000000
00000000
00010000
00000000
00000000
00001000
00000000
,
00000000
00000000
00000000
00000000
00000100
00000000
00000000
00000000
00000001
00000000
00000000
00001000
00000000
00000000
00000001
00000000
,
00000000
00000000
00001000
00000000
00000010
00000000
00000000
00000000
00010000
00000000
00000000
00001000
00000000
00000000
00010000
00000000
,
00000000
00000000
00000000
00000000
01000000
00000000
00000000
00000000
10000000
00000000
00000000
00010000
00000000
00000000
10000000
00000000
,
00000000
00000000
00010000
00000000
00100000
00000000
00001000
00000000
00010000
00000000
00000000
00001000
00000000
00000000
00010000
00000000
,
00000010
00000000
00000000
00000000
00001000
00000000
00000000
00000000
00000001
00000000
00000000
00000010
00000000
00000000
00000001
00000000
,
00001000
00000000
00000010
00000000
00000100
00000000
00002000
00020000
,
00000000
00033000
00011000
00000000
,
00000000
00000000
00000000
00000000
,
00000000
00000000
00000000
00000000
00001000
00010000
00001000
00000000
,
00100000
00010000
00100000
00000000
01000000
10000000
01000000
00000000
,
10000000
00000000
00010000
00000000
10000000
00000000
00000000
00000000
00010000
00000000
00000000
01000000
00000000
00000000
00010000
00000000
,
00000000
10000000
00000000
00000000
01000000
00000000
00000000
00100000
00000000
00000000
01000000
00000000
00000000
00010000
00000000
00000000
,
00001000
00000000
00000000
00000010
00000000
00000000
00000001
00000000
00000000
00000000
00000000
00000000
00000000
00000000
00000000
00000000
,
00000000
00000000
00000000
00000000
;
#NOTES:
     dance-double:
     :
     Hard:
     13:
     :
00000000
00000000
00000000
00000000
,
00000000
00000000
00000000
00000000
,
00000000
00000000
00000000
00000000
,
00000000
00000000
00000000
00000000
,
00000000
00000000
00000000
00000000
,
00000000
00000000
00000000
00000000
00000000
10000000
01000000
00100000
,
00010000
00000000
00100000
00001000
00000000
00100000
00001000
00000000
00010000
00001000
00000000
00010000
00001000
00000000
00000000
00000000
,
00010000
00000000
00000010
00010000
00000000
00000010
00010000
00000000
00001000
00000000
00000010
00000000
00000001
00000000
00001000
00000000
,
00000100
00000000
00000100
00020000
00000000
00000000
00030000
00000000
,
00011000
00000000
00000000
00000000
,
00000000
00000000
00000000
00000000
,
00001000
00000000
00000000
00001000
00010000
00000000
00001000
00000000
00100000
00000000
00000000
00100000
00010000
00000000
00100000
00000000
,
00010000
00000000
00000000
00010000
10000000
00000000
00010000
00000000
01000000
00001000
01000000
00000000
00001000
00000000
00000000
00000000
,
00010000
00000000
00000000
00010000
00001000
00000000
00010000
00000000
00000010
00000000
00000000
00000010
00001000
00000000
00000010
00000000
,
00001000
00000000
00000000
00001000
00000001
00000000
00001000
00000000
00000100
00010000
00000100
00000000
00010000
00000000
00000000
00000000
,
00012000
00000000
00000000
00010000
00000000
00000000
00100000
00000000
00103000
00000000
00000000
00000000
00201000
00000000
00000000
00000000
,
00010000
00000000
00000000
00000000
01300000
00000000
00000000
00000000
02100000
00000000
00000000
00100000
00000000
00000000
10000000
00000000
,
13000000
00000000
00000000
00000000
20000000
00000000
00000000
32000000
00000000
00000000
03010000
00000000
00001000
00000000
00000000
00000000
,
00021000
00000000
00000000
00001000
00000000
00000000
00000010
00000000
00030010
00000000
00000000
00000000
00010020
00000000
00000000
00000000
,
00001000
00000000
00000000
00000000
00000130
00000000
00000000
00000000
00000210
00000000
00000000
00000010
00000000
00000000
00000001
00000000
,
00000301
00000000
00000000
00000000
00000002
00000000
00000000
00000203
00000000
00000000
00001300
00000000
00010000
00000000
00000000
00000000
,
00201000
00000000
00310000
10000000
00100000
01000000
00020000
00000000
,
10030000
00000000
00010000
00100000
00200000
00000000
00301000
00002000
,
00000000
00013000
00020000
00000000
00030100
00010000
00001000
00000000
,
00010020
00000000
00001030
00000001
00000010
00000100
00002000
00000000
,
00003001
00000000
00001000
00000010
00000020
00000000
00010030
00020000
,
00000000
00031000
00002000
00000000
01000000
00000000
00023000
00000000
,
00030100
00022000
00033000
02002000
,
03003000
00000000
00000000
00000000
01000000
00000000
00010000
00000000
10000000
00000000
01000000
00000000
00100000
00010000
00000000
00100000
,
00000000
00001000
00022000
00000000
00033000
00000000
00020200
00000000
,
00030300
00000000
00000000
00000000
00000100
00000000
00001000
00000000
00000001
00000000
00000100
00000000
00000010
00001000
00000010
00000000
,
00010000
00000000
00011000
00000000
00000000
00110000
00000000
00000000
,
10100000
00000000
00000000
11000000
00000000
00000000
01010000
00000000
,
00000000
00011000
00000000
00000000
00010000
00001000
00000010
00000001
,
00001000
00000010
00000100
00002000
00020000
00033000
00000000
00001000
,
00100000
00000000
00100000
00010000
00000000
00000000
10000000
00000000
20100000
00000000
00000000
00000000
30010000
00000000
00100000
00000000
,
00001000
00000000
00001000
00010000
00000000
00000000
00000010
00000000
00001020
00000000
00000000
00000000
00000130
00000000
00000002
00000000
,
00000000
00000013
00001000
00000000
00021000
00000000
00230000
00000000
,
10300000
00000000
00000000
10000000
00010000
00000000
01000000
00000000
00100000
00000000
00020000
00000000
00000000
00000000
00031000
00000000
,
00100000
00000000
00001000
00000000
00010000
00000000
00000000
00000000
00001000
00010000
00001000
00000000
00010000
00000000
00001000
00000000
,
00000010
00000000
00000001
00000000
00000001
00000000
00000000
00000000
00000100
00000010
00000100
00000000
00001000
00000000
00010000
00000000
,
00100000
10000000
10000000
00000000
10010000
00000000
00110000
00100000
,
00000000
00000000
00101000
00001000
00000000
00000000
00011000
00010000
,
00000010
00001000
00000000
00001000
00000000
00000000
00000001
00000000
00000012
00000000
00000000
00000000
00001003
00000000
00000010
00000000
,
00010000
00000000
00010000
00001000
00000000
00000000
00100000
00000000
00210000
00000000
00000000
00000000
01300000
00000000
20000000
00000000
,
00000000
30100000
00010000
00000000
00012000
00000000
00003020
00000000
,
00000031
00000001
00001000
00000100
00000010
00002000
00000000
00013000
,
00000010
00000000
00010000
00000000
00001000
00000000
00000000
00000000
00010000
00001000
00010000
00000000
00001000
00000000
00010000
00000000
,
00100000
00000000
10000000
00000000
10000000
00000000
00000000
00000000
01000000
00100000
01000000
00000000
00010000
00000000
00001000
00000000
,
00000010
00000001
00000001
00000000
00001001
00000000
00001010
00000010
,
00000000
00000000
00010010
00010000
00000000
00000000
00011000
00002000
,
00000000
00000000
00013000
00000000
01000000
00000000
10000000
00000000
00010000
00000000
01000000
00010000
00000000
01000000
00020000
00000000
,
00000000
00000000
00130000
00000000
01000000
00000000
00010000
00000000
00001000
00000000
00000000
00010000
00000000
00000000
00011000
00000000
,
00000000
00000000
00001000
00000000
00000100
00000000
00000001
00000000
00001000
00000000
00000100
00001000
00000000
00000100
00010000
00000000
,
00001000
00010000
00000000
00001000
00010000
00000000
01000000
00000000
10000000
00000000
00000000
00010000
00000000
00000000
10010000
00000000
,
00000000
00000000
10000000
00000000
01000000
00000000
00100000
00000000
00010000
00000000
00100000
00001000
00000000
00100000
00001000
00000000
,
00010000
00001000
00000000
00010000
00001000
00000000
00000000
00000000
00010000
00000000
00000010
00010000
00000000
00000010
00010000
00000000
,
00001000
00000010
00000001
00001000
00000100
00000000
00000100
00020000
,
00000000
00030000
00011000
00000000
,
00000000
00000000
00000000
00000000
,
00000000
00000000
00000000
00000000
00001000
00010000
00100000
10000000
,
01000000
00100000
01000000
00010000
00001000
00000010
00000001
00000100
,
00000010
00000000
00000100
00000000
00001000
00000000
00010000
00000000
00011000
00000000
00000000
00001000
00000000
00000000
01000000
00000000
,
00000000
00010000
00000000
00000000
10000000
00000000
00000000
11000000
00000000
00000000
01000000
00000000
00000000
00010000
00000000
00000000
,
00001000
00000000
00000000
00000010
00000000
00000000
00000011
00000000
00000000
00000000
00000000
00000000
00000000
00000000
00000000
00000000
,
00000000
00000000
00000000
00000000
;
