
//----- song ID: zanz -----//
#TITLE:残像ニ繋ガレタ追憶ノHIDEAWAY;
#ARTIST:SOUND HOLIC Vs. BEMANI Sound Team "KE!JU" feat. Nana Takahashi;
#TITLETRANSLIT:Zanzou ni tsunagareta tsuioku no HIDEAWAY;
#BANNER:Zanzou ni tsunagareta tsuioku no HIDEAWAY.png;
#BACKGROUND:Zanzou ni tsunagareta tsuioku no HIDEAWAY-bg.png;
#CDTITLE:./CDTitles/DDR WORLD.png;
#MUSIC:Zanzou ni tsunagareta tsuioku no HIDEAWAY.ogg;
#SAMPLESTART:63.186;
#SAMPLELENGTH:15;
#BPMS:0=160;
#NOTES:
     dance-single:
     :
     Beginner:
     3:
     :
0000
0000
0000
0000
,
0000
0000
0000
0000
,
0000
0000
0000
0000
,
0000
0000
0000
0000
,
0000
0000
0000
0000
,
0000
0000
0000
0000
,
0010
0000
0000
0000
,
0010
0000
0000
0000
,
0010
0000
0000
0000
,
0010
0000
0000
0000
,
1000
0000
1000
0000
,
1000
0000
0000
0000
,
0001
0000
0001
0000
,
0001
0000
0000
0000
,
0100
0000
0100
0000
,
0100
0000
0000
0000
,
0110
0000
0000
0000
,
1001
0000
0000
0000
,
1000
0000
0000
0000
,
1000
0000
0000
0000
,
0010
0000
0000
0000
,
0010
0000
0000
0000
,
0100
0000
0000
0000
,
0100
0000
0000
0000
,
0001
0000
0000
0000
,
0001
0000
0000
0000
,
1000
0000
1000
0000
,
0001
0000
0001
0000
,
0100
0000
0000
0000
,
0010
0000
0000
0000
,
1000
0000
0000
0000
,
0001
0000
0000
0000
,
0100
0000
0000
0000
,
0100
0000
0000
0000
,
0001
0000
0000
0000
,
0010
0000
0000
0000
,
0100
0000
0000
0000
,
1000
0000
0000
0000
,
0000
0010
0000
0010
,
0000
0010
0000
0010
,
0000
0010
0000
0010
,
0000
0010
0000
0000
,
0000
1001
0000
0000
,
1000
0000
1000
0000
,
0001
0000
0000
0000
,
0100
0000
0100
0000
,
0010
0000
0000
0000
,
1000
0000
1000
0000
,
0001
0000
0001
0000
,
0010
0000
0000
0000
,
0100
0000
0000
0000
,
1000
0000
0001
0000
,
1000
0000
0000
0000
,
0010
0000
0100
0000
,
0010
0000
0000
0000
,
1000
0000
1000
0000
,
0001
0000
0001
0000
,
0100
0000
0000
0000
,
0010
0000
0000
0000
,
1000
0000
0000
0000
,
0001
0000
0000
0000
,
1000
0000
0000
0000
,
0000
0110
0000
0000
,
1000
0000
0000
0000
,
0001
0000
0000
0000
,
1000
0000
0010
0000
,
1000
0000
0000
0000
,
0001
0000
0100
0000
,
0001
0000
0000
0000
,
1000
0000
0010
0000
,
1000
0000
0000
0000
,
0001
0000
0000
0000
,
1000
0000
0000
0000
,
0001
0000
1000
0000
,
0010
0000
0000
0000
,
1000
0000
0001
0000
,
0100
0000
0000
0000
,
0001
0000
1000
0000
,
0010
0000
0000
0000
,
1000
0000
0000
0000
,
0001
0000
0000
0000
,
1001
0000
0000
0000
,
0000
0000
0000
0000
;
#NOTES:
     dance-single:
     :
     Easy:
     7:
     :
0000
0000
0000
0000
,
0000
0000
0000
0000
,
0000
0000
0000
0000
,
0000
0000
0000
0000
,
0000
0000
0000
0000
,
0000
0000
0000
0000
,
0002
0000
0003
0000
,
0200
0300
0020
0030
,
2000
0000
0000
0000
,
0002
0000
0000
3003
,
1000
0010
1000
0001
,
0100
0010
1000
0001
,
0011
0010
0001
1000
,
0100
0010
0001
1000
,
1010
0010
0100
0001
,
1000
0100
1000
0010
,
0110
0000
0000
1001
0000
0000
0100
0000
,
0220
0000
0000
0330
,
0001
0000
1000
0000
,
0001
0000
0100
0000
,
0010
0000
0100
0000
,
0001
0000
0010
0000
,
0100
0000
1000
0000
,
0010
0000
0100
0000
,
0002
0000
1003
0000
,
2000
0000
3010
0000
,
1000
0001
0100
0000
,
0010
1000
0001
0000
,
1000
0100
1000
0010
,
1000
0001
0010
0001
,
1001
0000
0001
0000
,
0100
0000
0001
0010
,
0100
1000
1000
0000
,
0010
0100
0001
0000
,
2000
0010
0001
3010
,
0002
0100
1000
0103
,
1000
0001
0100
0010
,
0100
0000
0001
0000
1000
0000
0000
0010
,
0000
0010
0000
1000
0000
1000
0000
0001
,
0000
0001
0000
0100
0000
0100
0000
0001
,
0000
0010
0000
0100
0000
1000
0000
0010
,
0000
0010
0000
0010
0000
1000
0000
0001
,
0000
0100
0010
0000
0000
0000
0000
0000
,
1000
0100
0001
0100
,
1000
0010
0100
0001
,
1000
0010
0001
0010
,
1000
0000
0100
0000
0010
0000
0001
0001
,
0000
0000
1000
0000
0010
0000
0100
0100
,
0000
0001
0000
1000
0000
0000
0001
0000
,
0100
0000
0000
0010
0000
0100
0000
0001
,
0000
0010
0100
1000
,
0001
0101
1000
1100
,
0001
1000
0010
0100
,
0001
0011
1000
1010
,
0001
0000
0100
0000
0010
0000
1000
1000
,
0000
0010
0200
0001
,
1000
0001
0310
0000
,
1001
0001
0100
0010
,
1000
1000
0001
0001
,
0011
0010
0100
1000
,
0100
0010
0001
0100
,
0110
0000
0010
0000
0010
0000
0000
0100
,
0000
0001
1000
0000
0000
0000
0000
0000
,
1001
0001
0010
0100
,
2000
0000
0000
3000
,
0001
0010
0100
0010
,
0001
0100
1000
0100
,
0001
0010
0100
0010
,
0001
0100
1000
0100
,
0010
1000
0001
0010
,
0100
1000
0010
1000
,
0100
0110
1000
1001
,
0010
0110
1000
1001
,
0001
0100
0010
0100
,
0001
0010
1000
0010
,
0001
0100
0010
0100
,
0001
0010
1000
0010
,
0100
1000
0001
0100
,
0010
1000
0100
1000
,
0010
0000
1001
0010
,
0200
0000
0000
0300
,
2002
0000
0000
0000
,
3003
0000
0000
0000
,
0000
0000
0000
0000
;
#NOTES:
     dance-single:
     :
     Medium:
     12:
     :
0000
0000
0000
0000
,
0000
0000
0000
0000
,
0000
0000
0000
0000
,
0000
0000
0000
0000
,
0000
0000
0000
0000
,
0000
0000
0000
0000
,
1000
1000
0001
0001
,
0100
0001
0010
0100
,
1000
0000
0001
1000
0001
0010
0100
1000
,
0020
0000
0000
0030
,
1000
0000
0001
0000
1000
0000
0010
0100
0000
0000
0001
0000
1000
0000
0100
0000
,
1000
0000
0001
0000
0010
0000
0001
1000
0000
0000
0010
0000
0100
0000
0010
0000
,
1000
0000
0001
0000
1000
0000
0100
0010
0000
0000
0001
0000
0010
0000
0100
0000
,
1000
0000
0010
0000
0100
0000
0010
1000
0000
0000
0001
0000
0100
0000
0001
0000
,
0010
0000
0100
0000
1000
0000
0001
0100
0000
0000
0001
0000
1000
0000
0100
0000
,
1000
0000
0010
0000
0100
0000
0001
0010
0000
0000
0001
0000
1000
0000
0100
0000
,
1100
0000
0000
0011
0000
0000
1001
0000
0000
0110
0000
0000
0001
0000
0010
0000
,
0200
0000
0000
0300
,
1000
1000
0001
0100
,
0010
0010
0100
0001
,
1000
1000
0100
0010
,
0001
0000
0001
0000
1000
0000
0010
0100
,
0010
1000
0001
0010
,
0001
0010
0100
1000
,
2100
0000
0000
0010
0000
0000
3001
0000
,
0102
0000
0000
0010
0000
0000
1003
0000
,
0001
0000
0000
0010
0000
0000
0100
0000
0000
0000
0001
0000
0100
0000
1000
0000
,
0010
0000
0000
0100
0000
0000
0001
0000
0000
0000
1000
0000
0010
0000
0100
0000
,
0001
0010
0100
0010
0001
0010
0100
2000
,
0000
0000
0010
0000
3001
0000
1000
0001
,
0010
0001
1000
0002
0000
0100
0000
0013
,
0000
0000
0000
0010
0100
1000
0100
1000
,
0010
0010
0100
0010
0010
0100
0001
1000
,
0000
0100
0100
1000
0010
0000
1000
0000
,
0001
0000
0100
0000
0001
0000
0100
0000
0001
0000
0000
0010
0000
0000
0100
0000
,
0000
1000
0010
1000
0010
0100
0001
0010
,
0100
0000
1000
0000
0100
0000
1000
0000
0001
0000
0000
0100
0000
0000
0010
0000
,
0000
0100
0001
1000
0001
0010
0100
1000
,
0000
1000
0000
1000
0000
1000
0001
0100
,
0000
0100
0000
0100
0000
0100
0000
0110
,
0000
0010
0100
0001
0000
0010
0100
2000
,
0000
0000
0000
0000
3000
0001
0100
0010
,
0000
1000
2002
0000
0000
0000
3003
0000
,
0001
0010
0001
0010
0100
1000
0001
1000
,
0010
0001
0010
1000
0001
0010
0100
0000
,
1000
0010
1000
0010
0100
0001
1000
0001
,
0010
1000
0010
0001
1000
0010
0100
0001
,
0000
0010
0000
0001
0100
0010
1000
0100
,
0000
1000
0010
0100
0000
0000
0001
0001
,
1000
0100
1000
0010
0000
0100
0001
0010
,
0001
0000
1000
0000
0010
0010
0100
0100
,
0001
1000
0001
1000
0010
0100
0001
0100
,
1000
0100
0010
1000
0001
0010
0100
0000
,
1000
0001
1000
0001
0100
0010
1000
0100
,
0001
0100
1000
0001
1000
0010
0100
0010
,
0000
1000
0001
0100
0000
0001
0010
1000
,
0000
0001
0100
1000
0000
0100
0010
0001
,
1000
0010
0100
0010
,
1000
0100
0010
1000
,
0020
0001
0100
0032
,
0100
1000
0010
1003
,
0001
1000
0100
1000
0001
0100
0010
1000
,
0000
0001
1001
0000
0000
0000
0000
0000
,
0001
0100
0010
1000
,
0001
0010
0100
1000
0010
0100
0001
0000
,
1000
0100
0010
0100
0001
0100
0010
0100
,
1000
0100
0010
0100
0001
0100
1000
0000
,
0001
0100
0010
0100
1000
0100
0010
0100
,
0001
0100
0010
0100
1000
0100
0001
0000
,
1000
0100
0010
0100
0001
0100
0010
0100
,
1000
0100
0010
0100
0001
0100
1000
0000
,
1000
0010
0001
0000
0001
0010
1000
0000
,
1000
0100
0001
0100
1000
0000
0001
0000
,
1000
0010
0100
0010
0001
0010
0100
0010
,
1000
0010
0100
0010
0001
0010
1000
0000
,
0001
0010
0100
0010
1000
0010
0100
0010
,
0001
0010
0100
0010
1000
0010
0001
0000
,
1000
0010
0100
0010
0001
0010
0100
0010
,
1000
0010
0100
0010
0001
0010
1000
0000
,
0001
0000
0000
0010
0000
0000
0001
0000
1000
0000
0010
0000
0100
0000
0001
0000
,
0020
0000
0000
0030
,
2002
0000
0000
0000
,
3003
0000
0000
0000
,
0000
0000
0000
0000
;
#NOTES:
     dance-single:
     :
     Hard:
     15:
     :
0000
0000
0000
0000
,
0000
0000
0000
0000
,
0000
0000
0000
0000
,
0000
0000
0000
0000
,
0000
0000
0000
0000
,
0000
0000
0000
0000
,
1000
0000
0000
0000
0001
1000
0100
1000
0001
0010
0001
1000
0100
1000
0001
0100
,
0010
0000
0000
0000
1000
0001
0100
0001
1000
0010
1000
0001
0100
0001
1000
0100
,
0010
0000
0000
0000
0001
0010
0001
1000
0100
1000
0001
0010
0001
1000
0010
0100
,
0002
0000
0000
0003
,
1000
0000
0001
0000
0100
0000
0001
1000
0000
0010
0000
0100
0001
0100
0001
0000
,
0010
0000
0100
0000
1000
0000
0001
0100
0000
0010
0000
0100
0001
0000
0010
0000
,
0100
0000
1000
0000
0001
0000
0100
0010
0000
1000
0000
0010
0100
0001
1000
0001
,
0010
0000
0100
0000
1000
0000
0001
0100
0000
0010
0000
1000
0001
1000
0001
0000
,
0010
0000
0001
0000
1000
0000
0010
0100
0000
0001
0000
1000
0100
1000
0100
0000
,
0010
0000
0001
0000
1000
0000
0010
0100
0000
0001
0000
0100
0010
0000
1000
0000
,
1001
0000
0000
0011
0000
0000
1100
0000
0000
0110
0000
0000
0001
0100
0001
0010
,
0200
0000
0000
0300
1000
0001
1000
0010
,
0100
0001
0010
0001
,
1000
0010
0100
0001
,
1000
0001
0010
0100
,
0010
0000
0001
0000
1000
0010
1000
0010
,
0200
0000
0301
0020
0000
0230
0000
2300
,
0000
3020
0000
0230
0000
0301
1000
0200
,
0000
0301
0100
2000
0000
0010
0000
3010
,
0100
0000
0010
0000
0001
0000
0010
0000
0100
0000
0001
1000
0001
0000
0010
0000
,
0100
0000
1000
0100
0000
1000
0010
0000
0100
0000
1000
0000
0100
0000
0010
0000
,
1000
0000
0100
1000
0000
0010
1000
0000
0100
0000
0010
0000
1000
0000
0010
0000
,
0001
0100
0010
2000
0000
3100
0010
0002
,
0000
0000
0103
0000
0001
0000
0010
0000
0100
0000
1000
0001
0100
0000
0010
0000
,
0110
0100
0001
1000
0000
1100
0000
1010
,
0000
0000
0000
0010
0100
0001
1000
0001
,
1000
0100
0100
1000
0010
0010
1000
0100
,
0010
0000
0001
0000
0010
0000
0100
0000
1000
0000
0001
0100
0010
0000
1000
0000
,
0100
0000
1000
0000
0010
0000
1000
0000
0100
0000
0000
1100
0000
0000
1010
0000
,
0000
0010
0100
0001
0010
0100
1000
0001
,
0100
0000
0001
0000
0010
0000
0001
0000
0101
0000
0000
0011
0000
0000
1001
0000
,
0000
1000
0010
0100
0001
0010
0001
1001
,
0000
1000
0010
0100
0010
0001
0010
0100
,
0001
1000
0100
0010
0100
0001
0100
0110
,
0000
0001
0100
1010
0000
1000
0100
0011
,
1000
0000
1000
0000
0001
0000
0001
0000
0100
0000
0100
0000
0001
0100
1000
0000
,
0000
0110
2002
0000
0000
0000
3003
0000
,
0001
0010
0100
0001
0100
1000
0010
0001
,
0010
0000
0100
0001
1000
0000
0001
0010
0100
0000
0010
0001
1000
0000
0010
0100
,
0001
0100
0010
0001
0010
1000
0100
0001
,
0100
0000
0010
0001
1000
0000
0001
0100
0010
0000
0100
0001
1000
0000
1010
0000
,
0000
0000
0010
0000
0100
0000
0001
0010
0001
0000
0010
0000
0100
0000
1100
0000
,
0000
0000
1000
0001
0100
0000
0010
0000
0100
0000
0001
0000
0010
0000
0001
0000
,
1000
0100
1000
0000
0001
0000
1000
0010
1000
0000
0010
0000
0100
0000
0001
1000
,
0001
0010
0100
1000
0010
0100
0001
0001
,
1000
0100
0010
1000
0010
0001
0100
1000
,
0100
0000
0010
1000
0001
0000
1000
0100
0010
0000
0100
1000
0001
0000
0100
0010
,
1000
0010
0100
1000
0100
0001
0010
1000
,
0010
0000
0100
1000
0001
0000
1000
0010
0100
0000
0010
1000
0001
0000
0101
0000
,
0000
0000
0100
0000
0001
0000
0010
0100
1000
0000
0001
0000
0100
0000
0011
0000
,
0000
1100
1000
0010
0100
1000
0100
0001
,
0010
0100
0010
0100
1000
0001
1000
0001
,
0010
0001
0100
0010
1000
0100
1000
0010
,
0100
0001
0010
0001
1000
0010
0100
0001
,
0010
0000
0100
0000
1000
0000
0001
0000
1000
0100
1000
0001
0100
0010
1000
0001
,
0010
0100
1000
0001
0100
0010
0100
1001
,
0000
0000
1100
0000
1001
0000
0000
0000
0000
0000
0001
0000
0010
0000
0100
1000
,
0010
1000
0001
0100
0001
0010
0100
1000
,
0001
0100
0001
1000
0010
1000
0001
0010
0001
1000
0010
0100
0001
0010
0100
1000
,
0001
0000
0100
0000
0001
1000
0001
0000
0010
0000
0100
0000
1000
0100
1000
0100
,
1000
0000
0001
0000
0100
0001
0100
0001
1000
0000
0010
0000
0100
0000
0001
0000
,
0010
0000
0100
0000
1000
0001
1000
0000
0010
0000
0100
0000
0001
0100
0001
0100
,
0001
0000
1000
0000
0100
1000
0100
1000
0001
0000
0010
0000
0100
0000
1000
0000
,
0010
0000
0100
0000
0001
1000
0001
0000
0010
0000
0100
0000
1000
0010
1000
0010
,
1000
0000
0001
0000
0010
0100
0010
0100
1000
0000
0010
0000
0100
0000
0001
0000
,
1000
0000
0100
0010
0100
0000
1000
0000
0010
0000
0100
0001
0100
0000
0010
0000
,
1000
0000
0100
0010
0100
0000
1000
0000
0001
0100
0001
0100
0010
1000
0001
0000
,
0010
0000
0100
0000
1000
0001
0100
0000
0010
0000
0100
0000
0001
0010
0001
0010
,
0100
0000
1000
0000
0001
0100
0001
0100
0010
0000
1000
0000
0001
0000
0010
0000
,
0100
0000
1000
0000
0001
1000
0010
0000
0100
0000
0001
0000
1000
0100
0010
0100
,
1000
0000
0001
0000
0100
0010
1000
0010
0100
0000
0001
0000
0010
0000
0100
0000
,
1000
0000
0001
0000
0100
0001
0010
0000
0001
0000
1000
0000
0100
1000
0100
0010
,
0001
0000
1000
0000
0010
0100
0001
1000
0001
0000
0010
0000
0100
0000
1000
0000
,
0001
0000
0100
0001
0000
0100
0001
0000
0010
0000
0100
1000
0100
0000
0010
0000
,
0002
0000
0000
0000
0000
0000
0003
0000
1000
0010
0000
0010
0100
0000
0001
0000
,
2002
0000
0000
0000
,
3003
0000
0000
0000
,
0000
0000
0000
0000
;
#NOTES:
     dance-double:
     :
     Easy:
     7:
     :
00000000
00000000
00000000
00000000
,
00000000
00000000
00000000
00000000
,
00000000
00000000
00000000
00000000
,
00000000
00000000
00000000
00000000
,
00000000
00000000
00000000
00000000
,
00000000
00000000
00000000
00000000
,
00020000
00000000
00030000
00000000
,
00002000
00003000
00020000
00030000
,
00000020
00000000
00000030
00000000
,
00002000
00000000
00000000
00003000
,
00000100
00001000
00000100
00001000
,
00000001
00000100
00001000
00000000
,
01000000
00010000
01000000
00010000
,
10000000
01000000
00010000
00000000
,
00000100
00001000
00000100
00001000
,
00000001
00000100
00001000
00000000
,
00011000
00000000
00000000
00010000
00000000
00000000
00001000
00000000
,
00022000
00000000
00033000
00000000
,
00001000
00000000
00010000
00000000
,
00100000
00000000
00010000
00000000
,
00001000
00000000
00100000
00000000
,
00010000
00000000
00100000
00000000
,
00001000
00000000
00000010
00000000
,
00001000
00000000
00010000
00000000
,
00000010
00000000
00001000
00000000
,
00000010
00000000
00010000
00000000
,
00001000
01000000
00100000
00000000
,
10000000
00100000
01000000
00000000
,
00010000
01000000
00100000
00010000
,
00001000
00010000
00000100
00000000
,
00000100
00001000
00000010
00000100
,
00000001
00000000
00001000
00000000
,
00001100
00010000
00001100
00010000
,
00001000
00000100
00000001
00000000
,
00000001
00000010
00000100
00001000
,
00000010
00010000
00001000
00000000
,
00001000
00010000
00001000
01000000
,
00010000
00000000
00100000
00000000
00010000
00000000
00000000
10000000
,
00000000
10000000
00000000
01000000
00000000
01000000
00000000
00010000
,
00000000
00010000
00000000
00001000
00000000
00001000
00000000
00000010
,
00000000
00000010
00000000
00000001
00000000
00000001
00000000
00000200
,
00000000
00000000
00000000
00000000
00000000
00000000
00000000
00000310
,
00000000
00001000
00000001
00000000
00000000
00000000
00000000
00000000
,
00000001
00000100
00001000
00010000
,
00100000
01000000
00001000
00010000
,
01000000
10000000
00100000
00010000
,
00001000
00000000
00010000
00000000
00000100
00000000
00001000
00001000
,
00000000
00000000
00000010
00000000
00010000
00000000
00001000
00001000
,
00000000
00000100
00000000
00000001
00000000
00000000
00000000
00000000
,
00000010
00000001
00000001
00000100
,
00001000
00000000
00010000
00000000
,
00001000
00110000
00001000
00110000
,
10000000
01000000
00010000
00001000
,
00010000
00001010
00010000
00001010
,
00000001
00000100
00001000
00010000
,
00001000
00100000
01000000
10000000
,
00100000
10000000
10010000
00000000
,
10000000
00100000
01000000
00000000
,
00010000
00100000
00001000
00000000
,
00010000
00000100
00000010
00000100
,
00001000
00000010
00010000
00000000
,
00011000
00000000
00010000
00000000
00001000
00000000
00000000
00001000
,
00000000
01000000
00100000
00000000
00000000
00000000
00000000
00000000
,
10010000
10000000
01000000
00100000
,
00020000
00000000
00000000
00030000
,
00100000
00010000
00100000
00010000
,
01000000
00100000
00020000
00030000
,
00000010
00001000
00000010
00001000
,
00000100
00000010
00002000
00003000
,
00100000
00010000
00100000
00010000
,
01000000
00100000
00020000
00030000
,
00000010
00001000
00000010
00001000
,
00000001
00000010
00000200
00000300
,
00001000
00000010
00001000
00000001
,
00000010
00000100
00020000
00030000
,
01000000
10000000
00100000
10000000
,
01000000
00100000
00002000
00003000
,
00000010
00000001
00001000
00000001
,
00000100
00000010
00020000
00030000
,
00100000
00000000
01000000
00010000
,
00200000
00000000
00000000
00300000
,
20020000
00000000
00000000
00000000
,
30030000
00000000
00000000
00000000
,
00000000
00000000
00000000
00000000
;
#NOTES:
     dance-double:
     :
     Medium:
     12:
     :
00000000
00000000
00000000
00000000
,
00000000
00000000
00000000
00000000
,
00000000
00000000
00000000
00000000
,
00000000
00000000
00000000
00000000
,
00000000
00000000
00000000
00000000
,
00000000
00000000
00000000
00000000
,
00010000
00010000
00001000
00001000
,
01000000
00010000
00100000
01000000
,
10000000
00010000
01000000
00010000
10000000
01000000
10000000
01000000
,
00200000
00000000
00000000
00300000
,
00001000
00000000
00000010
00000001
00001000
00000000
00000010
00000000
,
00000100
00000000
00000001
00000100
00001000
00000000
01000000
00000000
,
00001000
00000000
00010000
01000000
10000000
00000000
00010000
00000000
,
10000000
00000000
10000000
00100000
00010000
00000000
00000010
00000000
,
00010000
00000000
00001000
00000010
00000001
00000000
00001000
00000000
,
00000001
00000000
00000100
00001000
00010000
00000000
00011000
00000000
,
00001000
00000000
00000000
00010000
00000000
00000000
00100000
00000000
00000000
01000000
00000000
00000000
00010000
00000000
00100000
00000000
,
00002000
00000000
00013000
01000000
,
10000000
10000000
00100000
00100000
,
00010000
00010000
00001000
00001000
,
00010000
00010000
00000100
00000100
,
00000010
00000010
00000001
00000001
,
00000100
00000100
00000010
00001000
,
00000100
00000100
00010000
00001000
,
01000000
00010000
01000000
00020000
00000000
00000000
00130000
00000000
,
01000000
10000000
01000000
20000000
00000000
00000000
30100000
00000000
,
10000000
00000000
00000000
01000000
00000000
00000000
00100000
00000000
00000000
00000000
00001000
00000000
00010000
00000000
00000000
00000000
,
00000100
00000000
00000000
00001000
00000000
00000000
00000010
00000000
00000000
00000000
00010000
00000000
00001000
00000000
00000000
00000000
,
00000100
00000001
00000010
00000000
00000100
00001000
00000010
00000000
,
00010000
01000000
10000000
00100000
,
01100000
00000000
10000000
00000000
00010000
00100000
01000000
00000000
,
00010000
00000000
00001000
00000100
00000010
00000000
00001000
00000000
,
00000001
00000010
00000001
00000100
00000000
00000010
00001000
00000100
,
00000000
00010000
00001000
00100000
00010000
00000000
10000000
00000000
,
10000000
00100000
00010000
00000000
00001000
00000000
00100000
00000000
,
00001000
00000010
00000001
00000000
00001000
00000000
00000001
00000000
,
00000001
00000100
00001000
00000000
00010000
00000000
00000100
00000000
,
00010000
01000000
10000000
00000000
00100000
00000000
00000000
01001000
,
00000000
01000000
00010000
01000000
00100000
01000000
00010000
01000000
,
00000000
00001000
00010000
01000000
00010000
00001000
00000000
00101000
,
00000000
00001000
00010000
00100000
00000000
01000000
00001000
00020000
,
00000000
00000000
00000000
00000000
00030000
00001000
00010000
00000010
,
00000000
00000100
00000220
00000000
00000000
00000000
00000330
00000000
,
00000001
00000100
00000001
00000100
00001000
00010000
00100000
00000000
,
01000000
00010000
01000000
00010000
10000000
01000000
00100000
00010000
,
10000000
00100000
10000000
00100000
00010000
00001000
00000100
00000000
,
00000010
00001000
00000010
00001000
00000001
00000010
00000100
00001000
,
00000000
00000010
00010000
00001000
00000000
00000010
00001000
00010000
,
00000000
00001000
01000000
00100000
00000000
00000000
10000000
00000000
,
00010000
00100000
01000000
00000000
10000000
01000000
00100000
00000000
,
00001000
00000010
00000001
00001001
,
00000001
00000100
00001000
00010000
00100000
01000000
10000000
01000000
,
00010000
00100000
01000000
00010000
00001000
00010000
00001000
00000100
,
00000010
00000100
00000001
00001000
00000001
00000010
00000100
00010000
,
00001000
00010000
00100000
01000000
00001000
00010000
00001000
00000100
,
00000000
00000010
00010000
00001000
00000000
00010000
01000000
00100000
,
00000000
00001000
00010000
00100000
00000000
00010000
00001000
00000000
,
00100000
00001000
00010000
01000000
,
10000000
00100000
01000000
00010000
,
00100000
00001000
00000100
00000010
,
00010000
00001000
00000010
00000001
,
00000100
00000001
00000010
00000000
00000100
00001000
00000010
00010000
,
00000000
00001000
00011000
00000000
00000000
00000000
00000000
00000000
,
00010000
00001000
00100000
01000000
,
10000000
00100000
00010000
00000000
00001000
00000100
00000001
00000000
,
00000001
00001000
00000010
00000000
00001000
00000100
00000010
00000000
,
00000001
00000100
00001000
00010000
00100000
00000000
10000000
00000000
,
10000000
00010000
01000000
00000000
00010000
00100000
01000000
00000000
,
10000000
01000000
00010000
00001000
00000010
00000000
00000001
00000000
,
00000001
00001000
00000010
00000000
00001000
00000100
00000010
00000000
,
00000001
00000100
00001000
00010000
00100000
00000000
10000000
00000000
,
00100000
00000000
00000000
01000000
00000000
00000000
00010000
00000000
00100000
00000000
00000000
00001000
00000000
00000000
00010000
00000000
,
00000010
00000000
00000000
00001000
00000000
00000000
00000001
00000000
00001000
00000000
00000000
00000000
00000100
00000000
00000000
00000000
,
00001000
00000001
00000100
00000000
00001000
00010000
00000100
00000000
,
00010000
00001000
00010000
01000000
00100000
00000000
00010000
00000000
,
00010000
10000000
01000000
00000000
00010000
00001000
01000000
00000000
,
00001000
00010000
00001000
00000010
00000100
00000000
00001000
00000000
,
00001000
00000001
00000100
00000000
00001000
00010000
00000100
00000000
,
00010000
00001000
00010000
00100000
10000000
00000000
00010000
00000000
,
10010000
00000000
00000000
01100000
00000000
00000000
00001000
00000000
00010000
00000000
00000000
00000000
00000100
00000000
00000010
00000000
,
00000002
00000000
00000000
00000003
,
00002002
00000000
00000000
00000000
,
00003003
00000000
00000000
00000000
,
00000000
00000000
00000000
00000000
;
#NOTES:
     dance-double:
     :
     Hard:
     15:
     :
00000000
00000000
00000000
00000000
,
00000000
00000000
00000000
00000000
,
00000000
00000000
00000000
00000000
,
00000000
00000000
00000000
00000000
,
00000000
00000000
00000000
00000000
,
00000000
00000000
00000000
00000000
,
00011000
00000000
00000000
00000000
00001000
00010000
00001000
00000000
00010000
00000100
00001000
00000000
00000010
00000000
00010000
00000000
,
00001000
00000000
00000000
00000000
00010000
00001000
00010000
00000000
00001000
01000000
00010000
00000000
00100000
00000000
00001000
00000000
,
00011000
00000000
00000000
00000000
00010000
00000100
00001000
00000000
00000100
00000010
00000001
00000000
00001000
00000001
00000100
00000010
,
00002000
00000000
00000000
00003000
,
00000001
00000000
00000100
00000000
00001000
00000000
00010000
00000010
00000000
00001000
00000000
00000100
00010000
00000000
00001000
00000000
,
00010000
00000000
01000000
00000000
00100000
00000000
00001000
01000000
00000000
00010000
00000000
00100000
00001000
00000000
00010000
00000000
,
00100000
00000000
10000000
00000000
01000000
00000000
10000000
00010000
00000000
01000000
00000000
00100000
10000000
00000000
00010000
00000000
,
10000000
00000000
01000000
00000000
00010000
00000000
00001000
00010000
00000000
00001000
00000000
00000100
00000010
00000000
00010000
00000000
,
00001000
00000000
00000010
00000000
00000100
00000000
00001000
00000001
00000000
00000100
00000000
00001000
00010000
00000000
00100000
00000000
,
10000000
00000000
01000000
00000000
00010000
00000000
00001000
00000010
00000000
00000001
00000000
00000100
00000010
00000000
00001000
00000000
,
00000001
00000100
00000000
00001000
00010000
00000000
00100000
10000000
00000000
01000000
00010000
00000000
00001000
00010000
00000100
00000010
,
00000002
00000000
00000000
00000000
00001003
00000001
00000100
00000010
,
00001000
00000010
00010000
00001000
,
00000100
00000001
00000010
00000100
,
00001000
00000010
00010000
00001000
,
00010000
01000000
10000000
00100000
,
01000000
00000000
00001000
00020000
00000000
00030200
00000000
00000320
,
00000000
00000032
00000000
00000203
00000000
00000310
00000001
00000020
,
00000000
00000130
00001000
00020000
00000000
00100000
00000000
00130000
,
00010000
00001000
00000100
00000010
00000000
00001000
00000001
00000100
,
00000010
00000000
00001000
00000100
00000000
00001000
00000010
00000000
00000100
00000000
00001000
00000000
00010000
00000000
00001000
00000000
,
00100000
00000000
00010000
01000000
00000000
00010000
00100000
00000000
01000000
00000000
00010000
00000000
00001000
00000000
00010000
00000000
,
00000100
00000010
00001000
00020000
00000000
01030000
10000000
00200000
,
00000000
00310000
00001000
00000100
00000001
00000010
00001000
00010000
,
00001000
00010000
00000100
00000010
00000000
00000011
00000000
00020100
,
00000000
00000000
00000000
01030000
00100000
00010000
01000000
00100000
,
00010000
00001000
00000010
00000100
00001000
00000010
00000100
00001000
,
00010000
00000000
00000100
00000000
00000010
00000000
00000001
00000000
00001000
00000000
00000010
00000100
00000010
00000000
00001000
00000000
,
00000001
00000000
00000100
00000000
00001000
00000000
00010000
00000000
00100000
01000000
00000000
00100000
10000000
00000000
00010000
00000000
,
00000000
10000000
01000000
00010000
00001000
00000010
00001000
00010000
,
00000100
00000000
00001000
00000000
00000010
00000000
00010000
00000000
00000100
00000000
00000000
00001100
00000000
00000000
00001020
00000000
,
00000000
00000000
00010030
00000000
00001000
00000000
00010000
00000000
01000000
00000000
10000000
00000000
01000000
00100000
00010000
00000000
,
01000000
10000000
01000000
00100000
01000000
00010000
01000000
00001000
,
00100000
10000000
00100000
01000000
00100000
00010000
00100000
00001000
,
00000010
00000100
00010000
00001000
00000100
00000001
00000010
00000011
,
00000000
00000001
00000100
00001000
00010000
00100000
01000000
01010000
,
00000000
10100000
20020000
00000000
00000000
00000000
30030000
00000000
,
10000000
00100000
00010000
00001000
00000100
00000001
00000010
00000100
,
00001000
00000000
00000010
00010000
00001000
00000000
01000000
00010000
10000000
00000000
00100000
00000000
00010000
00000000
00001000
00000000
,
00010000
01000000
00100000
00010000
00001000
00000100
00000010
00000001
,
00000100
00000000
00001000
00010000
00100000
00000000
01000000
00010000
10000000
00000000
00010000
00000000
01000000
00000000
00100000
00000000
,
00000000
00010000
00001000
00000010
00000001
00000100
00001000
00011000
,
00000000
00010000
01000000
10000000
10000000
01000000
00100000
00010000
,
01000000
00100000
01000000
00000000
00100000
00000000
00010000
00001000
00010000
00000000
00001000
00000000
00000100
00000000
00000010
00000100
,
00000010
00001000
00000001
00000001
00000010
00000100
00001000
00010000
,
00100000
00001000
00010000
00001000
00000100
00000001
00000010
00000100
,
00001000
00000000
00000001
00000100
00001000
00000000
00000100
00001000
00010000
00000000
00001000
00000000
00010000
00000000
00100000
00000000
,
01000000
00001000
00010000
01000000
10000000
10000000
01000000
00100000
,
00010000
00000000
10000000
01000000
00010000
00000000
01000000
00010000
00001000
00000000
00000010
00000000
00000001
00000000
00001001
00000000
,
00000000
00001000
00000100
00010100
00000000
00000100
00010000
00200000
,
00000000
10300000
00100000
00010000
00001000
00000100
00000010
00000100
,
00000001
00000010
00000001
00000100
00000010
00001000
00000100
00010000
,
00001000
00100000
00010000
00100000
01000000
00100000
00010000
00100000
,
00001000
00010000
00100000
10000000
01000000
00100000
00001000
00010000
,
00100000
01000000
00010000
00100000
01000000
10000000
00010000
01000000
,
00001000
00000000
00010000
00000000
01000000
00000000
10000000
00000000
00100000
00000000
10000000
01000000
00100000
00000000
00001000
00000000
,
00000000
00000000
00010000
00000000
00011000
00000000
00001000
00000010
00000001
00000000
00001000
00000000
00000010
00000000
00000100
00000000
,
00000001
00000000
00000100
00001000
00010000
00000000
00001000
00100000
00010000
00000000
01000000
00010000
00100000
00000000
01000000
10000000
,
00010000
10000000
00100000
00010000
00001000
00000100
00000010
00001000
,
00000001
00000000
00000010
00000000
00000100
00001000
00000100
00000000
00000010
00000000
00001000
00000000
00010000
00001000
00010000
00001000
,
00010000
00000000
00001000
00000000
00100000
00010000
00100000
00010000
00100000
00000000
00001000
00000000
00010000
00000000
01000000
00000000
,
10000000
00000000
00100000
00000000
01000000
00010000
01000000
00000000
00100000
00000000
00010000
00000000
00001000
00010000
00001000
00010000
,
00001000
00000000
00010000
00000000
00000100
00001000
00000100
00001000
00000010
00000000
00010000
00000000
00001000
00000000
00000100
00000000
,
00000001
00000000
00000010
00000000
00000100
00001000
00000100
00000000
00000010
00000000
00001000
00000000
00010000
00001000
00010000
00001000
,
00010000
00000000
00001000
00000000
01000000
00010000
01000000
00010000
01000000
00000000
00001000
00000000
00010000
00000000
00100000
00000000
,
01000000
00000000
00010000
00100000
00010000
00000000
01000000
00000000
00001000
00000000
00100000
00010000
00100000
00000000
00001000
00000000
,
00010000
00000000
01000000
10000000
01000000
00000000
00100000
00000000
00001000
00000000
00010000
00000000
00000100
00000000
00000010
00000000
,
00000001
00000000
00000100
00000000
00000010
00001000
00000010
00000000
00000100
00000000
00001000
00000000
00010000
00001000
00010000
00001000
,
00010000
00000000
00100000
00000000
01000000
00010000
01000000
00010000
01000000
00000000
00010000
00000000
00100000
00000000
01000000
00000000
,
10000000
00000000
01000000
00000000
00100000
00010000
00100000
00000000
01000000
00000000
00010000
00000000
00001000
00010000
00001000
00010000
,
00001000
00000000
00000100
00000000
00000010
00001000
00000010
00001000
00000001
00000000
00000010
00000000
00000100
00000000
00001000
00000000
,
00000010
00000000
00010000
00000000
00001000
00010000
00001000
00000000
01000000
00000000
00010000
00000000
10000000
01000000
10000000
01000000
,
10000000
00000000
01000000
00000000
00100000
00010000
00100000
00010000
00100000
00000000
00001000
00000000
00010000
00000000
00001000
00000000
,
00000100
00000000
00000010
00000100
00000000
00000001
00000100
00000000
00000001
00000000
00001000
00000100
00000010
00000000
00001000
00000000
,
00020000
00000000
00001000
00000000
00000000
00000000
00031000
00000000
00001000
00010000
00001000
01000000
00000000
00100000
10000000
00000000
,
20020000
00000000
00000000
00000000
,
30030000
00000000
00000000
00000000
,
00000000
00000000
00000000
00000000
;
