
//----- song ID: zend -----//
#VERSION:0.83;
#TITLE:ZENDEGI DANCE;
#ARTIST:ARM x BEMANI Sound Team "U1 overground";
#BANNER:ZENDEGI DANCE.png;
#BACKGROUND:ZENDEGI DANCE-bg.png;
#CDTITLE:./CDTitles/bm IIDX 26 Rootage.png;
#MUSIC:ZENDEGI DANCE.ogg;
#SAMPLESTART:56.625;
#SAMPLELENGTH:15;
#BPMS:0=160;
#NOTEDATA:;
#STEPSTYPE:dance-single;
#DIFFICULTY:Beginner;
#METER:4;
#NOTES:
0000
0000
0000
0000
,
0000
0000
0000
0000
,
0000
0000
0000
0000
,
0000
0000
0000
0000
,
0000
0000
0000
0000
,
0000
0000
0000
0000
,
0001
0000
0000
0000
,
1000
0000
0000
0000
,
0001
0000
0000
0000
,
1000
0000
0000
0000
,
0010
0000
0010
0000
,
0010
0000
0010
0000
,
0100
0000
0000
0000
,
0001
0000
0000
0000
,
1000
1000
1000
0000
,
0001
0000
0001
0000
,
0100
0000
0100
0000
,
0001
0000
1000
0000
,
1001
0000
0001
0000
,
0100
0000
0100
0000
,
0110
0000
0000
0000
,
1001
0000
0000
0000
,
0001
0000
0000
0000
,
0100
0000
0000
0000
,
0010
0000
0000
0000
,
1000
0000
0000
0000
,
0001
0000
0001
0000
,
0100
0000
0100
0000
,
0010
0000
0000
0000
,
1000
0000
0000
0000
,
0001
0001
0001
0000
,
0100
0000
0100
0000
,
0010
0000
0010
0000
,
1000
0000
0001
0000
,
1001
0000
1000
0000
,
0010
0000
0010
0000
,
0100
0000
0100
0000
,
0001
0000
0000
0000
,
1000
1000
1000
0000
,
0010
0000
0010
0000
,
0100
0000
0100
0000
,
0001
0000
1000
0000
,
1001
0000
0001
0000
,
0100
0000
0100
0000
,
0010
0000
0010
0000
,
1000
0000
0000
0000
,
0001
0000
0000
0000
,
0010
0000
0000
0000
,
0100
0000
0000
0000
,
1000
0000
0000
0000
,
0010
0000
0010
0000
,
0010
0000
0000
0000
,
0100
0000
0100
0000
,
0100
0000
0000
0000
,
0001
0000
0000
0000
,
1000
0000
0000
0000
,
0010
0000
0000
0000
,
0100
0000
0000
0000
,
0001
0000
0000
0000
,
1000
0000
0000
0000
,
0010
0010
0010
0000
,
1000
0000
0001
0000
,
1000
0000
0000
0000
,
0020
0000
0030
0000
,
1000
0000
1000
0000
,
0001
0000
0001
0000
,
0100
0000
0100
0000
,
0020
0000
0030
0000
,
0010
0010
0010
0000
,
1000
0000
0001
0000
,
0100
0000
0010
0000
,
1000
0000
0001
0000
,
1001
0000
1000
0000
,
0010
0000
0100
0000
,
0110
0000
0000
0000
,
1001
0000
0000
0000
,
0110
0000
1001
0000
,
0010
0000
0100
0000
,
2002
0000
0000
0000
,
0000
0000
0000
3003
;
#NOTEDATA:;
#STEPSTYPE:dance-single;
#DIFFICULTY:Easy;
#METER:9;
#NOTES:
0000
0000
0000
0000
,
0000
0000
0000
0000
,
0000
0000
0000
0000
,
0000
0000
0000
0000
,
0000
0000
0000
0000
,
0000
0000
0000
0000
,
0001
1000
0100
0000
,
0010
0000
0100
0000
,
1000
0001
0100
0000
,
0010
0000
0100
0000
,
0200
0000
0001
0000
,
0010
0000
1000
0000
,
0310
0000
0000
0000
,
0020
0100
0100
0130
,
0110
1001
0001
0010
,
0100
1000
0010
1000
,
0011
1000
0011
1000
,
0010
0100
0002
0003
,
2002
3003
1000
0010
,
0110
1001
0001
0010
,
0220
0330
2002
3003
,
0001
1000
0020
0030
,
1000
1000
0001
0100
,
0010
0010
0100
0001
,
0010
0010
0100
1000
,
0100
0100
1000
0001
,
0010
0011
0100
0110
,
1000
1100
0001
0101
,
0020
0000
0000
0000
,
0100
0100
0130
0110
,
1001
0110
0001
1000
,
1100
0001
0100
0010
,
0200
1000
0001
1000
,
0301
0001
0020
0030
,
2002
3003
1000
0001
,
0100
0000
0010
0000
1000
0001
1000
0000
,
0010
0100
0001
0010
,
0100
0000
1000
0001
1000
0000
0000
0000
,
1100
0011
1000
0001
,
0011
1000
0010
0100
,
0020
0001
1000
0001
,
1030
1000
0200
0300
,
2002
3003
0001
1000
,
0010
0000
0100
0000
0001
1000
0001
0000
,
0100
0010
1000
0100
,
0010
0000
0001
1000
0001
0000
0000
0000
,
2000
3200
0320
0230
,
2300
3200
0302
0203
,
2300
3200
0320
0230
,
2300
3200
0302
0203
,
1300
0100
0010
0001
,
0001
0100
0010
1000
,
1000
0001
0100
0010
,
0020
2030
3200
0320
,
0031
1000
0100
0000
,
0010
0000
0100
0000
,
1000
0001
0100
0000
,
0010
0000
0100
0000
,
0020
0000
1000
0000
,
0100
0000
0001
0000
,
0130
0100
0100
0100
,
0101
0000
1100
0000
,
0100
0000
0100
0010
0100
0000
0001
0000
,
2002
0000
0000
3003
,
1010
1010
1001
1001
,
0101
0101
1001
1001
,
1000
1000
0010
0010
,
0200
0000
0000
0300
,
0101
0011
0010
0100
,
1100
1010
0010
0100
,
0101
0011
0010
0100
,
1100
1010
0010
0100
,
0001
1000
0010
0100
,
0010
0000
1000
0001
1000
0000
0010
0000
,
0110
0000
0001
0100
,
0110
0000
1000
0100
,
0110
1001
0110
1001
,
0110
0001
0110
1000
,
2002
0000
0000
0000
,
0000
0000
0000
3003
;
#NOTEDATA:;
#STEPSTYPE:dance-single;
#DIFFICULTY:Medium;
#METER:12;
#BPMS:0=80,28=160,84=80,88=160,152=80,160=160,176=80,188=160,200=80,202=160,214=80,216=160;
#STOPS:240=0.375,243=0.375;
#NOTES:
0000
0000
0000
0000
,
0000
0000
0000
0000
,
0000
0000
0000
0000
,
0001
0000
1000
0000
1000
0000
0010
0000
1000
0000
1000
0100
0010
0001
0001
0000
,
1000
0000
0001
0000
0001
0000
0100
0000
0001
0000
0001
0010
0100
1000
1000
0000
,
0010
0000
0000
0010
0000
0000
0020
0000
0100
0000
0000
0000
0000
0000
0000
0000
1000
0000
0000
0000
0000
0000
0000
0000
0001
0000
0000
0000
0000
0000
0000
0000
,
1030
0000
0000
0000
0010
0010
0010
0010
,
0110
0000
1001
0000
0001
0010
0100
0000
,
1000
0000
0001
0000
0100
0000
0010
0100
0000
0000
0000
0000
0001
0000
0000
0000
,
1000
0010
1000
0000
0001
0100
0001
0000
,
0010
0100
1000
0000
0020
0000
0130
0000
,
2002
0000
3003
0001
0100
0010
1000
0000
,
0001
0000
0000
0001
0100
0000
0001
0000
0010
0000
0001
0000
1000
0000
0000
0000
,
2020
3030
0202
0303
,
0001
0000
0100
0001
0020
0000
0030
0000
,
0001
0001
0001
0000
1000
0000
0010
0000
,
0100
0100
0100
0000
0001
0000
1000
0000
,
0010
0010
0010
0000
1000
0000
0001
0000
,
1000
1000
1000
0000
0100
0000
0010
0000
,
0001
1000
0001
1000
0010
0100
0010
0100
,
0001
1000
0001
1000
0100
0010
0001
0100
,
0010
0000
0000
0000
0200
0010
0010
0310
,
0110
0000
1001
0000
0001
0010
0100
0000
,
1000
0000
0010
0000
1000
0000
0001
0010
0000
0000
0000
0000
0001
0000
0000
0000
,
1000
0010
0100
0000
0001
0010
0100
0000
,
1000
0010
0001
0000
0220
0000
0330
0000
,
2002
0000
3003
1000
0100
0010
0001
0000
,
1000
0000
0000
1000
0010
0000
1000
0000
0001
0000
1000
0000
0100
0000
0000
0000
,
0220
0000
0330
0001
0010
0001
1000
0000
,
0010
0010
0100
0010
0010
1000
0001
0000
,
0110
0000
1001
0000
1000
0010
0100
0000
,
0001
0000
0010
0000
0001
0000
1000
0010
0000
0000
0000
0000
0100
0000
0000
0000
,
0001
0010
0100
0000
1000
0010
0100
0000
,
0001
0010
1000
0000
0220
0000
0330
0000
,
2002
0000
3003
0001
0100
0010
1000
0000
,
0001
0000
0000
0001
0010
0000
0001
0000
1000
0000
0001
0000
0100
0000
0000
0000
,
0220
0000
0330
1000
0010
1000
0001
0000
,
0100
0100
0010
0100
0100
0001
1000
0000
,
0002
1000
0203
0010
0302
1000
0203
0010
,
0302
1000
0203
0010
0302
1000
0203
0310
,
0010
1000
0010
1000
0010
1000
0001
0000
,
0100
0001
0100
0001
0100
0001
1000
0000
,
0100
1000
0100
1000
0001
0100
0010
0000
,
1000
0001
0100
0010
0100
0001
0010
0100
,
1000
0000
0001
0000
0001
0000
0100
0000
0001
0000
0001
0010
0100
1000
1000
0000
,
0001
0000
1000
0000
1000
0000
0010
0000
1000
0000
1000
0100
0010
0001
0001
0000
,
0100
0000
0000
0100
0000
0000
0200
0000
0010
0000
0000
0000
0000
0000
0000
0000
0001
0000
0000
0000
0000
0000
0000
0000
1000
0000
0000
0000
0000
0000
0000
0000
,
0301
0000
0000
0000
0000
1000
0100
0010
,
0001
0010
0000
0000
0000
0000
0001
0000
1000
0100
0000
0000
0000
0000
1000
0000
,
0001
0100
0001
0010
0001
1000
0010
0100
,
0020
0000
0000
0030
1000
0100
0010
0100
,
1000
0010
0100
1000
0100
0010
1000
0100
,
0010
0100
1000
0010
0100
1000
0100
0010
,
1000
0100
0010
0001
2002
0000
0000
3003
,
0110
0000
1001
0000
1000
0100
0010
0000
,
0001
0000
0100
0000
0010
0000
1000
0001
0000
0000
1000
0000
0100
0000
0010
0000
,
0001
0100
1000
0000
0100
0001
0010
0000
,
0100
1000
0010
1000
0200
0000
0310
0000
,
0001
0000
0000
0010
0001
0000
1000
0000
0001
0000
0000
0100
0001
0000
1000
0000
,
0001
0000
0000
0010
0001
0000
1000
0000
0001
0000
0100
0000
0010
0000
0000
0000
,
1020
0000
0130
0001
0010
0000
0021
0000
,
0130
1000
0010
0000
1000
0100
1000
0010
,
0100
0001
0010
0001
0100
0000
1001
0000
,
0010
1001
0200
0000
,
0000
0000
0000
0000
,
0000
0300
0000
0000
;
#NOTEDATA:;
#STEPSTYPE:dance-single;
#DIFFICULTY:Hard;
#METER:15;
#BPMS:0=80,28=160,84=80,88=160,152=80,160=160,176=80,188=160,200=80,202=160,214=80,216=160;
#STOPS:240=0.375,243=0.375;
#NOTES:
0000
0000
0000
0000
,
0000
0000
0000
0000
,
0000
0000
0000
0000
,
2000
0000
0010
0000
0010
0000
0100
0000
0010
0000
3010
0100
1000
0100
0100
0001
,
0020
0000
0100
0000
0100
0000
0001
0000
0100
0000
0130
0010
0001
0100
0100
0001
,
1000
0000
0000
0010
0000
0000
0100
0000
1000
0000
0100
0000
0001
0000
0100
0000
1000
0000
0100
0000
0001
0000
0010
0000
1000
0000
0010
0000
0001
0000
0100
0000
,
0020
0000
0000
0000
0100
0100
0100
0130
,
1010
0000
1001
0000
0001
0010
1000
0000
,
0010
0000
0001
0000
0100
0000
0010
1000
0000
0000
0001
0000
0010
0000
0100
0000
,
1000
0000
0001
0100
0001
0000
0010
0000
0100
1000
0000
1000
0010
0000
0100
0000
,
0001
0000
1000
0010
0100
0000
0001
0000
0010
0001
0010
0100
1000
0000
0000
0000
,
2002
0000
0000
0000
3003
0000
1000
0000
0001
0100
0010
0000
0100
0001
0010
0000
,
0001
0000
0000
0100
0010
0000
1000
0000
0100
0000
1000
0000
1010
0000
0000
0000
,
2002
0000
0000
0000
3003
0000
0001
0000
0010
0000
0100
1000
0100
0000
0010
0000
,
0001
0000
0100
0010
0100
0000
0010
0000
0200
0000
0000
0000
0300
0000
0000
0000
,
0001
0010
0001
0000
0001
0010
0001
0000
1000
0000
0010
0000
0100
0000
0001
0000
,
1000
0100
1000
0000
1000
0100
1000
0000
0001
0000
0100
0000
0010
0000
1000
0000
,
0010
1000
0010
0000
0010
1000
0010
0000
0100
0000
0001
0000
1000
0000
0010
0000
,
0100
0010
0100
0000
0100
0010
0100
0000
0001
0000
1000
0000
0100
0000
1000
0000
,
0010
0010
0100
0100
0001
0001
1000
1000
,
0001
0010
0001
1000
0100
1000
0001
0100
0001
1000
0010
1000
0001
1000
0001
1000
,
0001
0000
0000
0000
0000
0000
0000
0000
0100
0010
0100
0010
0100
0010
1000
0001
,
0011
0000
1100
0000
1000
0010
0001
0000
,
0010
0000
0100
0000
0001
0000
1000
0100
0000
0000
1000
0000
0010
0000
0100
0000
,
0001
0000
1000
0100
0010
0000
0100
0000
1000
0001
0000
0001
0100
0000
0010
0000
,
0100
0000
0001
0010
0100
0000
1000
0000
0001
0100
0000
0001
0010
0000
0001
0000
,
2002
0000
0000
0000
3003
0000
1000
0000
0010
0100
0001
0000
0010
0001
0100
0000
,
0010
0000
0000
0010
0001
0000
0010
0000
1000
0000
0100
0000
0110
0000
0000
0000
,
2002
0000
0000
0000
3003
0000
0001
0000
0100
0000
0010
1000
0010
0000
0100
0000
,
0001
0000
1000
0010
0100
0000
0001
0010
0100
1000
0100
1000
0001
0000
0100
0000
,
1010
0000
0101
0000
0001
0010
1000
0000
,
0010
0000
0100
0000
1000
0000
0001
0100
0000
0000
0001
0000
0010
0000
0100
0000
,
1000
0000
0001
0100
0010
0000
0100
0000
0001
1000
0000
1000
0100
0000
0010
0000
,
0100
0000
1000
0010
0100
0000
0001
0000
1000
0100
0000
1000
0010
0000
1000
0000
,
2002
0000
0000
0000
3003
0000
0001
0000
0010
0100
1000
0000
0010
0100
0001
0000
,
0010
0000
0000
0001
1000
0000
0010
0000
1000
0000
0100
0000
0110
0000
0000
0000
,
2002
0000
0000
0000
3003
0000
1000
0000
0010
0000
0100
0001
0100
0000
0010
0000
,
1000
0000
0100
0010
0100
0000
0010
0001
0010
0000
0001
0000
1001
0000
0000
0000
,
0002
0203
0320
0032
0023
2030
3200
0302
0203
0320
0032
0203
0320
0032
0023
2030
,
3002
0023
2030
3020
0230
2300
3020
0230
2300
3200
0302
0023
2030
3020
0032
0000
,
1003
0000
0010
0000
0100
0000
1000
0000
0100
0001
0010
0000
0100
1000
0010
0000
,
0001
0000
0010
0000
0100
0000
1000
0000
0100
0001
0010
0000
0100
1000
0010
0000
,
0001
0000
0010
0000
0100
0000
1000
0000
0100
0001
0010
0000
0100
1000
0010
0000
,
0100
0001
0100
0001
1000
0100
1000
0100
1000
0001
0100
0001
1000
0000
0000
0000
,
0002
0000
0100
0000
0100
0000
0010
0000
0100
0000
0103
0010
0001
0010
0010
1000
,
0200
0000
0010
0000
0010
0000
1000
0000
0010
0000
0310
0100
1000
0010
0010
1000
,
0001
0000
0000
0100
0000
0000
0010
0000
0001
0000
0010
0000
1000
0000
0010
0000
0001
0000
0010
0000
1000
0000
0100
0000
0001
0000
0100
0000
1000
0000
0010
0000
,
0000
0101
0000
1010
0000
0101
0001
0010
,
0001
1000
0000
0000
0100
0000
0010
0000
0001
1000
0000
0000
0010
0000
0100
0000
,
0001
0000
1000
0100
1000
0000
0001
0000
0100
0010
0000
0010
1000
0000
0001
0000
,
2002
0000
0000
0000
0000
0000
3003
0000
0001
0100
0001
0100
0001
0100
0001
0100
,
0001
0100
0001
0100
0001
0100
0001
0100
0001
0100
0001
0100
0001
0100
0001
0100
,
0001
0010
0200
0000
1300
0000
0001
0100
,
0010
0000
1000
0001
1000
0000
0100
0000
0020
2030
3020
0032
0203
2300
3200
0320
,
1030
0000
0101
0000
0001
0010
1000
0000
,
0010
0000
0001
0000
0100
0000
0001
0010
0000
0000
0100
0000
1000
0000
0010
0000
,
1000
0000
0100
0010
0001
0000
1000
0000
0010
0100
0000
0100
0001
0000
1000
0000
,
0100
0000
1000
0010
0100
0000
0001
0000
1000
0100
1000
0001
0100
0000
0010
0000
,
0220
0000
0000
0000
0330
0000
1000
0000
0100
0010
0001
0000
0100
0010
1000
0000
,
0001
0000
0000
0001
0010
0000
0100
0000
1000
0000
0010
0000
0100
0000
0001
0000
,
0021
0000
0000
0000
0130
0000
0010
0001
1000
0000
0010
0000
1020
0000
0000
0000
,
0130
0000
0001
0010
0100
0000
1000
0000
0001
0100
0001
0100
0001
1000
0100
0010
,
0100
1000
0001
0100
0010
1000
0001
0000
0022
0000
0033
0000
1001
0000
0000
0000
,
2200
3300
1001
0000
0220
0000
0000
0000
,
0000
0000
0000
0000
,
0000
0330
0000
0000
;
#NOTEDATA:;
#STEPSTYPE:dance-double;
#DIFFICULTY:Easy;
#METER:8;
#NOTES:
00000000
00000000
00000000
00000000
,
00000000
00000000
00000000
00000000
,
00000000
00000000
00000000
00000000
,
00000000
00000000
00000000
00000000
,
00000000
00000000
00000000
00000000
,
00000000
00000000
00000000
00000000
,
00001000
00010000
00000100
00000000
,
00001000
00000000
00000010
00000000
,
00010000
00001000
00100000
00000000
,
00010000
00000000
01000000
00000000
,
00002000
00000000
00100000
00000000
,
00010000
00000000
00000010
00000000
,
00013000
00000000
00000000
00000000
,
00001000
00001000
00001000
00000000
,
00011000
00011000
00010000
00000100
,
00000010
00000001
00001000
00000000
,
00001010
00000001
00001010
00000001
,
00001010
00000001
00000200
00000300
,
00002002
00003003
00000001
00000100
,
00001000
00000000
00010000
00000000
,
00022000
00033000
00022000
00033000
,
00001000
01000000
00200000
00300000
,
10000000
10000000
00010000
01000000
,
00100000
00100000
01000000
00001000
,
00010000
00010000
00000100
00001000
,
00000010
00000010
00000100
00000001
,
00001000
00001100
00010000
00011000
,
00100000
00110000
01000000
01100000
,
20000000
00000000
00000000
00000000
,
00100000
00100000
00100000
30100000
,
01100000
10010000
10000000
01000000
,
00010000
00001000
00010000
00000200
,
00000010
00010000
00000010
00010300
,
00011000
00001000
00000200
00000300
,
00002002
00003003
00000001
00000100
,
00000010
00000000
00000010
00000000
00001000
00000001
00001000
00000000
,
00000010
00010000
00001000
00000010
,
00000002
00000000
00000000
00001003
,
00000110
00001001
00000001
00000100
,
00001000
00010000
00001000
02000000
,
00100000
00001000
00100000
03001000
,
00011000
00010000
02000000
03000000
,
20020000
30030000
10000000
01000000
,
00100000
00000000
00100000
00000000
00010000
10000000
00010000
00000000
,
00100000
00001000
00010000
00001000
,
00022000
00000000
00033000
00010000
,
00002000
00023000
00032000
00003200
,
00002300
00023000
00032000
00003020
,
00002030
00023000
00032000
00003200
,
00002300
00023000
00032000
00003020
,
00000031
00000001
00001000
00000010
,
00010000
00010000
00001000
01000000
,
00010000
00010000
00100000
01000000
,
20000000
30200000
00320000
00032000
,
00013000
00001000
01000000
00000000
,
00010000
00000000
00100000
00000000
,
00001000
00010000
00000010
00000000
,
00001000
00000000
00000100
00000000
,
00020000
00000000
00000010
00000000
,
00001000
00000000
00100000
00000000
,
00031000
00001000
00001000
00001000
,
00011000
00000000
00101000
00000000
,
00100000
00010000
01000000
00100000
,
02200000
00000000
00000000
03300000
,
10000000
00100000
00010000
00001000
,
00000100
00000001
00000010
00000100
,
00001000
00000010
00010000
00001000
,
00022000
00000000
00000000
00033000
,
00011000
00011000
00001000
01000000
,
01100000
01100000
00100000
00010000
,
00011000
00011000
00010000
00000100
,
00000110
00000110
00000001
00001000
,
00002002
00003003
00000001
00000100
,
00001000
00011000
00010000
00001000
,
00210000
00000000
00301000
00010000
,
00001020
00000000
00010030
00001000
,
00000100
00001000
00010000
00001000
,
00011000
00100000
00011000
00000100
,
00022000
00000000
00000000
00000000
,
00000000
00000000
00000000
00033000
;
#NOTEDATA:;
#STEPSTYPE:dance-double;
#DIFFICULTY:Medium;
#METER:12;
#BPMS:0=80,28=160,84=80,88=160,152=80,160=160,176=80,188=160,200=80,202=160,214=80,216=160;
#STOPS:240=0.375,243=0.375;
#NOTES:
00000000
00000000
00000000
00000000
,
00000000
00000000
00000000
00000000
,
00000000
00000000
00000000
00000000
,
00001000
00000000
00000000
00001000
00000000
00000000
00001000
00000000
00010000
00000000
00000000
00000000
00000010
00000000
00000000
00000000
00001000
00000000
00000000
00000000
00000100
00000000
00000000
00000000
00000001
00000000
00000000
00000000
00000100
00000000
00000000
00000000
,
00010000
00000000
00000000
00010000
00000000
00000000
00010000
00000000
00001000
00000000
00000000
00000000
01000000
00000000
00000000
00000000
00010000
00000000
00000000
00000000
00100000
00000000
00000000
00000000
10000000
00000000
00000000
00000000
00100000
00000000
00000000
00000000
,
00002000
00010000
00100000
00000010
,
00013000
00000000
00000000
00000000
00001000
00001000
00001000
00001000
,
00011000
00000000
01001000
00000000
01000000
00010000
00100000
00000000
,
00001000
00010000
01000000
00000000
00100000
00000000
00001000
00000000
,
00010000
00100000
01000000
00000000
00010000
00100000
00001000
00000000
,
00010000
00001000
00010000
00000000
00000020
00000000
00000130
00000000
,
00002002
00000000
00003003
00000001
00000010
00000100
00001000
00000000
,
00000010
00000000
00010000
00001000
01000000
00010000
00100000
00000000
,
02200000
03300000
20020000
30030000
,
00010000
00000000
10000000
01000000
00020000
00000000
00031000
00000000
,
00010000
00000000
00000100
00000000
00010000
00001000
00000010
00000000
,
00000100
00000000
00010000
00000000
00001000
00000010
00000001
00000000
,
00000010
00000000
00000100
00000000
00010000
00001000
00100000
00000000
,
00001000
00000000
00010000
00000000
01000000
00100000
00010000
00000000
,
10000000
01000000
10000000
01000000
00010000
00001000
00010000
00001000
,
00000010
00000001
00000010
00000001
00000100
00000010
00010000
00001000
,
01000000
00000000
00000000
00000000
00200000
01000000
01000000
01300000
,
01100000
00000000
10010000
00000000
10000000
01000000
00100000
00000000
,
00001000
00010000
00000100
00001000
00000010
00000000
00010000
00000000
,
00001000
00000010
00000001
00000000
00000001
00000100
00000010
00000000
,
00010000
00001000
00100000
00000000
02000000
00000000
03100000
00000000
,
20020000
00000000
30030000
00010000
10000000
00100000
01000000
00000000
,
00001000
00000000
00000000
00001000
00010000
00000000
00000100
00000000
00001000
00000000
00000100
00000000
00000010
00000000
00000000
00000000
,
00000022
00000000
00000033
00000001
00000010
00000100
00001000
00000000
,
00000010
00000010
00000100
00000010
00000010
00001000
00000001
00000000
,
00000110
00000000
00001001
00000000
00000001
00000100
00000010
00000000
,
00010000
00001000
01000000
00010000
00100000
00000000
00001000
00000000
,
00010000
00100000
10000000
00000000
10000000
01000000
00100000
00000000
,
00001000
00010000
00000010
00000000
00000200
00000000
00000310
00000000
,
00002002
00000000
00003003
00001000
00000001
00000010
00000100
00000000
,
00010000
00000000
00000000
00010000
00001000
00000000
01000000
00000000
00010000
00000000
01000000
00000000
00100000
00000000
00000000
00000000
,
20020000
00000000
30030000
00010000
00100000
00001000
00010000
00000000
,
00001000
00001000
00010000
00001000
00001000
00010000
00000100
00000000
,
00002000
00000001
00003020
00000100
00020030
00001000
00030200
00000010
,
00002300
00000001
00003020
00000100
00020030
00001000
00030200
00000310
,
00000001
00001000
00000001
00001000
00000010
00000100
00001000
00000000
,
00010000
00001000
00010000
00001000
00010000
01000000
00100000
00000000
,
00010000
01000000
00010000
01000000
00100000
10000000
00010000
00000000
,
10000000
00100000
01000000
00010000
00100000
00001000
00011000
00000000
,
00010000
00000000
00000000
00010000
00000000
00000000
00010000
00000000
00001000
00000000
00000000
00000000
00100000
00000000
00000000
00000000
00010000
00000000
00000000
00000000
01000000
00000000
00000000
00000000
10000000
00000000
00000000
00000000
01000000
00000000
00000000
00000000
,
00001000
00000000
00000000
00001000
00000000
00000000
00001000
00000000
00010000
00000000
00000000
00000000
00000100
00000000
00000000
00000000
00001000
00000000
00000000
00000000
00000010
00000000
00000000
00000000
00000001
00000000
00000000
00000000
00000010
00000000
00000000
00000000
,
00020000
00001000
00000010
00100000
,
00031000
00000000
00000000
00000000
00000000
00001000
00010000
00001000
,
00100000
00010000
00000000
00000000
00000000
00000000
10000000
00000000
00100000
01000000
00000000
00000000
00000000
00000000
00000000
00000000
,
00010000
00010000
00100000
01000000
10000000
10000000
00010000
01000000
,
00002000
00000000
00000000
00003000
00010000
00001000
00000100
00001000
,
00010000
00000100
00001000
00000010
00001000
00000100
00010000
00001000
,
00000100
00001000
00010000
00000100
00001000
00000010
00001000
00000100
,
00010000
00001000
00000100
00000010
00000200
00000000
00000000
00000300
,
00000110
00000000
00001001
00000000
00000001
00000010
00000100
00000000
,
00010000
00001000
01000000
00100000
01000000
00000000
00010000
00000000
,
10000000
01000000
00010000
00000000
00001000
00010000
00000010
00000000
,
00000100
00000001
00000010
00000000
00000200
00000000
00010300
00000000
,
00022000
00000000
00033000
00001000
00010000
00100000
01000000
00000000
,
00010000
00000000
00010000
10000000
01000000
00100000
00010000
00000000
,
00201000
00000000
01300000
00100000
00001000
00000000
00010020
00000000
,
00000130
00001000
00010000
00000000
00011000
00000000
00110000
00000000
,
00011000
00001010
00000100
00011000
,
00100000
00011000
00000200
00000000
,
00000000
00000000
00000000
00000000
,
00000000
00000300
00000000
00000000
;
#NOTEDATA:;
#STEPSTYPE:dance-double;
#DIFFICULTY:Hard;
#METER:15;
#BPMS:0=80,28=160,84=80,88=160,152=80,160=160,176=80,188=160,200=80,202=160,214=80,216=160;
#STOPS:240=0.375,243=0.375;
#NOTES:
00000000
00000000
00000000
00000000
,
00000000
00000000
00000000
00000000
,
00000000
00000000
00000000
00000000
,
00002000
00000000
00010000
00000000
00010000
00000000
00000100
00000000
00010000
00000000
00013000
00100000
00010000
00001000
00001000
00100000
,
00020000
00000000
01000000
00000000
01000000
00000000
00100000
00000000
01000000
00000000
01030000
00100000
00010000
00001000
00100000
00010000
,
01000000
00000000
00000000
00001000
00000000
00000000
00100000
00000000
01000000
00000000
00010000
00000000
00001000
00000000
00010000
00000000
01000000
00000000
00010000
00000000
00001000
00000000
00010000
00000000
00100000
00000000
00010000
00000000
00001000
00000000
00010000
00000000
,
02000000
00000000
00000000
00000000
10000000
10000000
10000000
13000000
,
11000000
00000000
00110000
00000000
10000000
00100000
00010000
00000000
,
00001000
00000000
00010000
00000000
00000100
00000000
00001000
00000010
00000000
00000000
00010000
00000000
00001000
00000000
01000000
00000000
,
00010000
00000000
10000000
00010000
10000000
00000000
01000000
00000000
00100000
00001000
00000000
00001000
00010000
00000000
00000100
00000000
,
00001000
00000000
00000010
00000100
00000010
00000000
00001000
00000000
00000001
00000100
00000010
00000000
00001001
00000000
00000000
00000000
,
00002200
00000000
00000000
00000000
00003300
00000000
00000100
00000000
00010000
00001000
00100000
00000000
00010000
01000000
00100000
00000000
,
10000000
00000000
00000000
10000000
00100000
00000000
00010000
00000000
00001000
00000000
00000100
00000000
00000110
00000000
00000000
00000000
,
00002002
00000000
00003003
00000001
00000010
00000100
00010000
00001000
,
00010000
00000000
00001000
00010000
00001000
00000000
00010000
00000000
00002000
00000000
00000000
00000000
00003000
00000000
00000000
00000000
,
00010000
00010000
00010000
00010000
00001000
01000000
00010000
00100000
,
01000000
01000000
01000000
01000000
00100000
00001000
00010000
00000100
,
00000010
00000010
00000010
00000010
00000100
00001000
00000001
00000100
,
00001000
00001000
00001000
00001000
00010000
01000000
00100000
00010000
,
10000000
10000000
00100000
00100000
00010000
00010000
00001000
00001000
,
00000010
00000000
00000001
00000100
00000010
00000000
00001000
00000100
00010000
00000000
00001000
00100000
00010000
00000000
01000000
00100000
,
00000000
00000000
00000000
00000000
00000000
00000000
00000000
00000000
00100000
01000000
00100000
01000000
00100000
01000000
00010000
10000000
,
11000000
00000000
00110000
00000000
00100000
00001000
00010000
00000000
,
00000100
00000000
00000010
00000000
00000001
00000000
00001000
00000010
00000000
00000000
00000100
00000000
00000001
00000000
00000010
00000000
,
00001000
00000000
00010000
00001000
00010000
00000000
00001000
00000000
00100000
00010000
00000000
00010000
01000000
00000000
00100000
00000000
,
10000000
00000000
01000000
00100000
00010000
00000000
10000000
00000000
01000000
00010000
00000000
00001000
00000010
00000000
00000001
00000000
,
00002002
00000000
00000000
00000000
00003003
00000000
00000001
00000000
00001000
00000100
00010000
00000000
00001000
00100000
00010000
00000000
,
01000000
00000000
00000000
00001000
00010000
00000000
00100000
00000000
10000000
00000000
00100000
00000000
00010000
00000000
00000000
00000000
,
00022000
00000000
00000000
00000000
00033000
00000000
00010000
00000000
01000000
00000000
10000000
01000000
00100000
00000000
00001000
00000000
,
00010000
00000000
00001000
00010000
00001000
00000000
00010000
00000000
00001000
00000000
00000100
00000000
00000010
00000000
00000100
00000000
,
00000101
00000000
00001010
00000000
00000010
00010000
00001000
00000000
,
01000000
00000000
00100000
00000000
10000000
00000000
00010000
00100000
00000000
00000000
01000000
00000000
10000000
00000000
00100000
00000000
,
00010000
00000000
00001000
00010000
00001000
00000000
00010000
00000000
00000010
00001000
00000000
00001000
00000100
00000000
00000010
00000000
,
00000001
00000000
00000100
00000010
00001000
00000000
00000001
00000000
00000100
00001000
00000000
00010000
00100000
00000000
10000000
00000000
,
20020000
00000000
00000000
00000000
30030000
00000000
10000000
00000000
00010000
01000000
00001000
00000000
00010000
00000010
00001000
00000000
,
00000100
00000000
00000000
00010000
00001000
00000000
00000010
00000000
00000001
00000000
00000010
00000000
00001000
00000000
00000000
00000000
,
00022000
00000000
00000000
00000000
00033000
00000000
00001000
00000000
00000100
00000000
00000001
00000100
00000010
00000000
00010000
00000000
,
00001000
00000000
00010000
00001000
00010000
00000000
00100000
00010000
00100000
00000000
10000000
00000000
10010000
00000000
00000000
00000000
,
20000000
32000000
03200000
00320000
02030000
03200000
00320000
00032000
00203000
00320000
00030020
00002030
00023000
00230000
02300000
03020000
,
00030200
00000320
00020030
00032000
00003020
00000230
00020300
02030000
23000000
30200000
00320000
00032000
00003200
00000320
00002030
00000000
,
00003001
00000010
00001000
00010000
00001000
00000100
00000001
00000010
,
00001000
00100000
00010000
01000000
00001000
00000100
00000001
00000010
,
00000100
00010000
00001000
01000000
10000000
01000000
00010000
00100000
,
10000000
00100000
00010000
00100000
00001000
00010000
00001000
01000000
00010000
01000000
10000000
00000000
01000000
00000000
00010000
00000000
,
00200000
00000000
00001000
00000000
00001000
00000000
00010000
00000000
00001000
00000000
00301000
00010000
00100000
00010000
00001000
00001000
,
00020000
00000000
00000100
00000000
00000100
00000000
00001000
00000000
00000100
00000000
00030100
00010000
00001000
00000100
00000010
00001000
,
00000100
00000000
00000000
00010000
00000000
00000000
00001000
00000000
00000100
00000000
00001000
00000000
00010000
00000000
00001000
00000000
00000100
00000000
00001000
00000000
00010000
00000000
00001000
00000000
00000010
00000000
00001000
00000000
00010000
00000000
00001000
00000000
,
00000100
00000001
00001000
00000010
00010000
00001000
01000000
00010000
,
10000000
01000000
00000000
00000000
00010000
00000000
00001000
00000000
00000010
00000001
00000000
00000000
00000100
00000000
00000010
00000000
,
00001000
00000000
00000001
00000010
00000001
00000000
00000010
00000000
00000100
00001000
00000000
00001000
00000010
00000000
00010000
00000000
,
00022000
00000000
00000000
00000000
00000000
00000000
00033000
00000000
00001000
00010000
00001000
00010000
00001000
00010000
00001000
00010000
,
00001000
00010000
00001000
00010000
00001000
00010000
00001000
00010000
00001000
00010000
00001000
00010000
00001000
00010000
00001000
00010000
,
00001000
00010000
02000000
00000000
13000000
01000000
00100000
00010000
,
01000000
00000000
00100000
01000000
00100000
00000000
10000000
00000000
02000000
23000000
30200000
00320000
00032000
00003200
00000302
00000023
,
00000130
00000000
00010100
00000000
00010000
00001000
01000000
00000000
,
00100000
00000000
10000000
00000000
01000000
00000000
00100000
00010000
00000000
00000000
00100000
00000000
00001000
00000000
00010000
00000000
,
00001000
00000000
00000010
00000100
00001000
00000000
00000010
00000000
00000100
00000001
00000000
00000001
00000010
00000000
00001000
00000000
,
00010000
00000000
00001000
00010000
00001000
00000000
00100000
00000000
00010000
01000000
00100000
00000000
10010000
00000000
00000000
00000000
,
00220000
00000000
00000000
00000000
00330000
00000000
10000000
00000000
00100000
01000000
00010000
00000000
00100000
00001000
00010000
00000000
,
00001000
00000000
00000000
00001000
00000010
00000000
00000001
00000000
00000010
00000000
00000100
00000000
00001000
00000000
00000000
00000000
,
00020010
00000000
01030000
00100000
00010000
00000000
00102000
00000000
,
00003100
00000010
00001000
00000000
00010010
00000000
00011000
00000000
,
01001000
00011000
00010200
00000301
,
00020100
01030000
00022000
00000000
,
00000000
00000000
00000000
00000000
,
00000000
00033000
00000000
00000000
;
