
//----- song ID: yush -----//
#VERSION:0.83;
#TITLE:勇者;
#ARTIST:Covered by ぽめ;
#TITLETRANSLIT:Yuusha;
#ARTISTTRANSLIT:Covered by pome;
#BANNER:Yuusha.png;
#BACKGROUND:Yuusha-bg.png;
#CDTITLE:./CDTitles/DDR WORLD.png;
#MUSIC:Yuusha.ogg;
#SAMPLESTART:59.959;
#SAMPLELENGTH:15;
#BPMS:0=104;

//---------------dance-single - ----------------
#NOTEDATA:;
#STEPSTYPE:dance-single;
#DIFFICULTY:Beginner;
#METER:2;
#NOTES:
0000
0000
0000
0000
,
0000
0000
0000
0000
,
0000
0000
0000
0000
,
0000
0000
0000
0000
,
0000
0000
0000
0000
,
1000
0000
0000
0000
,
0001
0000
0000
0000
,
0010
0000
0000
0000
,
0010
0000
0000
0000
,
0000
0000
0001
0000
,
0001
0000
1000
0000
,
1000
0000
0001
0000
,
0001
0000
1000
0000
,
1000
0000
0001
0000
,
0000
0000
1000
0000
,
0000
0000
0001
0000
,
0000
0000
1000
0000
,
0000
0000
0001
0001
,
0001
0000
1000
1000
,
1000
0000
0010
0010
,
0010
0000
0001
0000
,
1000
0000
0010
0000
,
0000
0000
0010
0000
,
0000
0000
0020
0000
,
0000
0000
0030
0000
,
0000
0000
0000
0000
,
0000
0000
0001
0000
,
1000
0000
0001
0000
,
1000
0000
0010
0000
,
0000
0000
0100
0000
,
0000
0000
0001
0000
,
1000
0000
0001
0000
,
1000
0000
0010
0010
,
0010
0000
0100
0000
,
0000
0000
1000
0000
,
0001
0000
1000
0000
,
0001
0000
1000
0000
,
0010
0000
0100
0000
,
0010
0000
0100
0100
,
0100
0100
0000
0000
;

//---------------dance-single - ----------------
#NOTEDATA:;
#STEPSTYPE:dance-single;
#DIFFICULTY:Easy;
#METER:5;
#NOTES:
0000
0000
0000
0000
,
0000
0000
0000
0000
,
0000
0000
0000
0000
,
1000
0000
0001
0000
,
0001
0000
0010
0000
,
0001
0100
1000
0000
,
1000
0000
0100
0000
,
0001
0010
1000
0000
,
0010
0000
0100
0000
,
0000
0000
1000
0100
,
0001
0100
1000
0000
,
0001
0000
1000
0100
,
0001
0100
1000
0000
,
0001
0000
1000
0100
,
1000
0000
0001
0100
,
0001
0000
1000
0000
,
1000
1000
0001
0000
,
0001
0001
0001
0010
,
1000
0010
0001
0010
,
1000
0010
0001
0010
,
1000
0010
0001
0010
,
1000
0010
0002
0000
,
1003
0000
0000
2000
,
0000
3100
1000
1000
,
0001
0001
1001
0000
,
0000
0000
0110
1001
,
0000
0000
1000
0100
,
0001
0100
1000
0100
,
0001
0100
1000
1000
,
0001
0001
1000
0100
,
0010
0000
0001
0100
,
1000
0100
0001
0100
,
1000
0100
0001
0001
,
1000
1000
0001
0000
,
1000
0000
1000
0100
,
0010
0000
0001
0010
,
0100
0000
1000
0001
,
0100
0000
0001
1000
,
0100
0000
0010
0010
,
0010
0010
0000
0000
;

//---------------dance-single - ----------------
#NOTEDATA:;
#STEPSTYPE:dance-single;
#DIFFICULTY:Medium;
#METER:10;
#BPMS:0=208;
#NOTES:
0000
0000
0000
0000
,
0000
0000
0000
0000
,
0000
0000
0000
0000
,
0000
0000
0000
0000
,
0000
0000
0000
0000
,
0000
0000
0000
0000
,
0001
0000
0100
0000
1000
0000
0100
0001
,
0000
0000
0000
0000
0000
0000
0001
1000
,
0001
0000
1000
0000
0100
0000
0010
0001
,
0000
0000
1001
0000
,
1000
0100
0010
0001
,
0010
0001
0100
0000
,
0001
1000
0100
1000
,
0100
0010
0001
0000
,
0001
0100
1000
0100
,
0001
1000
0100
0010
,
0001
0000
0000
1000
0001
0010
0001
1000
,
0001
1000
0000
0001
0000
1000
0010
0000
,
0000
0000
0110
0000
,
0002
0000
0000
0000
1003
0000
0010
1000
,
0010
1000
0001
0100
,
0001
0000
0100
0010
1000
0000
0001
0100
,
0001
1000
0100
0000
,
2000
0000
0000
0000
3001
0000
0010
0001
,
0010
0001
1000
0100
,
1000
0000
0100
0010
0000
0001
1000
0100
,
1000
0001
0100
0000
,
0001
0100
0010
1000
,
0010
1000
0100
0000
,
1000
0100
0001
0100
,
1000
0010
0001
0000
,
0010
0100
0010
0100
0001
1000
0000
0001
,
0000
1000
0000
0100
0000
1000
0000
0000
,
0100
0000
0000
0000
0000
1000
0001
0010
,
0001
1000
0000
0001
0000
0100
0001
0000
,
1000
0100
0010
0001
,
0010
0001
0100
0000
,
0001
0100
1000
0100
,
0001
0010
1000
0000
,
0010
0100
0010
0100
1000
0001
0000
1000
,
0000
0001
0000
0100
0000
0001
0000
0000
,
0100
0000
0001
1000
,
0001
1000
0000
0001
0000
0100
0001
0000
,
2000
0000
0200
3300
,
1000
0000
0001
0100
0000
0000
0001
1000
,
0001
1000
0000
0001
0010
0000
0001
1000
,
0000
0001
1000
0000
0000
0000
0001
0010
,
0001
0010
0000
0001
1000
0000
0001
1000
,
0001
0010
0100
1000
,
0001
0000
1100
0000
,
0011
0000
0000
2000
0002
0000
3003
0000
,
1001
0000
0000
0000
,
1000
0000
0100
0000
0001
0000
0100
1000
,
0000
0001
0000
0000
1000
0000
0001
0000
,
0010
0001
1000
0100
,
1000
0001
0010
0001
,
0100
1000
0100
0001
,
1001
0001
1000
1000
,
0010
0010
0100
0100
,
1001
1000
0001
2000
,
0000
0000
3001
0000
1000
0100
1000
0010
,
0000
1000
0000
0000
0001
0000
0100
0000
,
0010
1000
0010
0001
,
0010
0000
1000
0000
0001
0000
1000
0001
,
0000
0001
0100
0000
0001
0000
0010
0000
,
1000
0010
0001
0100
,
1000
0100
0010
0001
,
0010
0000
0000
0000
1000
0000
0001
0010
,
0001
1000
0000
1000
0000
0100
1000
0000
,
0001
0100
1000
0100
,
0001
0100
1000
0100
,
0001
0010
1000
0010
,
0001
0010
0100
1000
,
0001
0010
0001
0000
1000
0000
0100
0000
,
1000
0001
0010
0001
,
1000
0100
0000
1000
0100
0000
1000
0100
,
0000
1000
0100
0000
1000
0000
0001
0000
,
0001
1000
0000
0100
0000
0001
0000
0100
,
0000
2002
3003
0000
;

//---------------dance-single - ----------------
#NOTEDATA:;
#STEPSTYPE:dance-single;
#DIFFICULTY:Hard;
#METER:13;
#BPMS:0=208;
#NOTES:
0000
0000
0000
0000
,
0000
0000
0000
0000
,
0000
0000
0000
0000
,
0000
0000
0000
0000
,
0000
0000
0000
0000
,
0000
0000
0000
0000
,
0001
1000
0010
1000
0100
1000
0000
0100
,
0000
1000
0000
0001
0000
0100
0000
0000
,
0010
0000
0000
0000
0000
1000
0100
0010
,
0001
1000
0000
0001
0000
0100
0010
0000
,
0000
0001
0010
0100
0000
0001
1000
0100
,
0000
1000
0000
0001
0000
0100
0000
0001
,
0000
0100
0010
0100
0000
0001
1000
0010
,
0000
0001
0000
0010
0000
1000
0010
0000
,
0000
1000
0010
1000
0100
1000
0000
0100
,
0000
0001
0000
0100
0000
1000
0000
0000
,
1001
0000
0000
1000
0001
0100
0010
1000
,
0010
0100
0000
0001
0000
0100
0001
0000
,
1000
0100
0010
0001
0010
0000
0000
0000
,
0001
0000
0100
0001
0000
1000
0010
0001
,
0010
1000
0001
0100
,
0001
0000
0100
0010
0000
1000
0001
0100
,
0001
1000
0100
0010
,
0001
0000
0100
0001
0000
1000
0010
0001
,
0010
1000
0001
0100
,
0001
0000
0100
0010
0000
1000
0001
0100
,
0001
1000
0100
1000
,
0000
1000
0100
0010
0000
0001
1000
0010
,
0000
1000
0000
0001
0000
0010
0000
0001
,
0000
0010
0100
0010
0000
0001
1000
0100
,
0000
0001
0000
0110
0000
1001
0000
0110
,
0000
0001
0100
0001
0010
0001
0000
0010
,
0000
0001
0000
1000
0000
0010
0000
0000
,
0100
0000
0000
0000
0000
0001
0010
0100
,
1000
0001
0000
1000
0000
0010
0100
0000
,
0000
0001
0100
0010
1000
0100
0001
0100
,
0000
1000
0000
0001
0000
0010
0000
1000
,
0000
0010
0100
0010
0000
0001
1000
0100
,
0000
0001
0000
0100
0000
1000
0100
0000
,
0000
1000
0100
1000
0010
1000
0000
0010
,
0000
1000
0000
0001
0000
0020
0000
0000
,
0130
0000
1000
0001
0000
1000
0001
1000
,
0010
0100
0000
0001
0000
0010
0100
0000
,
1000
0001
0000
1000
0001
0000
0010
0001
,
0100
0001
0000
0000
1000
0000
0010
1000
,
0100
1000
0000
0100
1000
0000
0100
1000
,
0000
1000
0001
0000
1000
0001
0010
1000
,
0100
1000
0000
0100
1000
0000
0100
0000
,
1100
0101
0011
1001
,
0001
1000
0010
1000
0001
0100
0001
1000
,
0010
1000
0001
0100
0001
1000
0010
0000
,
2000
0001
0001
3001
,
1000
0001
0010
0100
0010
0001
0010
0100
,
0000
1000
0000
0001
0010
0100
1000
0100
,
0000
0001
0000
0100
1000
0100
1000
0010
,
0000
0001
0010
0001
0010
0100
0001
0010
,
0000
0100
1000
0000
0001
0000
0100
0000
,
1100
1100
0011
0011
,
1001
1001
0110
0110
,
0001
0010
1000
0002
,
0000
0000
0103
0000
1000
0001
0010
0100
,
0000
1000
0000
0001
0100
0010
1000
0100
,
0000
0010
0000
0001
0010
0100
1000
0010
,
0000
0001
0010
0100
0001
1000
0001
0010
,
0000
0100
1000
0000
0010
0100
0010
0000
,
1100
1100
0101
0101
,
1001
1001
0110
0110
,
1001
0000
0000
0000
1000
0000
0010
0001
,
1000
0100
0000
0001
0000
0010
0100
0000
,
1000
0100
1000
0001
0010
0000
0001
0000
,
1000
0000
0100
1000
0000
0010
0100
0000
,
0001
0010
1000
0010
0001
0000
1000
0000
,
0100
0000
1000
0001
0000
1000
0100
0000
,
1000
0100
0010
0100
1000
0000
0001
0000
,
1000
0000
0100
1000
0000
0001
0100
0000
,
1000
0100
0001
0010
1000
0010
0001
0010
,
1000
0001
0100
1000
0001
0100
1000
0000
,
1100
1100
0000
0110
0000
1001
0000
0011
,
0000
2002
3003
0000
;

//---------------dance-single - ----------------
#NOTEDATA:;
#STEPSTYPE:dance-single;
#DIFFICULTY:Challenge;
#METER:15;
#BPMS:0=208;
#NOTES:
0000
0000
0000
0000
,
0000
0000
0000
0000
,
0000
0000
0000
0000
,
0000
0000
0000
0000
,
0000
0000
0000
0000
,
0000
0000
0000
0000
,
0000
1000
0001
0010
0100
1000
0000
1010
,
0000
0110
0000
0101
0000
0021
0000
0000
,
0130
0000
0000
0000
0000
1000
0100
1000
,
0001
0100
0000
0010
0000
1000
0001
0000
,
0000
0010
0100
1000
0000
0010
0100
0001
,
0000
0011
0000
0110
0000
1100
0000
1010
,
0000
0010
0100
0001
0000
0010
0100
1000
,
0000
0010
0000
0100
0000
0001
1000
0000
,
0000
0001
0010
0001
1000
0010
0000
0100
,
0000
0001
0000
0010
0000
0200
0000
0000
,
1300
0000
0000
0010
0100
0001
1000
0100
,
0010
0001
0000
1000
0000
0001
1000
0000
,
0001
0100
0001
0000
1000
0100
1000
0000
0001
0000
0000
0000
1000
0000
1000
0000
,
0010
0000
0100
0001
0000
1000
0010
0100
,
0020
0100
1030
0001
,
0010
0000
0100
1000
0000
0001
0010
0100
,
0020
0100
0031
1000
,
0010
0000
0100
0001
0000
0010
0100
1000
,
0020
0100
1030
0100
,
0010
0000
0100
1000
0000
0010
0100
0001
,
0020
0100
0031
0100
,
0000
0001
0100
0001
0000
0020
0000
0130
,
0000
1000
0000
0010
0000
0200
0000
0301
,
0000
0010
0001
0010
0000
0001
1000
0001
,
0000
0100
0000
0001
0000
1000
0000
0100
,
0000
1000
0001
1000
0001
1000
0000
0010
,
0000
0100
0000
0010
0000
0200
0000
0000
,
0301
0000
0000
0000
0000
1000
0100
1000
,
0001
0100
0000
0010
0000
1000
0001
0000
,
0010
0000
0100
0010
0000
0001
0010
0001
,
0010
0110
1100
1010
,
0010
0000
0100
0010
0000
1000
0010
1000
,
0010
0110
0101
0011
,
0010
0000
0100
1000
0000
0010
0100
0001
,
0010
0110
0011
1010
,
0010
0000
0100
0001
0000
0010
0100
1000
,
0010
0110
1010
0011
,
0010
0001
0000
0100
1000
0000
0001
0020
,
0000
1030
0000
0000
0000
0000
0001
0100
,
0010
1000
0000
0100
0002
0000
0103
2000
,
0000
3010
0100
0000
0010
1000
0001
0010
,
0100
0000
1000
0000
0001
0100
0001
0000
0000
0000
1000
0000
0001
0000
0010
0000
,
0100
0000
0000
0000
1000
0100
1000
0000
0000
0000
0001
0000
1000
0000
0000
0000
,
0001
0100
0001
1000
0001
1000
0100
1000
0100
1000
0001
1000
,
0020
0000
0230
0000
,
0310
0000
0000
0000
,
2000
3200
0320
2030
3020
0230
2300
3020
,
0000
0130
0000
0001
0010
0100
0010
0001
,
0000
0100
0000
0001
1000
0010
0100
0001
,
0000
1000
0100
0010
0001
0100
0010
1000
,
0000
0100
0010
0000
0002
0000
1003
0000
,
1001
0000
0000
0000
1000
0100
1000
0100
1000
0000
0000
0000
0001
0100
0001
0100
,
0001
0000
0000
0000
1000
0010
1000
0010
1000
0000
0000
0000
0000
0000
0000
0000
,
1001
0000
0110
0000
1000
0001
0100
0020
,
0000
1030
0001
0000
0010
1000
0001
0100
,
0000
1001
0000
1000
0010
0001
1000
0100
,
0000
1001
0000
0001
0010
1000
0010
0001
,
0000
0100
1000
0100
0001
0100
1000
0100
,
0000
0001
1000
0000
0002
0000
1003
0000
,
1002
0100
1000
0010
,
2003
0010
0100
0010
,
3001
0000
0000
0000
1000
0000
0001
0010
,
0100
0010
0000
0001
0000
0010
0100
0000
,
1000
0000
0100
1000
0001
0000
0100
0001
,
1000
0000
0000
0000
0100
0000
1000
0000
0001
0100
0001
0000
1000
0100
1000
0000
,
0001
0000
0100
0001
1000
0000
0100
1000
,
0001
0000
0000
0000
0100
0000
0001
0000
1000
0100
1000
0000
0001
0100
0001
0000
,
1000
0000
0010
1000
0001
0000
0010
0001
,
1000
0000
0000
0000
0010
1000
0010
0000
1000
0001
1000
0000
0001
0010
0001
0000
,
0010
0000
0100
1000
0010
0000
0100
0001
,
0010
0000
0000
0000
0100
0010
0100
0000
1000
0100
1000
0000
0001
0100
0001
0000
,
0000
0000
1000
0000
0000
0000
0001
0010
0001
0000
0010
0000
0000
0000
0100
0000
,
0000
2002
3003
0000
;

//---------------dance-double - ----------------
#NOTEDATA:;
#STEPSTYPE:dance-double;
#DIFFICULTY:Easy;
#METER:4;
#NOTES:
00000000
00000000
00000000
00000000
,
00000000
00000000
00000000
00000000
,
00000000
00000000
00000000
00000000
,
00001000
00000000
00010000
00000000
,
00001000
00000000
00000010
00000000
,
00000001
00000100
00001000
00000000
,
00010000
00000000
00100000
00000000
,
10000000
01000000
00010000
00000000
,
00001000
00000000
00000010
00000000
,
00000000
00000000
00000001
00000100
,
00001000
00000100
00000010
00000000
,
00000100
00000000
00001000
00010000
,
00100000
10000000
10000000
00000000
,
00010000
00000000
10000000
01000000
,
00100000
00000000
00001000
00010000
,
00001000
00000000
00010000
00000000
,
00000010
00000100
00000001
00000000
,
00000001
00000001
00000001
00000100
,
00000010
00000000
00010000
00001000
,
00010000
00000000
00001000
00000000
,
00100000
01000000
10000000
00000000
,
10000000
10000000
00020000
00000000
,
01030000
00000000
00000000
00002000
,
00000000
00013000
00001000
00001000
,
00010000
00010000
00011000
00000000
,
00000000
00000000
00000110
00000101
,
00000000
00000000
00000001
00000100
,
00001000
00010000
00100000
10000000
,
01000000
00000000
00010000
00010000
,
00001000
00001000
00010000
01000000
,
10000000
00000000
10000000
01000000
,
00010000
00001000
00000010
00000001
,
00000100
00000000
00001000
00001000
,
00010000
00010000
00100000
01000000
,
00010000
00000000
00100000
01000000
,
00010000
00000000
00001000
00000010
,
00000100
00000000
00001000
00000100
,
00010000
00000000
00001000
00100000
,
00010000
00000000
10000000
01000000
,
00010000
00001000
00000000
00000000
;

//---------------dance-double - ----------------
#NOTEDATA:;
#STEPSTYPE:dance-double;
#DIFFICULTY:Medium;
#METER:10;
#BPMS:0=208;
#NOTES:
00000000
00000000
00000000
00000000
,
00000000
00000000
00000000
00000000
,
00000000
00000000
00000000
00000000
,
00000000
00000000
00000000
00000000
,
00000000
00000000
00000000
00000000
,
00000000
00000000
00000000
00000000
,
00010000
00000000
00001000
00000000
00100000
00000000
00010000
10000000
,
00000000
00000000
01000000
00010000
,
00001000
00000000
00000010
00000000
00000001
00000000
00000100
00000001
,
00000000
00000000
00001001
00000000
,
00001000
00000100
00000010
00000000
,
00000001
00000100
00001000
00000000
,
00010000
01000000
10000000
00000000
,
01000000
00100000
00010000
00000000
,
00100000
00001000
00010000
00000000
,
00001000
00000010
00000100
00000000
,
00000100
00000000
00010000
00000000
,
00001000
00000000
00011000
00000000
,
00000000
00000000
00011000
00000000
,
00020000
00000000
00031000
00000010
,
00000010
00000100
00001000
00000000
,
00000001
00000100
00001000
00000000
,
00010000
00100000
10000000
00000000
,
20000000
00000000
31000000
00010000
,
00001000
00000010
00000001
00000000
,
00001000
00000100
00000010
00000001
,
00000100
00001000
00010000
00000000
,
00100000
01000000
00100000
10000000
,
00100000
10000000
01000000
00000000
,
00010000
00001000
00000010
00000001
,
00001000
00000010
00000100
00000000
,
00001000
00010000
00001000
00010000
00001000
00010000
00000000
00000000
,
00100000
10000000
01000000
00010000
,
00001000
00000000
00000000
00000000
00000000
00010000
00001000
00010000
,
00001000
00010000
00000000
00000000
00001000
00000000
00000000
00000000
,
00000010
00000001
00000100
00000000
,
00001000
00010000
00100000
00000000
,
10000000
01000000
00010000
01000000
,
10000000
00100000
00010000
00000000
,
00100000
01000000
00100000
01000000
00010000
00000000
01000000
00000000
,
00001000
00010000
00001000
00000000
,
00000010
00000000
00000001
00001000
,
00000001
00001000
00000000
00000001
00000000
00000100
00000001
00000000
,
00000002
00000000
00000200
00000003
,
00001300
00000000
00010000
00001000
00000000
00000000
00010000
00000000
,
00001000
00000000
00020000
00000000
,
00130000
00000000
00000000
00000000
00000000
00000000
10000000
01000000
,
10000000
01000000
00010000
00001000
,
00000010
00000001
00001000
00000010
,
00000100
00000000
00001000
00000000
,
00010000
00000000
00000000
00200000
20000000
00000000
30300000
00000000
,
10000000
01000000
00010000
00001000
,
00000000
00000000
00000000
00000000
,
00010000
00001000
00010000
00100000
,
10000000
01000000
10000000
01000000
,
00010000
00001000
00000010
00000001
,
00000100
00001000
00000100
00000000
,
00000001
00000000
00000010
00000000
,
00001000
00000000
00010000
00000000
,
01000000
10000000
10000000
00020000
,
00000000
00000000
10030000
00000000
10000000
00000000
10000000
00100000
,
00000000
10000000
00000000
00000000
01000000
00000000
00010000
00000000
,
00001000
00000010
00000001
00000100
,
00001000
00000000
00010000
00000000
00001000
00000000
00010000
00001000
,
00000000
00010000
00001000
00000000
00010000
00000000
00001000
00000000
,
00010000
01000000
10000000
01000000
,
10000000
01000000
00010000
00001000
,
00000010
00000000
00000110
00000000
,
00001001
00000000
00000000
00001000
00000000
00000001
00001000
00000000
,
00000001
00000000
00000100
00000000
00001000
00010000
00001000
00000000
,
00010000
00100000
10000000
00000000
,
01000000
00010000
00001000
00000010
,
00000001
00000010
00000100
00000000
,
00010000
00001000
00010000
00100000
,
00010000
00001000
00010000
00000000
,
00001000
00010000
00000000
00001000
00010000
00000000
00001000
00010000
,
00000000
00001000
00010000
00000000
00001000
00000000
00000100
00000000
,
00000001
00000010
00000000
00000001
00000000
00000010
00000000
00001000
,
00000000
00000220
00000330
00000000
;

//---------------dance-double - ----------------
#NOTEDATA:;
#STEPSTYPE:dance-double;
#DIFFICULTY:Hard;
#METER:12;
#BPMS:0=208;
#NOTES:
00000000
00000000
00000000
00000000
,
00000000
00000000
00000000
00000000
,
00000000
00000000
00000000
00000000
,
00000000
00000000
00000000
00000000
,
00000000
00000000
00000000
00000000
,
00000000
00000000
00000000
00000000
,
00001000
00010000
00000100
00001000
00000010
00001000
00000000
00000010
,
00000000
00001000
00000000
00000001
00000000
00000010
00000000
00000000
,
00000100
00000000
00000000
00000000
00000000
00000010
00000100
00000010
,
00000001
00001000
00000000
00000001
00000000
00000100
00001000
00000000
,
00000000
00010000
00100000
01000000
00000000
00010000
10000000
01000000
,
00000000
10000000
00000000
01000000
00000000
00010000
00000000
00001000
,
00000000
00000010
00000100
00001000
00000000
00000001
00001000
00000010
,
00000000
00000001
00000000
00000010
00000000
00000100
00001000
00000000
,
00000000
00010000
00100000
10000000
01000000
10000000
00000000
01000000
,
00000000
00100000
00000000
00001000
00000000
00010000
00000000
00000000
,
00011000
00000000
00000000
00010000
00001000
00000100
00000010
00001000
,
00000010
00000100
00000000
00000001
00000000
00000100
00001000
00000000
,
00010000
00100000
01000000
00010000
01000000
00000000
00000000
00000000
,
00010000
00000000
01000000
00010000
00000000
10000000
00100000
00010000
,
00001000
00010000
00001000
00000100
,
00000001
00000000
00000100
00000010
00000000
00001000
00000001
00000100
,
00001000
00010000
00100000
01000000
,
00010000
00000000
00100000
00010000
00000000
10000000
00100000
00010000
,
00001000
00010000
00001000
00000100
,
00000001
00000000
00000100
00000010
00000000
00001000
00000001
00000100
,
00001000
00010000
00100000
10000000
,
00000000
10000000
01000000
00100000
00000000
00010000
10000000
00100000
,
00000000
10000000
00000000
01000000
00000000
00010000
00000000
00001000
,
00000000
00000010
00000100
00000010
00000000
00000001
00001000
00000100
,
00000000
00010000
00000000
00001000
00000000
00011000
00000000
00001000
,
00000000
00010000
01000000
00010000
00001000
00010000
00000000
00001000
,
00000000
00000010
00000000
00000001
00000000
00000010
00000000
00000000
,
00000100
00000000
00000000
00000000
00000000
00001000
00000010
00000100
,
00001000
00010000
00000000
00100000
00000000
01000000
00100000
00000000
,
00000000
10000000
01000000
10000000
00100000
01000000
00010000
01000000
,
00000000
00001000
00000000
00010000
00000000
00000010
00000000
00001000
,
00000000
00000010
00000100
00001000
00000000
00000100
00000001
00000100
,
00000000
00000001
00000000
00000100
00000000
00001000
00010000
00000000
,
00000000
00001000
00010000
00100000
01000000
10000000
00000000
01000000
,
00000000
00010000
00000000
10000000
00000000
02000000
00000000
00000000
,
03010000
00000000
00000000
00000000
00001000
00000000
00010000
00001000
,
00000010
00000100
00000000
00001000
00000000
00000010
00000100
00000000
,
00001000
00010000
00000000
00010000
00100000
00000000
00100000
01000000
,
10000000
01000000
00000000
00000000
00000000
00000000
00010000
01000000
,
00001000
00010000
00000000
00000100
00001000
00000000
00000100
00000010
,
00000000
00000001
00000100
00000000
00000000
00000000
00000100
00001000
,
00010000
00100000
00000000
01000000
10000000
00000000
01000000
00000000
,
00010000
00100000
00001000
00011000
,
00010000
00001000
00000010
00000100
00000001
00000100
00001000
00000001
,
00000100
00000010
00001000
00000100
00010000
00001000
00010000
00000000
,
00002000
00010000
00010000
00013000
,
00001000
00010000
00100000
01000000
10000000
01000000
00100000
01000000
,
00000000
00010000
00000000
10000000
01000000
00010000
00001000
00000010
,
00000000
00000001
00000000
00001000
00000100
00000001
00000000
00000100
,
00000000
00001000
00000010
00000001
00000010
00000100
00000001
00000100
,
00000000
00001000
00010000
00000000
00100000
00000000
01000000
00000000
,
11000000
01100000
10010000
00110000
,
00011000
00000110
00001001
00001001
,
00000001
00000100
00001000
00020000
,
00000000
00000000
00031000
00000000
00010000
00001000
00000010
00000100
,
00000000
00001000
00000000
00000100
00000010
00000001
00000100
00001000
,
00000000
00010000
00000000
00100000
10000000
01000000
00000000
00100000
,
00000000
00001000
00010000
00001000
00000100
00001000
00010000
00001000
,
00000000
00010000
01000000
00000000
00010000
00000000
00001000
00000000
,
00000010
00000100
00000101
00000110
,
00001001
00001010
00011000
01100000
,
10010000
10010000
10000000
01000000
,
00010000
00001000
00000000
00000010
00000000
00000001
00000100
00000000
,
00000001
00000100
00000001
00001000
00000010
00000000
00001000
00000000
,
00000001
00000000
00000100
00001000
00000000
00010000
00001000
00000000
,
00010000
00100000
10000000
00100000
10000000
00000000
10000000
00000000
,
01000000
00000000
00010000
00001000
00000000
00000010
00000001
00000000
,
00001000
00000100
00000010
00000100
00001000
00000000
00000001
00000000
,
00000100
00000000
00001000
00010000
00000000
00100000
10000000
00000000
,
01000000
00100000
00010000
00100000
00001000
00010000
00000100
00001000
,
00000010
00000001
00000010
00001000
00000100
00010000
00001000
00000000
,
00011000
00110000
00000000
01100000
00000000
10010000
00000000
00110000
,
00000000
00022000
00033000
00000000
;

//---------------dance-double - ----------------
#NOTEDATA:;
#STEPSTYPE:dance-double;
#DIFFICULTY:Challenge;
#METER:15;
#BPMS:0=208;
#NOTES:
00000000
00000000
00000000
00000000
,
00000000
00000000
00000000
00000000
,
00000000
00000000
00000000
00000000
,
00000000
00000000
00000000
00000000
,
00000000
00000000
00000000
00000000
,
00000000
00000000
00000000
00000000
,
00000000
00010000
00001000
01000000
00100000
10000000
00000000
11000000
,
00000000
01010000
00000000
00011000
00000000
00001200
00000000
00000000
,
00000301
00000000
00000000
00000000
00000000
00001000
00000010
00000100
,
00000010
00000100
00000000
00001000
00000000
00010000
00001000
00000000
,
00000000
00001000
01000000
00010000
00000000
00100000
01000000
10000000
,
00000000
10100000
00000000
01100000
00000000
01001000
00000000
00011000
,
00000000
00010000
00000100
00001000
00000000
00000010
00000100
00000001
,
00000000
00000010
00000000
00001000
00000000
00010000
00001000
00000000
,
00000000
00010000
00001000
00100000
01000000
10000000
00000000
00100000
,
00000000
00010000
00000000
00001000
00000000
00000020
00000000
00000000
,
00000130
00000000
00000000
00000010
00000001
00001000
00000001
00000100
,
00000010
00001000
00000000
00000100
00000000
00010000
00001000
00000000
,
00100000
00010000
00100000
00000000
01000000
00100000
01000000
00000000
10000000
00000000
00000000
00000000
00010000
00000000
01000000
00000000
,
00100000
00000000
01000000
00010000
00000000
10000000
01000000
00010000
,
00002000
00000100
00000001
00000100
,
00013000
00000000
00000100
00001000
00000000
00000001
00000100
00001000
,
00020000
01000000
10000000
01000000
,
00031000
00000000
00100000
00010000
00000000
10000000
00100000
00010000
,
00002000
00000010
00000001
00000010
,
00013000
00000000
00000010
00001000
00000000
00000001
00000010
00001000
,
00020000
00100000
10000000
00130000
,
00000000
00001000
00010000
00000100
00000000
00002000
00000000
00003001
,
00000000
00000200
00000000
00000310
00000000
00002000
00000000
00003001
,
00000000
00000001
00000010
00000001
00000000
00001000
00000001
00001000
,
00000000
00000100
00000000
00010000
00000000
00001000
00000000
01000000
,
00000000
00010000
10000000
00010000
10000000
00010000
00000000
00100000
,
00000000
00001000
00000000
00010000
00000000
00000200
00000000
00000000
,
00001300
00000000
00000000
00000000
00000000
00000001
00000100
00000001
,
00001000
00000100
00000000
00010000
00000000
00001000
01000000
00000000
,
00100000
00000000
01000000
00010000
00000000
00100000
00001000
00010000
,
00100000
00110000
00011000
00001010
,
00000010
00000000
00000100
00001000
00000000
00000010
00010000
00001000
,
00000010
00001010
00011000
00110000
,
00100000
00000000
01000000
00010000
00000000
00100000
01000000
10000000
,
00100000
00110000
00011000
00001010
,
00000010
00000000
00000100
00001000
00000000
00000010
00000100
00000001
,
00000010
00001010
00011000
00110000
,
00010000
00001000
00000000
00001000
00010000
00000000
00010000
02000000
,
00000000
13000000
00000000
00000000
00000000
00000000
10000000
00100000
,
00010000
00001000
00000000
00001000
00010000
00000000
00010000
02000000
,
00000000
13000000
00100000
00000000
00010000
00001000
00000100
00000010
,
00001000
00000000
00000001
00000000
00001000
00000100
00001000
00000000
00000000
00000000
00000100
00000000
00010000
00000000
00001000
00000000
,
00100000
00000000
00010000
00000000
10000000
01000000
10000000
00000000
00000000
00000000
00010000
00000000
10000000
00000000
00000000
00000000
,
00010000
01000000
00010000
01000000
00001000
01000000
00001000
00010000
00001000
00010000
00000100
00010000
,
00000200
00000000
00002300
00000000
,
00003001
00000000
00000000
00000000
,
00002000
00003200
00020300
00032000
00003020
00002030
00023000
00030020
,
00000000
00000130
00000000
00000001
00000010
00001000
00010000
01000000
,
00000000
10000000
00000000
00010000
00100000
00001000
00010000
00000100
,
00000000
00001000
00000010
00010000
00001000
00000100
00001000
00010000
,
00000000
00000100
00000010
00000000
00002000
00000000
00013000
00000000
,
01010000
11000000
10100000
00110000
,
00011000
00001010
00000011
00000101
,
00001100
00011000
01010000
11000000
,
00000000
00000000
10010000
00000000
10000000
01000000
00100000
00001000
,
00000000
00011000
00000000
00010000
00000100
00001000
00000010
00000100
,
00000000
00001001
00000000
00000001
00000010
00001000
00010000
00001000
,
00000000
01000000
00100000
00010000
00001000
00010000
01000000
10000000
,
00000000
00100000
01000000
00000000
00001000
00000000
00010000
00000000
,
00002000
00000100
00000001
00000100
,
00023000
01000000
10000000
01000000
,
00031000
00000000
00000000
00000000
00010000
00000000
00000010
00001000
,
00000001
00000100
00000000
00000010
00000000
00010000
00001000
00000000
,
00100000
00000000
00010000
10000000
01000000
00000000
10000000
00010000
,
01000000
00000000
00000000
00000000
00010000
00000000
01000000
00000000
00010000
01000000
00010000
00000000
10000000
01000000
10000000
00000000
,
01000000
00000000
10000000
00010000
01000000
00000000
00001000
00010000
,
00000100
00000000
00000000
00000000
00001000
00000000
00000001
00000000
00000100
00000001
00000100
00000000
00000010
00001000
00000010
00000000
,
00001000
00000000
00000010
00010000
00001000
00000000
00100000
00010000
,
10000000
00000000
00000000
00000000
00100000
10000000
00100000
00000000
10000000
00010000
10000000
00000000
00010000
01000000
00010000
00000000
,
01000000
00000000
00100000
00010000
00001000
00000000
00010000
00001000
,
00000010
00000000
00000000
00000000
00000100
00000010
00000100
00000000
00001000
00000100
00001000
00000000
00000001
00001000
00000001
00000000
,
00000000
00000000
00001000
00000000
00000000
00000000
00000010
00010000
00000010
00000000
00010000
00000000
00000000
00000000
00001000
00000000
,
00000000
00022000
00033000
00000000
;
