
//----- song ID: wiza -----//
#TITLE:Wizards!;
#ARTIST:㚁Records;
#ARTISTTRANSLIT:Akatsuki Records;
#BANNER:Wizards!.png;
#BACKGROUND:Wizards!-bg.png;
#CDTITLE:./CDTitles/DDR WORLD.png;
#MUSIC:Wizards!.ogg;
#SAMPLESTART:40.319;
#SAMPLELENGTH:15;
#BPMS:0=154;
#BGSTAGE:14;
#NOTES:
     dance-single:
     :
     Beginner:
     3:
     :
0000
0000
0000
0000
,
0000
0000
0000
0000
,
0000
0000
0000
0000
,
0000
0000
0000
0000
,
0000
0000
0000
0000
,
1001
0000
0000
0000
,
0000
0000
0000
0000
,
1001
0000
0000
0000
,
0000
0000
0000
0000
,
1000
0000
1000
0000
,
0001
0000
0001
0000
,
0010
0000
0010
0000
,
0100
0000
0100
0000
,
1000
0000
0001
0000
,
1000
0000
0001
0000
,
0010
0000
0100
0000
,
0010
0000
0100
0000
,
2000
0000
3000
0000
,
0002
0000
0003
0000
,
0200
0000
0300
0000
,
0020
0000
0030
0000
,
1000
1000
1000
0000
,
0001
0001
0001
0000
,
0100
0100
0100
0000
,
0010
0010
0010
0000
,
1001
0000
0000
0000
,
1000
0000
0100
0000
,
1000
1000
1000
0000
,
0001
0000
0100
0000
,
0001
0001
0001
0000
,
0010
0000
0100
0000
,
0010
0000
0100
0000
,
1000
0000
1000
0000
,
0001
0000
0001
0000
,
1001
0000
0000
0000
,
0110
0000
0000
0000
,
1001
0000
0000
0000
,
0110
0000
0000
0000
,
1000
0000
1000
0000
,
0001
0000
0001
0000
,
0010
0000
0010
0000
,
0100
0000
0100
0000
,
2000
0000
0000
0000
,
0000
0000
3000
0000
,
0002
0000
0000
0000
,
0000
0000
0003
0000
,
0020
0000
0000
0000
,
0000
0000
0030
0000
,
0200
0000
0000
0000
,
0000
0000
0300
0000
,
1000
0000
1000
0000
,
0010
0010
0010
0000
,
0100
0000
0100
0000
,
0001
0001
0001
0000
,
0010
0000
0100
0000
,
0010
0000
0100
0000
,
1000
0000
0001
0000
,
1001
0000
0000
0000
,
0001
0000
0001
0000
,
0010
0010
0010
0000
,
0100
0000
0100
0000
,
1000
1000
1000
0000
,
0010
0000
0100
0000
,
0010
0000
0100
0000
,
0001
0000
1000
0000
,
0001
0001
0001
0000
,
1001
0000
0000
0000
,
0000
0000
0000
0000
;
#NOTES:
     dance-single:
     :
     Easy:
     7:
     :
0000
0000
0000
0000
,
0000
0000
0000
0000
,
0000
0000
0000
0000
,
0000
0000
0000
0000
,
0000
0000
0000
0000
,
0001
1000
0001
0000
,
1000
0001
1000
0000
,
0001
0010
0001
0000
,
1000
0100
1000
0000
,
0001
0001
0010
0100
,
1000
1000
0020
0030
,
0100
0100
0001
1000
,
0010
0010
2000
3000
,
0010
0010
1000
0001
,
0010
0010
0002
0003
,
1000
1000
0010
0100
,
0001
0001
0200
0300
,
0001
0010
0100
0000
,
1000
0010
0100
0000
,
0010
0010
0010
0000
,
0100
0100
0100
0000
,
0001
0010
0100
1000
,
0001
0010
0100
0000
,
1000
0010
0100
0001
,
1000
0010
0100
0000
,
0001
1000
0010
0100
,
0110
0000
1001
0000
,
0001
0010
0100
0000
,
0110
0000
1001
0000
,
1000
0010
0100
0000
,
0001
0001
1000
1000
,
0010
0100
0001
0000
,
1000
1000
0001
0001
,
0010
0100
1000
0000
,
0000
0110
0000
1001
,
0000
0110
0000
1001
,
0000
0110
0000
1001
,
0000
0010
0200
0000
0000
0010
0310
0000
,
1000
0100
0010
0001
,
1000
0100
0010
0001
,
1000
0010
0100
0001
,
1000
0100
0010
0100
,
1001
0000
0110
0000
,
0001
0010
0001
0100
,
0110
0000
1001
0000
,
1000
0010
1000
0100
,
0110
0000
1001
0000
,
0001
0100
1000
0100
,
0110
0000
1001
0000
,
1000
0100
0001
0100
,
1000
1000
0010
0100
,
0010
1000
0001
0000
,
0010
0100
1000
0001
,
0100
0010
0200
0000
,
0310
1000
0001
0010
,
0100
1000
0001
0000
,
1000
0001
0100
0010
,
1000
0010
0100
0000
,
0001
0001
0100
0010
,
0100
0001
1000
0000
,
0100
0010
0001
1000
,
0010
0100
0020
0000
,
0130
0001
1000
0100
,
0010
0001
1000
0000
,
0001
0000
1000
0000
0010
0000
0100
0010
,
0000
0001
0000
0100
0000
0010
0000
0000
,
1001
0000
0000
0000
,
0000
0000
0000
0000
;
#NOTES:
     dance-single:
     :
     Medium:
     10:
     :
0000
0000
0000
0000
,
0000
0000
0000
0000
,
0000
0000
0000
0000
,
0000
0000
0000
0000
,
0000
0000
0000
0000
,
1000
0000
0000
0001
0000
0000
2002
0000
0000
0000
0000
0000
0000
0000
0000
0000
,
3003
0000
0000
0000
,
0001
0000
0000
1000
0000
0000
2002
0000
0000
0000
0000
0000
0000
0000
0000
0000
,
3003
0000
0000
0000
,
0001
0000
0100
0000
0001
0010
0100
0010
,
0001
0000
1000
0000
0010
0100
0110
0000
,
1000
0000
0010
0000
1000
0100
0010
0100
,
1000
0000
0001
0000
0100
0010
0110
0000
,
1000
0000
0010
0000
1000
0100
0001
0100
,
1000
0000
0010
0000
0100
0001
0101
0000
,
0001
0000
0100
0000
0001
0010
1000
0010
,
0001
0000
0100
0000
0010
1000
1010
0000
,
0001
0000
0100
0000
0001
0000
0100
0001
,
1000
0010
0100
0001
,
0020
0000
0130
1000
0000
0001
0100
0000
,
0120
0000
0000
0130
0000
0001
1000
0000
,
0001
0010
0001
0000
1000
0010
1000
0000
,
0001
0100
0001
0000
1000
0100
1000
0000
,
0001
0010
1000
0010
0001
1000
0001
0000
,
1000
0010
0001
0010
1000
0001
1000
0000
,
0001
0000
1010
0000
0010
0100
0010
0010
,
1000
0000
1001
0000
0001
0010
0100
0010
,
0002
0000
2003
0000
3001
0100
0100
0000
,
0001
0000
1001
0000
1000
0100
0010
0100
,
2000
0000
3002
0000
1003
0010
0010
0000
,
1001
0000
0010
0001
0000
1100
0000
0102
,
0000
0000
0000
1003
0000
0001
0100
0010
,
1000
0000
0001
1000
0000
0001
0100
0010
,
0000
2000
0000
3002
0000
0203
0000
0000
,
0310
1100
0010
0101
,
0001
1010
1000
0011
,
0100
0110
0010
1001
,
1000
0001
0002
0000
0000
1000
1003
0000
,
1000
0010
0100
0000
0001
0010
0100
0000
,
1000
0100
0001
0000
1000
0010
0001
0000
,
1000
0100
0010
0000
0001
0100
0010
0000
,
1000
0010
0100
0001
1001
0000
0110
0000
,
1000
0000
0000
0001
0000
0000
1000
0000
0001
0000
0000
0000
0000
0000
0100
0000
,
0010
0000
0000
1000
0000
0000
0100
0000
0010
0000
0000
0000
1001
0000
0000
0000
,
0001
0000
0000
1000
0000
0000
0001
0000
1000
0000
0000
0000
0000
0000
0010
0000
,
0100
0000
0000
0001
0000
0000
0010
0000
0100
0000
0000
0000
1001
0000
0000
0000
,
0001
0000
0000
1000
0000
0000
0100
0000
0100
0000
0000
0000
0000
0000
0010
0000
,
0100
0000
0000
1000
0000
0000
0001
0000
0010
0000
0000
0000
0110
0000
0000
0000
,
1000
0000
0000
0001
0000
0000
0010
0000
0010
0000
0000
0000
0000
0000
0100
0000
,
0010
0000
0000
0001
0000
0000
1000
0000
0100
0000
0000
0000
0110
0000
0000
0000
,
1100
0000
1000
0010
0001
0010
1000
0100
,
0010
0000
1100
0000
0001
1000
1000
0000
,
0001
0010
1000
0010
0001
0100
0010
0000
,
1010
0000
1100
0000
1000
0100
0100
0000
,
0110
0000
0100
2000
0000
3020
0000
0230
,
0000
0000
0000
0301
0000
1000
0100
0010
,
0001
0000
1000
0001
0000
0100
0010
0200
,
0000
0320
0000
0130
0001
1000
0001
1000
,
0001
0000
0110
0000
1000
0100
0001
0100
,
1000
0010
0100
0000
0010
0100
0010
0000
,
1000
0010
0001
0010
1000
0100
0010
0000
,
0100
0010
0100
0000
1000
0001
1001
0000
,
0001
0100
0001
0100
0010
1000
0010
1000
,
0001
0010
0100
1000
0001
0100
0010
1000
,
0100
0000
0010
0100
0000
1000
0001
2000
,
0000
3002
0000
0023
0000
0130
0000
0000
,
0010
0000
0000
0000
,
0000
0000
0000
0000
;
#NOTES:
     dance-single:
     :
     Hard:
     15:
     :
0000
0000
0000
0000
,
0000
0000
0000
0000
,
0000
0000
0000
0000
,
0000
0000
0000
0000
,
0000
0000
0000
0000
,
1100
0000
0000
0101
0000
0000
2002
0000
0000
0000
0000
0000
0000
0000
0000
0000
,
3003
0000
0000
0000
,
0101
0000
0000
1100
0000
0000
2002
0000
0000
0000
0000
0000
0000
0000
0000
0000
,
3003
0000
0000
0000
,
0001
0000
0000
0000
0100
0000
0000
1010
0000
0010
1000
0000
0100
0000
0010
0000
,
0001
0000
0000
0000
0010
0000
0000
1100
0000
0100
1000
0000
0110
0000
0000
0000
,
1000
0000
0000
0000
0100
0000
0000
0011
0000
0010
0001
0000
0100
0000
0010
0000
,
1000
0000
0010
0000
0101
0000
0000
1100
0000
0001
1000
0001
1000
0000
0000
0000
,
0010
0000
0000
0000
1000
0000
0000
1100
0000
1000
0100
0000
0001
0000
0100
0000
,
1000
0000
0000
0000
0010
0000
0100
0010
1000
0000
0010
0000
0100
0000
0001
0000
,
0100
0000
0000
0000
0010
0000
0000
1001
0000
0001
1000
0000
0100
0000
0010
0000
,
0001
0010
0100
0000
0110
0000
0100
1000
0010
0100
0001
0010
0100
0000
0000
0000
,
1000
0000
0010
0000
1000
0010
0100
0000
0001
0000
0100
0000
0010
0000
1000
0000
,
0001
0000
0010
0000
0001
0010
0100
0000
1000
0000
0001
0000
0100
0000
0001
0000
,
1000
0000
0010
0000
1000
0100
0001
0000
0100
0000
1000
0000
0010
0000
0100
0000
,
0001
0000
1000
0000
0001
0100
1000
0000
0100
0000
0001
0000
0010
0000
0100
0000
,
1000
0010
0100
0000
0010
0100
0001
0000
0100
0001
1000
0000
0001
0000
1000
0000
,
0001
0010
0100
0000
0010
0100
1000
0000
0100
1000
0001
0000
0010
0000
0100
0000
,
1000
0100
0010
0001
1000
0100
0010
0001
1000
0100
0010
0100
1000
0001
0100
0010
,
0100
0001
0010
0100
1000
0001
0100
0010
1000
0001
0010
0100
1000
0000
0001
0000
,
0100
0000
0010
0000
1000
0100
0010
0000
0001
0100
0010
0000
0100
0010
0100
0000
,
1001
0000
0000
0000
1100
0000
0000
1000
0100
0000
0010
0000
0100
0000
1000
0000
,
1001
0000
0000
0000
0101
0000
0000
0001
0100
0000
0010
0000
0100
0000
0001
0000
,
1001
0000
0000
0000
1010
0000
0000
0010
0100
0000
0001
0000
1000
0000
0100
0000
,
0110
0000
0000
0000
1001
0000
0000
1000
0001
0100
0010
1000
0001
0010
0100
0000
,
1000
0000
0000
0000
0010
0000
0100
0020
0000
0000
2030
0000
0000
0000
3002
0000
,
0000
0000
0000
1003
0000
0001
0100
1000
,
0100
0000
0010
0100
0000
1000
0100
0101
,
0000
0011
0000
1010
0000
2200
0000
3300
,
1001
0000
0001
0100
0001
0000
1000
0000
0001
0000
1000
0100
1000
0000
0001
0000
,
1000
0000
0010
0100
0010
0000
1000
0000
0001
0000
0010
0100
0010
0000
0001
0000
,
1000
0000
0001
0100
1000
0000
0100
0000
0001
0000
1000
0100
0001
0000
0100
0000
,
1000
0000
1100
0000
0101
0000
0001
0000
0100
0000
0100
0010
0100
0000
0000
0000
,
0001
0000
0010
0100
1000
0000
0010
0000
1000
0000
0010
0100
1000
0000
0100
0000
,
0001
0000
0010
0100
0001
0000
0100
0000
1000
0000
0010
0100
0001
0000
1000
0000
,
0010
0000
0001
0010
1000
0000
0100
0000
0010
0000
1000
0010
0001
0000
1000
0000
,
0001
0000
1000
0001
1000
0000
0010
0000
1010
0000
0000
0000
0101
0000
0000
0000
,
0011
0000
0000
1001
0000
0000
0101
0000
1100
0000
0000
0000
0000
0000
0001
0000
,
2000
0000
0000
3010
0000
0000
0100
0000
0010
0000
0000
0000
0110
0000
0000
0000
,
1010
0000
0000
1001
0000
0000
1100
0000
0101
0000
0000
0000
0000
0000
1000
0000
,
0002
0000
0000
0013
0000
0000
0100
0000
0010
0000
0000
0000
0110
0000
0000
0000
,
0011
0000
0000
0110
0000
0000
1100
0000
0101
0000
0000
0000
0000
0000
0001
0000
,
2000
0000
0000
3001
0000
0000
0100
0000
0010
0000
0000
0000
0110
0000
0000
0000
,
0101
0000
0000
1010
0000
0000
0011
0000
1100
0000
0000
0000
0000
0000
0001
0000
,
2000
0000
0000
3001
0000
0000
0100
0000
0010
1000
0100
0000
0010
0001
0100
0000
,
0110
0000
0000
0000
1010
0000
0000
1000
0010
0000
0001
0000
0010
0000
1000
0000
,
0100
0000
0000
0000
0011
0000
0000
0001
0010
0000
1000
0000
0010
0000
0001
0000
,
0100
0000
0000
0000
1010
0000
0000
1000
0100
0000
0001
0000
0100
0000
1000
0000
,
0010
0000
0110
0000
1000
0001
0100
0010
,
1001
0000
0001
0020
0000
0230
0000
2300
,
0000
0000
0000
3001
0000
0001
0100
0010
,
1000
0000
0100
0010
0000
0001
0100
2000
,
0000
0000
3200
0000
0000
0000
0310
0000
1000
0010
1000
0010
0100
0001
0100
0001
,
0010
0000
0000
0000
0201
0000
0000
0301
0100
0000
1000
0000
0100
0000
0001
0000
,
0010
0000
0000
0000
1200
0000
0000
1300
0100
0000
0001
0000
0100
0000
1000
0000
,
0010
0000
0000
0000
0201
0000
0000
0301
0010
0000
1000
0000
0010
0000
0001
0000
,
0100
0000
0000
0000
0110
0000
0000
0100
0001
1000
0010
0100
0010
1000
0001
0000
,
1000
0100
1000
0000
0001
0100
0001
0000
1000
0010
1000
0000
0001
0010
0001
0000
,
1000
0100
0010
0000
0001
0100
0010
0000
0100
0001
1000
0000
0100
0000
0010
0000
,
0001
0000
0000
0000
0100
0000
0010
0000
0000
0000
0100
0001
1000
0001
0200
0000
,
0000
0302
0000
0023
0000
0130
0000
0000
,
1001
0000
0000
0000
,
0000
0000
0000
0000
;
#NOTES:
     dance-double:
     :
     Easy:
     7:
     :
00000000
00000000
00000000
00000000
,
00000000
00000000
00000000
00000000
,
00000000
00000000
00000000
00000000
,
00000000
00000000
00000000
00000000
,
00000000
00000000
00000000
00000000
,
00011000
00000000
00101000
00000000
,
00100000
00001000
00010000
00000000
,
00011000
00000000
00010010
00000000
,
00010000
00000010
00000100
00000000
,
00000001
00000001
00000100
00001000
,
00010000
00010000
00002000
00003000
,
00010000
00010000
01000000
10000000
,
00100000
00100000
02200000
03300000
,
10000000
10000000
00100000
00010000
,
00001000
00001000
00020000
00030000
,
00001000
00001000
00000010
00000001
,
00000100
00000100
00000220
00000330
,
00000001
00000010
00000100
00000000
,
00001000
00000100
00010000
00000000
,
00001000
00001000
00001000
00000000
,
00010000
00010000
00010000
00000000
,
00001000
00010000
01000000
10000000
,
00100000
01000000
00001000
00000000
,
00010000
00001000
00000100
00000001
,
00000010
00000100
00010000
00000000
,
00001000
00010000
00001000
00010000
,
00011000
00000000
10010000
00000000
,
10000000
00100000
01000000
00000000
,
10010000
00000000
00011000
00000000
,
00001000
00000100
00000010
00000000
,
00001000
00001000
00000001
00000001
,
00000010
00000100
00010000
00000000
,
00001000
00001000
00010000
00010000
,
01000000
10000000
00010000
00000000
,
00000000
01100000
00000000
10010000
,
00000000
00110000
00000000
00011000
,
00000000
00001100
00000000
00001001
,
00000000
00000001
00002000
00000000
00000000
00000001
00003001
00000000
,
00000001
00000100
00000010
00001000
,
00000001
00000010
00000100
00010000
,
00001000
00010000
01000000
10000000
,
00100000
10000000
01000000
00100000
,
10010000
00000000
01100000
00000000
,
10000000
01000000
00100000
00010000
,
00011000
00000000
00001001
00000000
,
00000001
00000100
00000010
00001000
,
00001001
00000000
00000110
00000000
,
00000001
00000010
00000100
00001000
,
00011000
00000000
10010000
00000000
,
10000000
00100000
01000000
00010000
,
10000000
10000000
01000000
00010000
,
00001000
00000100
00000001
00000000
,
00000001
00000001
00000100
00001000
,
00010000
01000000
20000000
00000000
,
30100000
10000000
00100000
01000000
,
00001000
00010000
00001000
00000000
,
00000010
00000001
00000010
00000100
,
00010000
00001000
00010000
00000000
,
00001000
00001000
00010000
01000000
,
00010000
00001000
00001000
00000000
,
00010000
00010000
00001000
00000100
,
00001000
00010000
00020000
00000000
,
00031000
00000100
00000001
00000100
,
00001000
00010000
00100000
00000000
,
10000000
00000000
01000000
00000000
00100000
00000000
00001000
00010000
,
00000000
00001000
00000000
00000100
00000000
00000010
00000000
00000000
,
00001001
00000000
00000000
00000000
,
00000000
00000000
00000000
00000000
;
#NOTES:
     dance-double:
     :
     Medium:
     11:
     :
00000000
00000000
00000000
00000000
,
00000000
00000000
00000000
00000000
,
00000000
00000000
00000000
00000000
,
00000000
00000000
00000000
00000000
,
00000000
00000000
00000000
00000000
,
10000000
00000000
00000000
00010000
00000000
00000000
20020000
00000000
00000000
00000000
00000000
00000000
00000000
00000000
00000000
00000000
,
30030000
00000000
00000000
00000000
,
00001000
00000000
00000000
00010000
00000000
00000000
00022000
00000000
00000000
00000000
00000000
00000000
00000000
00000000
00000000
00000000
,
00033000
00000000
00000000
00000000
,
00000001
00000000
00001000
00000000
00000001
00000100
00001000
00010000
,
00001000
00000000
00010000
00000000
01000000
00100000
01100000
00000000
,
10000000
00000000
00010000
00000000
10000000
00100000
00010000
00001000
,
00010000
00000000
00001000
00000000
00000100
00000010
00000110
00000000
,
00000010
00000000
00001000
00000000
00000100
00010000
00001000
00100000
,
00010000
00000000
10000000
00000000
00100000
10000000
10100000
00000000
,
10000000
00000000
00010000
00000000
00100000
00001000
00010000
00000100
,
00001000
00000000
00000001
00000000
00000100
00000001
00000101
00000000
,
00000001
00000000
00001000
00000000
00000100
00000000
00010000
00001000
,
00000100
00001000
00010000
01000000
,
00200000
00000000
00310000
00100000
00000000
00010000
01000000
00000000
,
02100000
00000000
00000000
03010000
00000000
00100000
00010000
00000000
,
10000000
01000000
00100000
00000000
00001000
00010000
00001000
00000000
,
00000100
00000010
00001000
00000000
00000001
00000100
00001000
00000000
,
00010000
00001000
00100000
00010000
10000000
00100000
00010000
00000000
,
00001000
00010000
00001000
00000100
00000001
00000010
00001000
00000000
,
00000010
00000000
00000011
00000000
00000001
00000100
00001000
00010000
,
00100000
00000000
01100000
00000000
10000000
01000000
00010000
00001000
,
00020000
00000000
00032000
00000000
00013000
00001000
00001000
00000000
,
00000100
00000000
00000110
00000000
00000001
00000100
00001000
00010000
,
00002000
00000000
00023000
00000000
00031000
00010000
00010000
00000000
,
00011000
00000000
00001000
00100000
00000000
01100000
00000000
20010000
,
00000000
00000000
00000000
30010000
00000000
10000000
00100000
00010000
,
00001000
00000000
00010000
00001000
00000000
00000010
00000001
00000100
,
00000000
00000002
00000000
00002003
00000000
00003020
00000000
00000000
,
00000130
00001010
00000100
00000101
,
00000010
00001100
00001000
00011000
,
00100000
00110000
10000000
10100000
,
10000000
00100000
00200000
00000000
00000000
01000000
01300000
00000000
,
00100000
10000000
01000000
00000000
00100000
00001000
01000000
00000000
,
00001000
00010000
00000010
00000000
00000100
00000001
00000010
00000000
,
00000001
00000100
00001000
00000000
00010000
00100000
10000000
00000000
,
00100000
01000000
00010000
10000000
10010000
00000000
01100000
00000000
,
10000000
00000000
00000000
01000000
00000000
00000000
00010000
00000000
00001000
00000000
00000000
00000000
00000000
00000000
00010000
00000000
,
00001000
00000000
00000000
00000100
00000000
00000000
00000001
00000000
00000010
00000000
00000000
00000000
00001001
00000000
00000000
00000000
,
00000001
00000000
00000000
00000100
00000000
00000000
00001000
00000000
00010000
00000000
00000000
00000000
00000000
00000000
00001000
00000000
,
00010000
00000000
00000000
01000000
00000000
00000000
10000000
00000000
00100000
00000000
00000000
00000000
10010000
00000000
00000000
00000000
,
10000000
00000000
00000000
01000000
00000000
00000000
00010000
00000000
00010000
00000000
00000000
00000000
00000000
00000000
00001000
00000000
,
00000100
00000000
00000000
00000001
00000000
00000000
00000010
00000000
00000100
00000000
00000000
00000000
00000110
00000000
00000000
00000000
,
00000001
00000000
00000000
00000100
00000000
00000000
00001000
00000000
00001000
00000000
00000000
00000000
00000000
00000000
00010000
00000000
,
01000000
00000000
00000000
10000000
00000000
00000000
00100000
00000000
01000000
00000000
00000000
00000000
01100000
00000000
00000000
00000000
,
10010000
00000000
10000000
00100000
00010000
00001000
00010000
00100000
,
00010000
00000000
00011000
00000000
00001000
00000100
00000001
00000000
,
00000001
00000010
00001000
00010000
00001000
00000100
00001000
00000000
,
00011000
00000000
00110000
00000000
10000000
00010000
00010000
00000000
,
01100000
00000000
00100000
02000000
00000000
03020000
00000000
00230000
,
00000000
00000000
00000000
00301000
00000000
00010000
00001000
00000100
,
00000001
00000000
00000010
00000100
00000000
00000010
00000001
00000200
,
00000000
00000320
00000000
00001030
00000001
00001000
00000001
00001000
,
00000001
00000000
00000110
00000000
00000001
00000100
00001000
00010000
,
00100000
10000000
01000000
00000000
10000000
00010000
10000000
00000000
,
10000000
00100000
00010000
00001000
00000100
00000001
00000010
00000000
,
00000010
00000100
00001000
00000000
00000010
00000100
00000101
00000000
,
00000001
00000100
00000010
00001000
00000001
00000100
00001000
00010000
,
00001000
00100000
00010000
01000000
00010000
01000000
10000000
00010000
,
00100000
00000000
01000000
00100000
00000000
10000000
00010000
20000000
,
00000000
30020000
00000000
00230000
00000000
00301000
00000000
00000000
,
00011000
00000000
00000000
00000000
,
00000000
00000000
00000000
00000000
;
#NOTES:
     dance-double:
     :
     Hard:
     15:
     :
00000000
00000000
00000000
00000000
,
00000000
00000000
00000000
00000000
,
00000000
00000000
00000000
00000000
,
00000000
00000000
00000000
00000000
,
00000000
00000000
00000000
00000000
,
00000011
00000000
00000000
00001100
00000000
00000000
00022000
00000000
00000000
00000000
00000000
00000000
00000000
00000000
00000000
00000000
,
00033000
00000000
00000000
00000000
,
00110000
00000000
00000000
11000000
00000000
00000000
20020000
00000000
00000000
00000000
00000000
00000000
00000000
00000000
00000000
00000000
,
30030000
00000000
00000000
00000000
,
10000000
00000000
00000000
00000000
01000000
00000000
00000000
11000000
00000000
10000000
01000000
00000000
00010000
00000000
00001000
00000000
,
00000010
00000000
00000000
00000000
00000100
00000000
00000000
00000011
00000000
00000001
00000010
00000000
00000110
00000000
00000000
00000000
,
00000001
00000000
00000000
00000000
00000100
00000000
00000000
00000101
00000000
00000001
00000100
00000000
00001000
00000000
00010000
00000000
,
01000000
00000000
10000000
00000000
10100000
00000000
00000000
01100000
00000000
10000000
00010000
10000000
00010000
00000000
00000000
00000000
,
01000000
00000000
00000000
00000000
00100000
00000000
00000000
00011000
00000000
00100000
00001000
00000000
00000100
00000000
00001000
00000000
,
00010000
00000000
00000000
00000000
00001000
00000000
00000100
00000001
00000100
00000000
00000001
00000000
00000010
00000000
00000100
00000000
,
00001000
00000000
00000000
00000000
00000010
00000000
00000000
00001001
00000000
00000001
00000010
00000000
00001000
00000000
00010000
00000000
,
01000000
00100000
00010000
00000000
01000000
00000000
00100000
10000000
00100000
10000000
00010000
01000000
00001000
00000000
00000000
00000000
,
10000000
00000000
00100000
00000000
10000000
00100000
01000000
00000000
00010000
00000000
00100000
00000000
00001000
00000000
00010000
00000000
,
00000100
00000000
00000010
00000000
00000001
00000010
00000100
00000000
00001000
00000000
00000001
00000000
00001001
00000000
00000000
00000000
,
00000001
00000000
00000100
00000000
00000001
00000100
00000010
00000000
00001000
00000000
00000100
00000000
00010000
00000000
00001000
00000000
,
00100000
00000000
01000000
00000000
10000000
01000000
00100000
00000000
00010000
00000000
10000000
00000000
10010000
00000000
00000000
00000000
,
10000000
01000000
00100000
00000000
01000000
00100000
00010000
00000000
00100000
00001000
00010000
00000000
00000100
00000000
00000010
00000000
,
00000001
00000010
00000100
00000000
00000010
00000100
00001000
00000000
00000100
00010000
00001000
00000000
00100000
00000000
01000000
00000000
,
10000000
01000000
00100000
00010000
10000000
01000000
00010000
00001000
00010000
00000100
00010000
00000010
00001000
00000001
00000100
00000000
,
00000001
00000100
00000010
00001000
00000001
00000100
00001000
00010000
00001000
00100000
00001000
01000000
00100000
00000000
10000000
00000000
,
01000000
00000000
00100000
00000000
00001000
00010000
00001000
00000000
00010000
00000100
00001000
00000000
00000001
00000010
00000100
00000000
,
00001001
00000000
00000000
00000000
00000101
00000000
00000000
00000100
00001000
00000000
00010000
00000000
00001000
00000000
00000100
00000000
,
00000110
00000000
00000000
00000000
00001010
00000000
00000000
00001000
00010000
00000000
01000000
00000000
00100000
00000000
10000000
00000000
,
10010000
00000000
00000000
00000000
10100000
00000000
00000000
00100000
00010000
00000000
00001000
00000000
00010000
00000000
00100000
00000000
,
01100000
00000000
00000000
00000000
01010000
00000000
00000000
00010000
00100000
00001000
00010000
00001000
00000100
00000010
00001000
00000000
,
00001001
00000000
00000000
00000000
00000001
00000000
00000100
00000020
00000000
00000000
00002030
00000000
00000000
00000000
00023000
00000000
,
00000000
00000000
00000000
01030000
00000000
00010000
00100000
10000000
,
00100000
00000000
10000000
00100000
00000000
00001000
00010000
00011000
,
00000000
00001100
00000000
00000101
00000000
00000022
00000000
00000033
,
00001001
00000000
00000001
00000100
00000010
00000000
00001000
00000000
00000100
00000000
00010000
00001000
00010000
00000000
00100000
00000000
,
01000000
00000000
00010000
01000000
00100000
00000000
10000000
00000000
01000000
00000000
10000000
01000000
00100000
00000000
00010000
00000000
,
00001000
00000000
00000100
00001000
00000010
00000000
00000100
00000000
00000001
00000000
00000100
00001000
00010000
00000000
00001000
00000000
,
00010000
00011000
00220000
00000000
00330000
10000000
10010000
00000000
,
10000000
00000000
01000000
00010000
00001000
00000000
00010000
00000000
00001000
00000000
00010000
00001000
00000100
00000000
00000001
00000000
,
00001000
00000000
00000001
00000010
00000100
00000000
00001000
00000000
00000001
00000000
00000010
00001000
00010000
00000000
00001000
00000000
,
00010000
00000000
00001000
00010000
00100000
00000000
10000000
00000000
01000000
00000000
00100000
00010000
01000000
00000000
00001000
00000000
,
00010000
00000000
00001000
00010000
00000010
00000000
00000100
00000000
00000110
00000000
00000000
00000000
00001010
00000000
00000000
00000000
,
00000011
00000000
00000000
00001001
00000000
00000000
00001100
00000000
00011000
00000000
00000000
00000000
00000000
00000000
00001000
00000000
,
00200000
00000000
00000000
01300000
00000000
00000000
10000000
00000000
00010000
00000000
00000000
00000000
10010000
00000000
00000000
00000000
,
11000000
00000000
00000000
10010000
00000000
00000000
00110000
00000000
00011000
00000000
00000000
00000000
00000000
00000000
00010000
00000000
,
00000200
00000000
00000000
00000310
00000000
00000000
00000001
00000000
00001000
00000000
00000000
00000000
00001001
00000000
00000000
00000000
,
00001010
00000000
00000000
00000110
00000000
00000000
00000101
00000000
00001100
00000000
00000000
00000000
00000000
00000000
00000100
00000000
,
00020000
00000000
00000000
00031000
00000000
00000000
00010000
00000000
01000000
00000000
00000000
00000000
10010000
00000000
00000000
00000000
,
01010000
00000000
00000000
01100000
00000000
00000000
10100000
00000000
01010000
00000000
00000000
00000000
00000000
00000000
01000000
00000000
,
00002000
00000000
00000000
00013000
00000000
00000000
00001000
00000000
00000100
00000010
00000100
00000000
00000001
00001000
00000001
00000000
,
00001001
00000000
00000000
00000000
00000201
00000000
00000000
00000310
00001000
00000000
00000100
00000000
00010000
00000000
00001000
00000000
,
00000100
00000000
00000000
00000000
00000110
00000000
00000000
00000001
00000100
00000000
00001000
00000000
00010000
00000000
00100000
00000000
,
10000000
00000000
00000000
00000000
10200000
00000000
00000000
01300000
00010000
00000000
00100000
00000000
00001000
00000000
00010000
00000000
,
00100000
00000000
00000000
00000000
01100000
00000000
00000000
10000000
00100000
00000000
00010000
00000000
00001000
00000000
00000100
00000000
,
00000101
00000000
00000001
00000200
00000000
00020300
00000000
02030000
,
00000000
00000000
00000000
03100000
00000000
10000000
01000000
00010000
,
00001000
00000000
00010000
01000000
00000000
10000000
00100000
00020000
,
00000000
00000000
00032000
00000000
00000000
00000000
00003100
00000000
00000001
00000010
00000001
00000010
00000100
00001000
00000100
00001000
,
00000001
00000000
00000000
00000000
00001200
00000000
00000000
00001300
00000100
00000000
00010000
00000000
00100000
00000000
01000000
00000000
,
00010000
00000000
00000000
00000000
10200000
00000000
00000000
10300000
01000000
00000000
00010000
00000000
00001000
00000000
00000100
00000000
,
00000001
00000000
00000000
00000000
00000021
00000000
00000000
00000031
00000100
00000000
00001000
00000000
00010000
00000000
01000000
00000000
,
10000000
00000000
00000000
00000000
01100000
00000000
00000000
10000000
00100000
01000000
00010000
00100000
00001000
00010000
00001000
00000000
,
00001000
00100000
00010000
00000000
01000000
00001000
00010000
00000000
00001000
00010000
00000010
00000000
00001000
00000100
00010000
00000000
,
00001000
00000100
00000001
00000000
00001000
00000100
00000010
00000000
00000100
00010000
00001000
00000000
00010000
00000000
00100000
00000000
,
01000000
00000000
00000000
00000000
00010000
00000000
00100000
00000000
00000000
00000000
01000000
00010000
00001000
00000100
00002000
00000000
,
00000000
00000000
00023000
00000000
00000000
00000000
00230000
00000000
00000000
00000000
02300000
00000000
00000000
03000000
00000000
00000000
,
01100000
00000000
00000000
00000000
,
00000000
00000000
00000000
00000000
;
