
//----- song ID: ware -----//
#TITLE:我ら完全無敵のアイドル!!;
#ARTIST:B小町;
#TITLETRANSLIT:Warera kanzen muteki no idol!!;
#ARTISTTRANSLIT:B komachi;
#BANNER:Warera kanzen muteki no idol!!.png;
#BACKGROUND:Warera kanzen muteki no idol!!-bg.png;
#CDTITLE:./CDTitles/DDR WORLD.png;
#MUSIC:Warera kanzen muteki no idol!!.ogg;
#SAMPLESTART:56.932;
#SAMPLELENGTH:15;
#BPMS:0=176;
#BGSTAGE:5;
#NOTES:
     dance-single:
     :
     Beginner:
     2:
     :
0000
0000
0000
0000
,
0000
0000
0000
0000
,
0000
0000
0000
0000
,
0000
0000
0000
0000
,
0000
0000
0000
0000
,
0001
0000
0000
0000
,
1000
0000
0000
0000
,
0000
0000
0000
0000
,
1001
0000
0000
0000
,
0001
0000
0000
0000
,
0010
0000
0000
0000
,
0100
0000
0000
0000
,
1000
0000
0000
0000
,
1000
0000
0000
0000
,
0100
0000
0000
0000
,
0010
0000
0000
0000
,
0001
0000
0000
0000
,
1000
0000
0000
0000
,
0001
0000
0000
0000
,
1000
0000
0000
0000
,
0010
0000
0010
0000
,
0010
0000
0000
0000
,
1000
0000
0000
0000
,
0001
0000
0000
0000
,
0100
0000
0000
0000
,
0001
0000
0000
0000
,
1000
0000
0000
0000
,
0001
0000
0000
0000
,
0010
0000
0010
0000
,
0010
0000
0000
0000
,
0001
0000
0000
0000
,
1000
0000
1000
0000
,
1000
0000
0000
0000
,
0002
0000
0003
0000
,
2000
0000
3000
0000
,
0002
0000
0003
0000
,
0010
0000
0000
0000
,
0001
0000
0000
0000
,
1000
0000
0000
0000
,
0010
0000
0010
0000
,
0010
0000
0000
0000
,
0100
0000
0000
0000
,
0001
0000
0001
0000
,
0001
0000
0000
0000
,
1000
0000
1000
0000
,
1000
0000
0000
0000
,
0020
0000
0030
0000
,
0020
0000
0030
0000
,
0100
0000
0000
0000
,
0001
0000
0000
0000
,
1000
0000
1000
0000
,
1000
0000
0000
0000
,
0001
0000
0001
0000
,
0001
0000
0000
0000
,
0020
0000
0030
0000
,
0020
0000
0030
0000
,
0000
0000
0000
0000
,
1001
0000
0000
0000
,
0000
0000
0000
0000
,
0002
0000
0000
0000
,
0000
0000
0000
0000
,
0003
0000
0000
0000
,
0000
0000
0000
0000
,
2000
0000
0000
0000
,
0000
0000
0000
0000
,
3000
0000
0000
0000
,
0000
0000
0000
0000
,
0001
0000
0000
0000
,
0001
0000
0000
0000
,
1000
0000
0000
0000
,
1000
0000
0000
0000
,
0010
0000
0000
0000
,
0010
0000
0000
0000
,
0200
0000
0000
0000
,
0300
0000
0000
0000
,
0001
0000
0000
0000
,
0001
0000
0000
0000
,
1000
0000
1000
0000
,
1000
0000
0000
0000
,
0020
0000
0030
0000
,
0020
0000
0030
0000
,
0100
0000
0000
0000
,
0001
0000
0000
0000
,
1000
0000
1000
0000
,
1000
0000
0000
0000
,
0001
0000
0001
0000
,
0001
0000
0000
0000
,
0020
0000
0030
0000
,
0020
0000
0030
0000
,
0200
0000
0300
0000
,
0200
0000
0300
0000
,
0020
0000
0030
0000
,
0020
0000
0030
0000
,
0000
0000
0000
0000
,
1001
0000
0000
0000
,
0000
0000
0000
0000
,
1001
0000
0000
0000
,
0000
0000
0000
0000
;
#NOTES:
     dance-single:
     :
     Easy:
     4:
     :
0000
0000
0000
0000
,
0000
0000
0000
0000
,
0000
0000
0000
0000
,
0000
0000
0000
0000
,
0000
0000
0000
0000
,
0001
0001
0001
0000
,
1000
0000
0001
0000
,
0010
0010
0010
0000
,
1001
0000
0000
0000
,
0001
0000
0010
0000
,
0100
0000
1000
0000
,
0001
0000
0100
0000
,
0010
0010
0010
0000
,
1000
0000
0100
0000
,
0010
0000
0001
0000
,
1000
0000
0010
0000
,
0100
0100
0100
0000
,
0001
1000
0001
0000
,
1000
0001
1000
0000
,
0010
0010
0010
0000
,
1000
1000
1000
0000
,
0100
0000
0010
0000
,
0100
0000
1000
0000
,
0001
0000
0100
0100
,
0100
0000
0001
0000
,
1000
0001
1000
0000
,
0001
1000
0001
0000
,
0010
0010
0010
0000
,
0001
0001
0001
0000
,
0100
0000
0010
0000
,
0010
0000
1000
0000
,
0100
0100
0100
0000
,
1000
0000
0000
0000
,
0001
1000
0001
0000
,
1000
0010
1000
0000
,
0001
0010
0001
0000
,
1000
0000
0001
0000
,
0100
0100
0100
0000
,
0010
0010
0010
0000
,
1000
1000
1000
0000
,
0002
0000
0000
0003
,
0020
0000
0030
0000
,
0011
0000
0001
0000
,
1000
1000
1000
0000
,
1010
0000
1000
0000
,
0001
0001
0001
0000
,
0020
0000
0030
0001
,
0020
0000
0030
0001
,
1000
0000
0001
0000
,
1000
1000
1000
0000
,
1010
0000
1000
0000
,
0001
0001
0001
0000
,
0011
0000
0001
0000
,
1000
1000
1000
0000
,
0020
0000
0030
1000
,
0020
0000
0030
1000
,
0010
0010
0010
0000
,
1001
0000
0000
0000
,
0002
0000
0000
0000
,
1000
0000
0000
0000
,
0023
0000
0000
0000
,
0000
0000
0000
0000
,
0030
0000
0000
0000
,
0001
0000
0000
0000
,
0020
0000
0000
0000
,
0000
0000
0000
0000
,
0030
0000
0000
0000
,
0001
0000
0010
0000
,
0100
0000
2000
0000
,
0000
0000
0000
0000
,
0000
0000
3000
0000
,
1000
0000
0010
0000
,
0100
0000
0002
0000
,
0000
0000
0000
0000
,
0000
0000
0003
0000
,
0101
0000
0000
0000
,
1001
0000
0000
0000
,
1100
0000
1000
0000
,
0001
0001
0001
0000
,
0020
0000
0030
0001
,
0020
0000
0030
0001
,
1000
0000
0001
0000
,
1000
1000
1000
0000
,
1100
0000
1000
0000
,
0001
0001
0001
0000
,
0101
0000
0001
0000
,
1000
1000
1000
0000
,
0020
0000
0030
1000
,
0020
0000
0030
1000
,
2000
0000
3000
0001
,
2000
0000
3000
0001
,
0002
0000
0003
0010
,
0002
0000
0003
0000
,
0010
0010
0010
0000
,
1001
0000
0000
0000
,
0010
0010
0010
0000
,
1001
0000
0000
0000
,
0000
0000
0000
0000
;
#NOTES:
     dance-single:
     :
     Medium:
     9:
     :
0000
0000
0000
0000
,
0000
0000
0000
0000
,
0000
0000
0000
0000
,
0000
0000
0000
0000
,
0000
0000
0000
0000
,
0001
0000
1000
0000
0001
1000
0001
0000
,
0100
0010
1000
0001
,
1002
0000
1003
0000
0001
1000
0001
0000
,
0100
0000
0001
1000
0000
0010
0000
0000
,
1000
0100
0010
0001
,
1000
0000
0010
0000
1000
0001
1000
0000
,
0001
0010
0100
1000
,
0010
0010
1000
0000
,
0001
0100
0010
1000
,
0001
0000
0010
0000
0001
1000
0001
0000
,
1000
0010
0100
0001
,
1000
0001
1000
0000
,
0001
0000
0010
0000
0001
0010
0001
0000
,
1000
0000
0010
0000
1000
0010
1000
0000
,
0001
0100
0010
0020
,
1030
0001
0010
0100
,
1000
0000
0000
0000
0001
0010
0000
0001
,
0000
1000
0000
0100
0000
1000
0000
0001
,
0100
0000
0100
0000
0001
0000
1000
0010
,
0000
0010
1000
0000
0001
0000
0000
0000
,
1000
0000
0010
0000
1000
0010
1000
0000
,
0001
0000
0010
0000
0001
0010
0001
0000
,
1000
0000
0100
0000
0010
0100
0010
0000
,
0001
1000
0010
0100
,
0001
0000
0000
0000
1000
0010
0000
1000
,
0000
0001
0000
0100
0000
0001
1000
0000
,
0010
0010
0100
0200
,
0000
0000
0000
0000
0300
0001
0000
0000
,
1000
0000
0100
0000
1000
0100
1000
0000
,
0001
0000
0100
0000
0001
0100
0001
0000
,
1000
0000
0001
0000
1000
0001
1000
0001
,
0000
0010
0000
0100
0000
1000
0001
0000
,
0100
0000
0100
0000
0100
0001
0100
0000
,
0010
0000
0010
0000
0010
1000
0010
0000
,
1000
0010
0100
0001
,
0200
0000
0000
0300
,
2002
0000
0000
0000
3003
0000
0000
0001
,
0010
0000
0000
0001
0010
0000
0100
1000
,
0000
0001
1000
0000
0100
0000
0000
1000
,
0010
0000
0000
1000
0010
0000
0100
0001
,
0000
1000
0001
0000
0020
0000
0030
0000
,
0002
0000
0000
0000
0003
0010
0001
0000
,
2000
0000
0000
0000
3000
0010
1000
0000
,
0002
0003
2000
3000
,
0010
0000
0010
0000
1000
0000
0001
1000
,
0010
0000
0000
1000
0010
0000
0100
0001
,
0000
1000
0001
0000
0100
0000
0000
0001
,
0010
0000
0000
0001
0010
0001
0000
1000
,
0000
0010
0000
1000
0000
0001
1000
0000
,
0002
0000
0000
0000
0003
0010
0001
0000
,
2000
0000
0000
0000
3000
0010
1000
0000
,
2001
0000
3001
0000
1000
0001
1000
0000
,
0100
0000
1000
0001
0000
1000
0010
0000
,
2000
0000
0000
0000
,
0010
0000
0010
0000
,
3001
0001
0002
0000
,
0000
0000
0000
0000
,
0003
0000
0000
0000
,
0010
0000
0010
0000
,
0100
0100
0200
0000
,
0000
0000
0000
0000
,
0300
0000
0000
0000
,
2000
0000
0000
0000
,
3002
0000
0203
0000
,
0320
0000
0230
0000
,
0302
0000
2003
0000
,
3002
0000
0000
0000
,
2003
0000
3200
0000
,
0320
0000
0230
0000
,
2300
0000
0000
0000
3001
0000
0000
1000
,
0010
0000
0000
1000
0010
0000
0100
0001
,
0000
1000
0001
0000
0100
0000
0000
0001
,
0010
0000
0000
0001
0010
0000
0100
1000
,
0000
0001
1000
0000
0020
0000
0030
0000
,
2000
0000
0000
0000
3000
0010
1000
0000
,
0002
0000
0000
0000
0003
0010
0001
0000
,
2000
3000
0002
0003
,
0010
0000
0010
0000
0001
0000
1000
0001
,
0010
0000
0000
0001
0010
0000
0100
1000
,
0000
0001
1000
0000
0100
0000
0000
1000
,
0010
0000
0000
1000
0010
1000
0000
0001
,
0000
0010
0000
0001
0000
1000
0001
0000
,
2000
0000
0000
0000
3000
0010
1000
0000
,
0002
0000
0000
0000
0003
0010
0001
0000
,
2000
0000
0000
0000
3000
0100
1000
0000
,
0002
0000
0000
0000
0003
0100
0001
0000
,
0020
0000
0000
0000
0030
0001
1000
0000
,
0020
0000
0000
0000
0030
1000
0001
0000
,
1002
0000
1003
0000
0001
1000
0001
0000
,
0100
0000
0001
1000
0000
0100
1000
0000
,
2001
0000
3001
0000
1000
0001
1000
0000
,
0010
0000
1000
0001
0000
0100
0010
0000
,
0000
0000
0000
0000
;
#NOTES:
     dance-single:
     :
     Hard:
     12:
     :
0000
0000
0000
0000
,
0000
0000
0000
0000
,
0000
0000
0000
0000
,
0000
0000
0000
0000
,
0000
0000
0000
0000
,
0011
0000
0001
0000
0001
1000
0001
0000
,
1000
0010
0100
0020
0000
0130
0001
1000
,
1001
0000
1001
0000
0001
0100
0010
1000
,
0100
0010
0001
2000
0000
3010
0100
0000
,
0001
0010
0100
1000
0000
0001
1000
0100
,
0000
0010
0001
0000
1000
0010
0100
0001
,
1000
0100
0010
0001
0000
1000
0001
0100
,
0101
1001
1100
0000
,
1000
0010
0100
0001
0000
1000
0001
0100
,
0000
0010
1000
0000
0001
0010
0100
1000
,
0001
0100
0010
1000
0000
0001
1000
0100
,
1000
0000
0001
0000
1000
0001
1000
0000
,
0001
0010
0001
1000
0010
0100
0010
0000
,
1000
0010
1000
0001
0010
0100
0010
0000
,
0001
1000
0001
0100
0020
0130
0020
0030
,
1000
0001
1000
0001
0010
0001
1000
0010
,
0100
0000
0001
0000
1000
0200
0000
1300
,
0000
0002
0000
0103
0000
0020
0000
1030
,
0001
0000
1000
0100
0001
0100
0010
0001
,
0000
1000
0010
0100
0010
0000
0000
0000
,
1000
0010
1000
0001
0010
0100
0010
0000
,
0001
0010
0001
1000
0010
0100
0010
0000
,
1000
0001
1000
0100
0010
0100
0010
0000
,
0001
1000
0001
1000
0010
1000
0001
0010
,
0100
0000
1000
0000
0001
0200
0000
0310
,
0000
1000
0001
0020
0000
0130
1000
0000
,
0010
1000
0010
0100
0010
0001
0010
0200
,
0000
0000
0000
0000
0300
0002
0000
0000
,
1003
0100
1000
0100
1000
0010
0100
0000
,
0001
0100
0001
0100
0001
0010
0100
0000
,
1000
0001
0010
0100
1000
0001
0100
0010
,
0000
1000
0100
1000
0000
0001
1000
0000
,
0100
0010
0100
1000
0001
0100
0001
0000
,
0010
0100
0010
0001
1000
0010
1000
0000
,
0010
0100
0010
0100
0001
1000
0010
0100
,
0020
0000
0000
0030
,
1001
0000
0000
0001
0000
0000
0001
0000
0200
0000
0000
0000
0000
0000
0310
0000
,
0010
1000
0001
0010
0010
0001
0100
0020
,
0000
1030
0001
0000
0100
0001
2000
0100
,
3100
1000
0001
0100
0100
0001
1000
0002
,
0000
0103
0010
0000
2000
0000
3001
0100
,
0001
0000
0000
0001
0000
0000
0001
0000
0010
0000
0100
0000
1000
0000
0000
0000
,
1000
0000
0000
1000
0000
0000
1000
0000
0010
0000
0100
0000
0001
0000
1000
0000
,
0000
0100
0010
0100
1000
0001
0000
2000
,
0010
0000
0001
0000
0100
0000
3002
0010
,
0010
0000
2003
0010
0010
0000
3001
0200
,
0000
0310
2000
0000
3001
1000
0002
0100
,
0103
0001
1000
0100
0100
1000
0001
0200
,
0000
0320
0000
2030
0000
3001
1000
0000
,
0200
0000
0010
0000
1300
0001
0100
0000
,
0002
0000
1000
0000
0023
0130
1000
0001
,
1001
0000
1001
0000
1000
0100
0010
0001
,
0100
0010
1000
0002
0000
1003
0010
0000
,
2000
0000
0000
0000
0000
0000
0000
0001
,
0001
0000
0000
0001
0001
0000
3100
0020
,
0000
0031
1000
0000
0002
0000
0000
0000
,
0100
0000
0100
0000
,
1000
0000
0000
0000
1003
0000
0000
0001
,
0001
0000
0000
1000
1000
0000
0001
0200
,
0000
0310
1000
0000
0200
0000
0000
0000
,
0010
0000
0010
0000
,
1000
0000
0000
0000
1300
0000
0000
0001
,
0001
0000
0000
1000
1000
0000
0010
0200
,
0000
0301
1000
0000
0002
0000
0000
0000
,
0010
0000
1000
0000
,
0100
0000
0000
0000
1003
0000
0000
1000
,
1000
0000
0000
0001
0001
0000
0010
0200
,
0000
1300
0001
0000
2000
0000
0000
0000
,
0010
0000
0001
0000
,
3200
0000
0000
0000
0310
0000
0000
0001
,
0011
0000
0000
1000
1000
0000
0010
1010
,
0000
1000
0200
0000
0320
0000
0000
0031
,
0001
0000
2000
0100
3100
1000
0001
2000
,
0000
3100
0010
0000
0002
0000
1003
0100
,
1000
0000
0000
1000
0000
0000
1000
0000
0010
0000
0100
0000
0001
0000
0000
0000
,
0001
0000
0000
0001
0000
0000
0001
0000
0010
0000
0100
0000
1000
0000
0001
0000
,
0000
0100
0010
0100
0001
1000
0000
0002
,
0010
0000
1000
0000
0100
0000
2003
0010
,
0010
0000
3002
1000
1000
0000
1003
0010
,
0000
0100
0020
0000
1030
0001
2000
0100
,
3100
1000
0001
0100
0100
0001
1000
0200
,
0000
0320
0000
0032
0000
1003
0001
0000
,
2000
0000
0001
0000
3100
1000
0100
0000
,
0020
0000
0001
0000
0130
1000
0001
0000
,
2000
0000
0010
0000
3001
1000
0010
0000
,
2000
3200
0320
0032
2003
3020
1030
0000
,
0002
0000
1000
0000
0013
0100
1000
0000
,
0200
0000
1000
0000
0320
0130
1000
0001
,
1001
0000
1001
0000
1000
0100
0010
0001
,
0100
0010
1000
0002
0000
0013
0001
1000
,
1001
0000
1001
0000
0001
0100
0010
1000
,
0100
0010
0001
2000
0000
3001
0010
0000
,
0000
0000
0000
0000
;
#NOTES:
     dance-single:
     :
     Challenge:
     15:
     :
0000
0000
0000
0000
,
0000
0000
0000
0000
,
0000
0000
0000
0000
,
0000
0000
0000
0000
,
0000
0000
0000
0000
,
1100
0000
0000
0000
0000
0000
0000
0000
0000
0000
0000
0000
0000
0000
0000
0000
0101
0000
0000
0000
0000
0000
0000
0000
0000
0000
0000
0000
0000
0000
0000
0000
0200
0300
0000
0000
0000
0000
0000
0000
0200
0300
0000
0000
0000
0000
0000
0000
1000
0000
0000
0000
0000
0000
0000
0000
0000
0000
0000
0000
0000
0000
0000
0000
,
0001
1000
0001
1000
0001
0000
0010
0100
0010
0000
0100
0000
1000
0000
0001
0000
,
0011
0000
0000
0000
0000
0000
0000
0000
0000
0000
0000
0000
0000
0000
0000
0000
1010
0000
0000
0000
0000
0000
0000
0000
0000
0000
0000
0000
0000
0000
0000
0000
0020
0030
0000
0000
0000
0000
0000
0000
0020
0030
0000
0000
0000
0000
0000
0000
0001
0000
0000
0000
0000
0000
0000
0000
0010
0000
0000
0000
0000
0000
0000
0000
,
0100
1000
0010
0120
0000
1030
0001
0000
,
0001
0000
0010
0000
0100
0000
1000
0000
0010
0000
0100
0001
0100
0000
0010
0000
,
1000
0000
0000
0000
0000
0000
0000
0000
0020
0030
0000
0000
0000
0000
0000
0000
0020
0030
0000
0000
0000
0000
0000
0000
0001
0000
0000
0000
0000
0000
0000
0000
1000
0000
0000
0000
0000
0000
0000
0000
0100
0000
0000
0000
0000
0000
0000
0000
0010
0000
0000
0000
0000
0000
0000
0000
0001
0000
0000
0000
0000
0000
0000
0000
,
0100
0000
1000
0000
0100
0000
0001
0000
1000
0000
0100
1000
0100
0000
0010
0000
,
0011
0000
0110
0000
1100
1000
0001
0000
,
1000
0000
0010
0000
0100
0000
0001
0000
1000
0000
0001
0010
0001
0000
1000
0000
,
0100
0000
0000
0000
0000
0000
0000
0000
0020
0030
0000
0000
0000
0000
0000
0000
0020
0030
0000
0000
0000
0000
0000
0000
1000
0000
0000
0000
0000
0000
0000
0000
0001
0000
0000
0000
0000
0000
0000
0000
0010
0000
0000
0000
0000
0000
0000
0000
0100
0000
0000
0000
0000
0000
0000
0000
1000
0000
0000
0000
0000
0000
0000
0000
,
0100
0000
0001
0000
0100
0000
1000
0000
0001
0000
1000
0100
1000
0000
0001
0000
,
1000
0010
0001
0010
1000
0001
1000
0000
,
0001
0100
0001
0000
1000
0100
1000
0100
1000
0000
0001
0000
0100
0000
0010
0000
,
1000
0000
0001
0010
0001
0000
1000
0010
1000
0000
0001
0000
0100
0000
0010
0000
,
1000
0000
0000
0000
0000
0000
0000
0000
0001
0000
0000
0000
0100
0000
0000
0000
0001
0000
0000
0000
0100
0000
0000
0000
0001
0000
0000
0000
0100
0000
0000
0000
0001
0000
0000
0000
0000
0000
0000
0000
1000
0000
0000
0000
0000
0000
0000
0000
0020
0030
0000
0000
0000
0000
0000
0000
0020
0030
0000
0000
0000
0000
0000
0000
,
0001
0000
0000
0000
0000
0000
0000
0000
1000
0000
0000
0000
0000
0000
0000
0000
0001
0000
0000
0000
0000
0000
0000
0000
1000
0000
0000
0000
0000
0000
0000
0000
0020
0030
0000
0000
0000
0000
0000
0000
0020
0030
0000
0000
0000
0000
0000
0000
0001
0000
0000
0000
0000
0000
0000
0000
1000
0000
0000
0000
0000
0000
0000
0000
,
0100
0000
1100
0000
0002
0023
0001
0230
,
0010
2300
0100
3002
1000
0203
0001
0320
,
0130
0000
0000
0000
0000
0000
0000
0000
0000
0000
0000
0000
0000
0000
0000
0000
0101
0000
0000
0000
0000
0000
0000
0000
0100
0000
0000
0000
0000
0000
0000
0000
0010
0000
0000
0000
0000
0000
0000
0000
1000
0000
0000
0000
0000
0000
0000
0000
0100
0000
0000
0000
0000
0000
0000
0000
0002
0003
0000
0000
0000
0000
0000
0000
,
0000
0000
0000
0000
0000
0000
0000
0000
0002
0003
0000
0000
0000
0000
0000
0000
0010
0000
0000
0000
0000
0000
0000
0000
0100
0000
0000
0000
0000
0000
0000
0000
1000
0000
0000
0000
0000
0000
0000
0000
0000
0000
0000
0000
0000
0000
0000
0000
0000
0000
0000
0000
0000
0000
0000
0000
0000
0000
0000
0000
0000
0000
0000
0000
,
0001
0100
0001
0100
0001
0100
0001
0100
0001
0000
1000
0100
1000
0000
0010
0000
,
1000
0001
0000
1000
0001
0000
1000
0000
0001
0010
0001
0010
0001
0000
0100
0000
,
0001
0000
1000
0001
1000
0000
0010
1000
0010
1000
0010
1000
0010
1000
0010
0000
,
1000
0000
0000
0000
0000
0000
0000
0000
0001
0000
0000
0000
0000
0000
0000
0000
1000
0000
0000
0000
0000
0000
0000
0000
0001
0000
0000
0000
0000
0000
0000
0000
0200
0300
0000
0000
0000
0000
0000
0000
0200
0300
0000
0000
0000
0000
0000
0000
1000
0000
0000
0000
0000
0000
0000
0000
0001
0000
0000
0000
0000
0000
0000
0000
,
0100
0000
0101
0000
2000
3200
1000
0320
,
0100
0032
2003
3020
1000
0230
0310
0000
,
1010
1000
0010
0001
0010
1000
0100
0020
,
0000
0000
0000
0030
0000
0012
0000
0003
,
1000
0100
0001
1000
0010
0001
2000
0000
,
3001
0100
1000
0001
0010
1000
0002
0000
,
1003
0100
0001
1000
0010
0001
1000
0010
,
0000
0110
0200
0002
0303
2000
0002
3003
,
1000
0000
0010
1000
0010
0000
0100
0001
0000
0100
0001
0000
1000
0000
0000
0000
,
0001
0000
0010
0001
0010
0001
0010
0000
0100
0000
1000
0000
0001
0000
0000
0000
,
0100
0010
0100
1000
0100
0001
0010
0200
,
0020
0000
0000
0330
,
0012
0000
0000
0000
0000
0000
0000
0000
0000
0000
0000
0000
0010
0000
0000
0000
0000
0000
0000
0000
0000
0000
0000
0000
0010
0000
0000
0000
0000
0000
0000
0000
2003
0000
0000
0000
0000
0000
0000
0000
0000
0000
0000
0000
0000
0000
0000
0000
3000
0000
0000
0000
0000
0000
0000
0000
0020
0030
0000
0000
0000
0000
0000
0000
,
0020
0030
0000
0000
0000
0000
0000
0000
0001
0000
0000
0000
0000
0000
0000
0000
1000
0000
0000
0000
0000
0000
0000
0000
0020
0030
0000
0000
0000
0000
0000
0000
0020
0030
0000
0000
0000
0000
0000
0000
0001
0000
0000
0000
0000
0000
0000
0000
1000
0000
0000
0000
0000
0000
0000
0000
0200
0000
0000
0000
0000
0000
0000
0000
,
0000
0000
0000
0000
0000
0000
0000
0000
0302
0003
0000
0000
0000
0000
0000
0000
0002
0003
0000
0000
0000
0000
0000
0000
0000
0000
0000
0000
0000
0000
0000
0000
2000
0000
0000
0000
0000
0000
0000
0000
0010
0000
0000
0000
0000
0000
0000
0000
3020
0000
0000
0000
0000
0000
0000
0000
0230
0300
0000
0000
0000
0000
0000
0000
,
0200
0300
0000
0000
0000
0000
0000
0000
1000
0000
0000
0000
0000
0000
0000
0000
0001
0000
0000
0000
0000
0000
0000
0000
0200
0300
0000
0000
0000
0000
0000
0000
0200
0300
0000
0000
0000
0000
0000
0000
1000
0000
0000
0000
0000
0000
0000
0000
0001
0000
0000
0000
0000
0000
0000
0000
0100
0000
0000
0000
0000
0000
0000
0000
,
0020
0130
1020
0030
0021
0030
0021
0130
,
1000
0000
0000
0000
0000
0000
0000
0000
0100
0000
0000
0000
1000
0000
0000
0000
0000
0000
0000
0000
0001
0000
0000
0000
0000
0000
0000
0000
1000
0000
0000
0000
0001
0000
0000
0000
0000
0000
0000
0000
0020
0030
0000
0000
0000
0000
0000
0000
2020
0030
0000
0000
0000
0000
0000
0000
3000
0000
0000
0000
0000
0000
0000
0000
,
0001
0000
0000
0000
0100
0000
0000
0000
0001
0000
0000
0000
0100
0000
0000
0000
0001
0000
0000
0000
0000
0000
0000
0000
1000
0000
0000
0000
0001
0000
0000
0000
1000
0000
0000
0000
0000
0000
0000
0000
0020
0030
0000
0000
0000
0000
0000
0000
0022
0030
0000
0000
0000
0000
0000
0000
2003
0000
0000
0000
0000
0000
0000
0000
,
0000
3010
0100
0010
1000
0002
0000
0023
,
0001
0000
0000
0000
0000
0000
0000
0000
0000
0000
0000
0000
0000
0000
0000
0000
0100
0000
0000
0000
0000
0000
0000
0000
0000
0000
0000
0000
0000
0000
0000
0000
1000
0000
0000
0000
0000
0000
0000
0000
0000
0000
0000
0000
0000
0000
0000
0000
0032
0000
0000
0000
0000
0000
0000
0000
0203
0300
0000
0000
0000
0000
0000
0000
,
0200
0300
0000
0000
0000
0000
0000
0000
0000
0000
0000
0000
0000
0000
0000
0000
1200
0000
0000
0000
0000
0000
0000
0000
0020
0330
0000
0000
0000
0000
0000
0000
0020
0030
0000
0000
0000
0000
0000
0000
1000
0000
0000
0000
0000
0000
0000
0000
0001
0000
0000
0000
0000
0000
0000
0000
0020
0000
0000
0000
0000
0000
0000
0000
,
0000
0000
0000
0000
0000
0000
0000
0000
2030
3000
0000
0000
0000
0000
0000
0000
2000
3000
0000
0000
0000
0000
0000
0000
0000
0000
0000
0000
0000
0000
0000
0000
0002
0000
0000
0000
0000
0000
0000
0000
0010
0000
0000
0000
0000
0000
0000
0000
0023
0000
0000
0000
0000
0000
0000
0000
0230
0300
0000
0000
0000
0000
0000
0000
,
0200
0300
0000
0000
0000
0000
0000
0000
0001
0000
0000
0000
0000
0000
0000
0000
1000
0000
0000
0000
0000
0000
0000
0000
0020
0030
0000
0000
0000
0000
0000
0000
0020
0030
0000
0000
0000
0000
0000
0000
0001
0000
0000
0000
0000
0000
0000
0000
1000
0000
0000
0000
0000
0000
0000
0000
2002
0000
0000
0000
0000
0000
0000
0000
,
0003
0020
0030
0200
3300
1000
0001
0000
,
1000
0100
0000
1000
0001
0000
0100
0001
0100
0001
0100
0000
0010
0000
0000
0000
,
0100
0010
0100
0010
1000
0001
1000
0001
0020
0000
0130
0000
1000
0000
0001
0000
,
0011
0000
0000
0000
0000
0000
0000
0000
0000
0000
0000
0000
0000
0000
0000
0000
1010
0000
0000
0000
0000
0000
0000
0000
0000
0000
0000
0000
0000
0000
0000
0000
0020
0030
0000
0000
0000
0000
0000
0000
0020
0030
0000
0000
0000
0000
0000
0000
0001
0000
0000
0000
0000
0000
0000
0000
0010
0000
0000
0000
0000
0000
0000
0000
,
0100
1000
0010
0120
0000
1030
0001
0000
,
0021
0000
0000
0000
0000
0000
0030
0001
,
0020
0000
0000
0031
2000
0000
3100
0002
,
0000
0103
2000
0000
3020
0000
0000
0000
,
1000
0000
0100
0000
,
0001
0000
0000
0000
1030
0000
0000
1000
,
0020
0000
0000
1030
0002
0000
0103
2000
,
0000
3100
0002
0000
0023
0000
0000
0000
,
0001
0000
0100
0000
,
1000
0000
0000
0000
0031
0000
0000
0001
,
0010
0000
0001
1000
0010
0000
1000
0200
,
0000
0310
0001
0000
0200
0000
0010
0000
,
0001
0001
0010
0010
,
1000
0000
0000
0000
1000
0000
0000
0000
0310
0000
0000
0000
0010
0000
0010
1000
,
0010
1000
0001
0010
0100
1000
0001
0100
,
0001
0010
0100
1000
0001
0100
0010
1000
,
0100
1000
0100
1000
0001
1000
0001
1000
0001
0100
0001
0100
0010
0100
0010
0100
,
0020
0000
0000
0000
0000
0000
0000
0000
0000
0000
0000
0000
0000
0000
0000
0000
0000
0000
0000
0000
0000
0000
0000
0000
0000
0000
0000
0000
0000
0000
0000
0000
1030
0000
0000
0000
0000
0000
0000
0000
0000
0000
0000
0000
0000
0000
0000
0000
0000
0000
0000
0000
0000
0000
0000
0000
0020
0030
0000
0000
0000
0000
0000
0000
,
0021
0030
0000
0000
0000
0000
0000
0000
0000
0000
0000
0000
0000
0000
0000
0000
0000
0000
0000
0000
0000
0000
0000
0000
0020
0030
0000
0000
0000
0000
0000
0000
0020
0030
0000
0000
0000
0000
0000
0000
0000
0000
0000
0000
0000
0000
0000
0000
1010
0000
0000
0000
0000
0000
0000
0000
0201
0000
0000
0000
0000
0000
0000
0000
,
0000
0000
0000
0000
0000
0000
0000
0000
2300
3000
0000
0000
0000
0000
0000
0000
2000
3000
0000
0000
0000
0000
0000
0000
0000
0000
0000
0000
0000
0000
0000
0000
0002
0000
0000
0000
0000
0000
0000
0000
1000
0000
0000
0000
0000
0000
0000
0000
2003
0000
0000
0000
0000
0000
0000
0000
3200
0300
0000
0000
0000
0000
0000
0000
,
0200
0300
0000
0000
0000
0000
0000
0000
0000
0000
0000
0000
0000
0000
0000
0000
2001
0000
0000
0000
0000
0000
0000
0000
3200
0300
0000
0000
0000
0000
0000
0000
0200
0300
0000
0000
0000
0000
0000
0000
0001
0000
0000
0000
0000
0000
0000
0000
1000
0000
0000
0000
0000
0000
0000
0000
0100
0000
0000
0000
0000
0000
0000
0000
,
0020
0130
0021
0030
1020
0030
1020
0130
,
0001
0000
0000
0000
0000
0000
0000
0000
1000
0000
0000
0000
0001
0000
0000
0000
1000
0000
0000
0000
0001
0000
0000
0000
1000
0000
0000
0000
0001
0000
0000
0000
1000
0000
0000
0000
0000
0000
0000
0000
0020
0030
0000
0000
0000
0000
0000
0000
0022
0030
0000
0000
0000
0000
0000
0000
0003
0000
0000
0000
0000
0000
0000
0000
,
1000
0000
0000
0000
0100
0000
0000
0000
1000
0000
0000
0000
0100
0000
0000
0000
1000
0000
0000
0000
0000
0000
0000
0000
0001
0000
0000
0000
1000
0000
0000
0000
0001
0000
0000
0000
0000
0000
0000
0000
0020
0030
0000
0000
0000
0000
0000
0000
2020
0030
0000
0000
0000
0000
0000
0000
3002
0000
0000
0000
0000
0000
0000
0000
,
0000
0013
0100
0010
0001
2000
0000
3020
,
1000
0000
0000
0000
0000
0000
0000
0000
0000
0000
0000
0000
0000
0000
0000
0000
0100
0000
0000
0000
0000
0000
0000
0000
0000
0000
0000
0000
0000
0000
0000
0000
0001
0000
0000
0000
0000
0000
0000
0000
0000
0000
0000
0000
0000
0000
0000
0000
2030
0000
0000
0000
0000
0000
0000
0000
3200
0300
0000
0000
0000
0000
0000
0000
,
0200
0300
0000
0000
0000
0000
0000
0000
0000
0000
0000
0000
0000
0000
0000
0000
0201
0000
0000
0000
0000
0000
0000
0000
0020
0330
0000
0000
0000
0000
0000
0000
0020
0030
0000
0000
0000
0000
0000
0000
0001
0000
0000
0000
0000
0000
0000
0000
1000
0000
0000
0000
0000
0000
0000
0000
0020
0000
0000
0000
0000
0000
0000
0000
,
0000
0000
0000
0000
0000
0000
0000
0000
0032
0003
0000
0000
0000
0000
0000
0000
0002
0003
0000
0000
0000
0000
0000
0000
0000
0000
0000
0000
0000
0000
0000
0000
2000
0000
0000
0000
0000
0000
0000
0000
0010
0000
0000
0000
0000
0000
0000
0000
3020
0000
0000
0000
0000
0000
0000
0000
0230
0300
0000
0000
0000
0000
0000
0000
,
0200
0300
0000
0000
0000
0000
0000
0000
1000
0000
0000
0000
0000
0000
0000
0000
0001
0000
0000
0000
0000
0000
0000
0000
0020
0030
0000
0000
0000
0000
0000
0000
0020
0030
0000
0000
0000
0000
0000
0000
1000
0000
0000
0000
0000
0000
0000
0000
0001
0000
0000
0000
0000
0000
0000
0000
2002
0000
0000
0000
0000
0000
0000
0000
,
3000
0200
0300
0020
0033
0001
2000
3000
,
0010
1000
0010
1000
0010
0100
0010
0100
0001
0000
1000
0000
0200
0000
0300
0000
,
0010
0001
0010
0001
0010
0100
0010
0100
1000
0100
1000
0000
0002
0000
0003
0000
,
1000
0000
0010
0000
0100
0010
0100
0000
0001
0100
0001
0100
0010
1000
0020
0000
,
2030
0000
3200
0000
0302
0000
2003
0000
3010
0100
0020
0000
0032
0000
0003
0000
,
0100
0001
0000
1000
0001
0000
0010
0100
0010
0100
0010
0000
0002
0000
0003
0000
,
0100
0010
0100
0010
1000
0001
1000
0001
0020
0000
0130
0000
1000
0000
0001
0000
,
0011
0000
0000
0000
0000
0000
0000
0000
0000
0000
0000
0000
0000
0000
0000
0000
1010
0000
0000
0000
0000
0000
0000
0000
0000
0000
0000
0000
0000
0000
0000
0000
0020
0030
0000
0000
0000
0000
0000
0000
0020
0030
0000
0000
0000
0000
0000
0000
0001
0000
0000
0000
0000
0000
0000
0000
0010
0000
0000
0000
0000
0000
0000
0000
,
0100
1000
0010
0110
0000
0100
0001
1000
,
1010
0000
0000
0000
0000
0000
0000
0000
0000
0000
0000
0000
0000
0000
0000
0000
0011
0000
0000
0000
0000
0000
0000
0000
0000
0000
0000
0000
0000
0000
0000
0000
0020
0030
0000
0000
0000
0000
0000
0000
0020
0030
0000
0000
0000
0000
0000
0000
1000
0000
0000
0000
0000
0000
0000
0000
0100
0000
0000
0000
0000
0000
0000
0000
,
0002
0003
0000
0000
0000
0000
0000
0000
0002
0003
0000
0000
0000
0000
0000
0000
0010
0000
0000
0000
0000
0000
0000
0000
0120
0000
0000
0000
0000
0000
0000
0000
0000
0000
0000
0000
0000
0000
0000
0000
0031
0000
0000
0000
0000
0000
0000
0000
1000
0000
0000
0000
0000
0000
0000
0000
0000
0000
0000
0000
0000
0000
0000
0000
,
0000
0000
0000
0000
;
#NOTES:
     dance-double:
     :
     Easy:
     4:
     :
00000000
00000000
00000000
00000000
,
00000000
00000000
00000000
00000000
,
00000000
00000000
00000000
00000000
,
00000000
00000000
00000000
00000000
,
00000000
00000000
00000000
00000000
,
00001000
00001000
00001000
00000000
,
00010000
00000000
00100000
00000000
,
10000000
10000000
10000000
00000000
,
10010000
00000000
00000000
00000000
,
00010000
00000000
10000000
00000000
,
01000000
00000000
00010000
00000000
,
00001000
00000000
00010000
00000000
,
00000010
00000010
00000010
00000000
,
00001000
00000000
00000001
00000000
,
00000100
00000000
00001000
00000000
,
00010000
00000000
00100000
00000000
,
01000000
01000000
01000000
00000000
,
00010000
10000000
00010000
00000000
,
10000000
00010000
10000000
00000000
,
00100000
00100000
00100000
00000000
,
01000000
00000000
00001000
00000000
,
00010000
00000000
00000010
00000000
,
00000100
00000000
00000001
00000000
,
00001000
00000000
00000100
00000100
,
00000100
00000000
00000000
00000000
,
00001000
00000001
00001000
00000000
,
00000001
00001000
00000001
00000000
,
00000010
00000010
00000010
00000000
,
00000100
00000000
00010000
00000000
,
00001000
00000000
00100000
00000000
,
00100000
00000000
00010000
00000000
,
10000000
00000000
10000000
00000000
,
00010000
00000000
00000000
00000000
,
00100000
00010000
00100000
00000000
,
00001000
00100000
00001000
00000000
,
00010000
00001000
00010000
00000000
,
00000010
00000000
00000100
00000000
,
00000001
00000001
00000001
00000000
,
00000010
00000010
00000010
00000000
,
00001000
00000000
00010000
00000000
,
00002000
00000000
00000000
00003000
,
00200000
00000000
00300000
00000000
,
00110000
00000000
00010000
00000000
,
10000000
10000000
10000000
00000000
,
10100000
00000000
10000000
00000000
,
00010000
00010000
00010000
00000000
,
00200000
00000000
00300000
00001000
,
00200000
00000000
00300000
00001000
,
00010000
00000000
00000010
00000000
,
00001000
00001000
00001000
00000000
,
00001010
00000000
00001000
00000000
,
00000001
00000001
00000001
00000000
,
00000011
00000000
00000001
00000000
,
00001000
00001000
00001000
00000000
,
00000020
00000000
00000030
00010000
,
00000020
00000000
00000030
00010000
,
00001000
00001000
00001000
00000000
,
00011000
00000000
00000000
00000000
,
00020000
00000000
00000000
00000000
,
00000010
00000000
00000000
00000000
,
00032000
00000000
00000000
00000000
,
00000000
00000000
00000000
00000000
,
00003000
00000000
00000000
00000000
,
00100000
00000000
00000000
00000000
,
00002000
00000000
00000000
00000000
,
00000000
00000000
00000000
00000000
,
00003000
00000000
00000000
00000000
,
00001000
00000000
00010000
00000000
,
00100000
00000000
20000000
00000000
,
00000000
00000000
00000000
00000000
,
00000000
00000000
30000000
00000000
,
01000000
00000000
00010000
00000000
,
00001000
00000000
00000200
00000000
,
00000000
00000000
00000000
00000000
,
00000000
00000000
00000300
00000000
,
00000101
00000000
00000000
00000000
,
00001001
00000000
00000000
00000000
,
00001100
00000000
00000100
00000000
,
00010000
00010000
00010000
00000000
,
00000020
00000000
00000030
00010000
,
00000020
00000000
00000030
00010000
,
00001000
00000000
00100000
00000000
,
00010000
00010000
00010000
00000000
,
01010000
00000000
00010000
00000000
,
10000000
10000000
10000000
00000000
,
11000000
00000000
10000000
00000000
,
00010000
00010000
00010000
00000000
,
00200000
00000000
00300000
00001000
,
00020000
00000000
00030000
00001000
,
00002000
00000000
00003000
00010000
,
00000020
00000000
00000030
00010000
,
00020000
00000000
00030000
00000100
,
00020000
00000000
00030000
00001000
,
00010000
00010000
00010000
00000000
,
00011000
00000000
00000000
00000000
,
00000010
00000010
00000010
00000000
,
00001001
00000000
00000000
00000000
,
00000000
00000000
00000000
00000000
;
#NOTES:
     dance-double:
     :
     Medium:
     9:
     :
00000000
00000000
00000000
00000000
,
00000000
00000000
00000000
00000000
,
00000000
00000000
00000000
00000000
,
00000000
00000000
00000000
00000000
,
00000000
00000000
00000000
00000000
,
00010000
00000000
00001000
00000000
00010000
00001000
00010000
00000000
,
00001000
00000010
00000001
00001000
,
00002001
00000000
00003001
00000000
00001000
00000001
00001000
00000000
,
00000100
00000000
00010000
00001000
00000000
00100000
00010000
00000000
,
10000000
00100000
10000000
01000000
,
00100000
00000000
00010000
00000000
10000000
00010000
10000000
00000000
,
01000000
00010000
00001000
00000100
,
00000010
00000010
00001000
00000000
,
00000001
00000010
00000001
00000100
,
00000010
00000000
00001000
00000000
00000001
00001000
00000001
00000000
,
00000100
00001000
00010000
01000000
,
10000000
00010000
10000000
00000000
,
01000000
00000000
10000000
00000000
01000000
10000000
01000000
00000000
,
00010000
00000000
00001000
00000000
00010000
00001000
00010000
00000000
,
00001000
00000100
00000010
00000020
,
00001030
00000001
00000010
00000100
,
00001000
00000000
00000000
00000000
00000010
00010000
00000000
00001000
,
00000000
00100000
00000000
01000000
00000000
10000000
00000000
00010000
,
01000000
00000000
01000000
00000000
00010000
00000000
00100000
00001000
,
00000000
00001000
00010000
00000000
00000010
00000000
00000000
00000000
,
00000100
00000000
00000001
00000000
00000100
00000001
00000100
00000000
,
00001000
00000000
00010000
00000000
00001000
00010000
00001000
00000000
,
00010000
01000000
00100000
00200000
,
00310000
10000000
00100000
01000000
,
00010000
00000000
00000000
00000000
00100000
00001000
00000000
00010000
,
00000000
00001000
00010000
00001000
00000000
00000010
00000001
00000000
,
00000010
00000010
00000100
00000200
,
00000000
00000000
00000000
00000000
00000300
00010000
00000000
00000000
,
00000100
00000000
00001000
00000000
00000100
00010000
00000100
00000000
,
00010000
00000000
00001000
00000000
01000000
00001000
01000000
00000000
,
00010000
00000000
10000000
00000000
01000000
10000000
01000000
10000000
,
00000000
00100000
00000000
00010000
00000000
00001000
00010000
00000000
,
00000100
00000000
00000100
00000000
00000100
00001000
00000100
00000000
,
00000010
00000000
00000010
00000000
00000010
00000001
00000010
00000000
,
00000001
00000100
00001000
00010000
,
00002000
00000000
00000000
00003000
,
00200000
00000000
00000000
00000000
00300000
00000000
00000000
00001000
,
00010000
00000000
00000000
00001000
00010000
00000000
01000000
10000000
,
00000000
00010000
01000000
00000000
00001000
00000000
00000000
00010000
,
00001000
00000000
00000000
00010000
00001000
00000000
00000100
00000001
,
00000000
00001000
00000001
00000000
00002000
00000000
00003000
00000000
,
00000020
00000000
00000000
00000000
00000030
00010000
00001000
00000000
,
00200000
00000000
00000000
00000000
00300000
00010000
10000000
00000000
,
00020000
00030000
20000000
30000000
,
00100000
00000000
00100000
00000000
10000000
00000000
01000000
00010000
,
00001000
00000000
00000000
00010000
00001000
00000000
00000100
00000001
,
00000000
00001000
00000001
00000000
00000100
00000000
00000000
00001000
,
00010000
00000000
00000000
00001000
00010000
00001000
00000000
00010000
,
00000000
01000000
00000000
10000000
00000000
00010000
00100000
00000000
,
00200000
00000000
00000000
00000000
00300000
00001000
00010000
00000000
,
00000020
00000000
00000000
00000000
00000030
00001000
00000001
00000000
,
00001002
00000000
00001003
00000000
00000001
00001000
00000001
00000000
,
00000100
00000000
00001000
00010000
00000000
00001000
00100000
00000000
,
00002000
00000000
00000000
00000000
,
01000000
00000000
01000000
00000000
,
00013000
00010000
00020000
00000000
,
00000000
00000000
00000000
00000000
,
00030000
00000000
00000000
00000000
,
00000100
00000000
00000100
00000000
,
00010000
00010000
00020000
00000000
,
00000000
00000000
00000000
00000000
,
00030000
00000000
00000000
00000000
,
00002000
00000000
00000000
00000000
,
00023000
00000000
02030000
00000000
,
23000000
00000000
30200000
00000000
,
00320000
00000000
00032000
00000000
,
00023000
00000000
00000000
00000000
,
00032000
00000000
00003020
00000000
,
00000032
00000000
00000203
00000000
,
00002300
00000000
00000000
00000000
00013000
00000000
00000000
00001000
,
00010000
00000000
00000000
00001000
00010000
00000000
00100000
10000000
,
00000000
00010000
00100000
00000000
00001000
00000000
00000000
00010000
,
00001000
00000000
00000000
00010000
00001000
00000000
00000010
00000001
,
00000000
00001000
00000001
00000000
00002000
00000000
00003000
00000000
,
00000200
00000000
00000000
00000000
00000300
00010000
00001000
00000000
,
02000000
00000000
00000000
00000000
03000000
00010000
10000000
00000000
,
00020000
00030000
20000000
30000000
,
01000000
00000000
01000000
00000000
10000000
00000000
00100000
00010000
,
00001000
00000000
00000000
00010000
00001000
00000000
00000010
00000001
,
00000000
00001000
00000001
00000000
00000010
00000000
00000000
00001000
,
00010000
00000000
00000000
00001000
00010000
00001000
00000000
00010000
,
00000000
00100000
00000000
10000000
00000000
00010000
01000000
00000000
,
02000000
00000000
00000000
00000000
03000000
00001000
00010000
00000000
,
00000200
00000000
00000000
00000000
00000300
00001000
00000001
00000000
,
00000020
00000000
00000000
00000000
00000030
00001000
00010000
00000000
,
00200000
00000000
00000000
00000000
00300000
10000000
00010000
00000000
,
00200000
00000000
00000000
00000000
00300000
00001000
00010000
00000000
,
00000020
00000000
00000000
00000000
00000030
00001000
00000001
00000000
,
00001002
00000000
00001003
00000000
00000001
00001000
00000001
00000000
,
00000100
00000000
00001000
00010000
00000000
00010000
00001000
00000000
,
00012000
00000000
00013000
00000000
00001000
00010000
00001000
00000000
,
00100000
00000000
00010000
10000000
00000000
00010000
00100000
00000000
,
00000000
00000000
00000000
00000000
;
#NOTES:
     dance-double:
     :
     Hard:
     12:
     :
00000000
00000000
00000000
00000000
,
00000000
00000000
00000000
00000000
,
00000000
00000000
00000000
00000000
,
00000000
00000000
00000000
00000000
,
00000000
00000000
00000000
00000000
,
00011000
00000000
00010000
00000000
00010000
00001000
00010000
00000000
,
00001000
00010000
00100000
02000000
00000000
03100000
10000000
00010000
,
10010000
00000000
10010000
00000000
10000000
00010000
00100000
01000000
,
00010000
00001000
00000010
00000002
00000000
00001003
00000010
00000000
,
00001000
00000100
00000010
00000001
00000000
00000001
00000100
00001000
,
00000000
00010000
00001000
00000000
00010000
00100000
10000000
00010000
,
10000000
01000000
00100000
00010000
00000000
01000000
00001000
00010000
,
00011000
01001000
01010000
00000000
,
00010000
01000000
00100000
10000000
00000000
10000000
01000000
00010000
,
00000000
00001000
00010000
00000000
00001000
00000010
00000001
00001000
,
00000001
00000100
00000010
00001000
00000000
00000100
00010000
00001000
,
00010000
00000000
01000000
00000000
10000000
00010000
10000000
00000000
,
00010000
00100000
00010000
10000000
00100000
01000000
00100000
00000000
,
00010000
00001000
00010000
00001000
00000010
00000100
00000010
00000000
,
00000001
00001000
00000001
00000100
00000020
00000130
00000020
00000030
,
00001000
00000100
00001000
00000100
00010000
00001000
00100000
00010000
,
01000000
00000000
00010000
00000000
10000000
00200000
00000000
00310000
,
00000000
00002000
00000000
00003010
00000000
00000002
00000000
00000103
,
00001000
00000000
00010000
00100000
10000000
01000000
00010000
00001000
,
00000000
00010000
00000010
00001000
00000001
00000000
00000000
00000000
,
00001000
00000010
00001000
00000001
00000010
00000100
00000010
00000000
,
00001000
00010000
00001000
00010000
00100000
01000000
00100000
00000000
,
10000000
00010000
10000000
01000000
00100000
01000000
00100000
00000000
,
00010000
01000000
00010000
01000000
00001000
00010000
00000010
00001000
,
00000100
00000000
00001000
00000000
00000001
00000020
00000000
00001030
,
00000000
00010000
00001000
00200000
00000000
00310000
10000000
00000000
,
01000000
00010000
00001000
00010000
00001000
00000100
00000001
00000200
,
00000000
00000000
00000000
00000000
00000300
00000002
00000000
00000000
,
00000013
00000100
00000010
00000100
00000010
00001000
00010000
00000000
,
00001000
00010000
00001000
00010000
00001000
00100000
00010000
00000000
,
00100000
00010000
00100000
00010000
00100000
01000000
10000000
00100000
,
00000000
01000000
00010000
01000000
00000000
00001000
00010000
00000000
,
00000100
00010000
00000100
00001000
00000001
00000100
00001000
00000000
,
00010000
00000100
00010000
00001000
01000000
00010000
10000000
00000000
,
00010000
00100000
00010000
00100000
00001000
00010000
00001000
00010000
,
00000020
00000000
00000000
00000030
,
00001001
00000000
00000000
00001000
00000000
00000000
00001000
00000000
00000200
00000000
00000000
00000000
00000000
00000000
00000310
00000000
,
00000010
00000001
00001000
00000010
00000010
00001000
00000100
00020000
,
00000000
00031000
01000000
00000000
00010000
10000000
00020000
01000000
,
01030000
00010000
10000000
01000000
01000000
00010000
00001000
00020000
,
00000000
00031000
00000010
00000000
00000021
00000000
00000130
00001000
,
00000001
00000000
00000000
00000001
00000000
00000000
00000001
00000000
00000020
00000000
00000000
00000000
00001030
00000000
00000000
00000000
,
00010000
00000000
00000000
00010000
00000000
00000000
00010000
00000000
00200000
00000000
00000000
00000000
10300000
00000000
00010000
00000000
,
00000000
00100000
01000000
00100000
00001000
00010000
00000000
00002000
,
01000000
00000000
00010000
00000000
00100000
00000000
00023000
00100000
,
00130000
00000000
20000000
00010000
00010000
00000000
31000000
00020000
,
00000000
00031000
00000020
00000000
00000031
00001000
00000002
00000100
,
00000103
00000001
00001000
00000100
00000100
00010000
00001000
00020000
,
00000000
00230000
00000000
20300000
00000000
30010000
10000000
00000000
,
00020000
00000000
10000000
00000000
00130000
00010000
00100000
00000000
,
00002000
00000000
00010000
00000000
00003020
00000130
00001000
00000001
,
00001001
00000000
00001001
00000000
00000001
00001000
00000010
00000100
,
00001000
00010000
00100000
20000000
00000000
30010000
00100000
00000000
,
00210000
00000000
00000000
00000000
00000000
00000000
00000000
01000000
,
01000000
00000000
00000000
00010000
00010000
00000000
00301000
00020000
,
00000000
00031000
00000010
00000000
00000020
00000000
00000000
00000000
,
00000100
00000000
00001000
00000000
,
00000100
00000000
00000000
00000000
00000031
00000000
00000000
00000001
,
00000001
00000000
00000000
00000100
00000100
00000000
00001000
00020000
,
00000000
00031000
00010000
00000000
00200000
00000000
00000000
00000000
,
01000000
00000000
00010000
00000000
,
01000000
00000000
00000000
00000000
10300000
00000000
00000000
00010000
,
10000000
00000000
00000000
00010000
00010000
00000000
01000000
00200000
,
00000000
00310000
00001000
00000000
00020000
00000000
00000000
00000000
,
00001000
00000000
00030200
00000000
,
00000010
00000000
00000000
00000000
00001300
00000000
00000000
00000001
,
00000001
00000000
00000000
00001000
00001000
00000000
00000100
00000020
,
00000000
00001030
00010000
00000000
00002000
00000000
00000000
00000000
,
00010000
00000000
02003000
00000000
,
00100000
00000000
00000000
00000000
03010000
00000000
00000000
10000000
,
10000000
00000000
00000000
00010000
00010000
00000000
00100000
00010000
,
00000000
00100000
00002000
00000000
00023000
00000000
00000000
00000010
,
00030010
00000000
00002000
00000010
00003010
00000000
00010000
00002000
,
00000000
00013000
00100000
00000000
10200000
00000000
01300000
00010000
,
10000000
00000000
00000000
10000000
00000000
00000000
10000000
00000000
00200000
00000000
00000000
00000000
00310000
00000000
00000000
00000000
,
00001000
00000000
00000000
00001000
00000000
00000000
00001000
00000000
00000020
00000000
00000000
00000000
00000031
00000000
00001000
00000000
,
00000000
00000010
00000100
00000010
00010000
00001000
00000000
00020000
,
00000100
00000000
00001000
00000000
00000010
00000000
00032000
00000010
,
00003010
00000000
00000002
00001000
00001000
00000000
00000103
00002000
,
00000000
00013000
00200000
00000000
10300000
00010000
20000000
01000000
,
31000000
10000000
00010000
01000000
01000000
00001000
00010000
00002000
,
00000000
00003020
00000000
00000032
00000000
00001003
00000001
00000000
,
00002000
00000000
00000001
00000000
00003010
00001000
00000010
00000000
,
00020000
00000000
00001000
00000000
00130000
01000000
00010000
00000000
,
20000000
00000000
01000000
00000000
30010000
00100000
00001000
00000000
,
00020000
00032000
00003020
00000032
00000203
00002300
00013000
00000000
,
00002000
00000000
00010000
00000000
01003000
00010000
01000000
00000000
,
00020000
00000000
10000000
00000000
00230000
01300000
10000000
00010000
,
10010000
00000000
10010000
00000000
10000000
00010000
00100000
01000000
,
00010000
00001000
00000010
00000002
00000000
00000103
00000001
00001000
,
00001001
00000000
00001001
00000000
00000001
00001000
00000010
00000100
,
00001000
00010000
00100000
20000000
00000000
30010000
00100000
00000000
,
00000000
00000000
00000000
00000000
;
#NOTES:
     dance-double:
     :
     Challenge:
     15:
     :
00000000
00000000
00000000
00000000
,
00000000
00000000
00000000
00000000
,
00000000
00000000
00000000
00000000
,
00000000
00000000
00000000
00000000
,
00000000
00000000
00000000
00000000
,
00011000
00000000
00000000
00000000
00000000
00000000
00000000
00000000
00000000
00000000
00000000
00000000
00000000
00000000
00000000
00000000
01010000
00000000
00000000
00000000
00000000
00000000
00000000
00000000
00000000
00000000
00000000
00000000
00000000
00000000
00000000
00000000
02000000
03000000
00000000
00000000
00000000
00000000
00000000
00000000
02000000
03000000
00000000
00000000
00000000
00000000
00000000
00000000
10000000
00000000
00000000
00000000
00000000
00000000
00000000
00000000
00000000
00000000
00000000
00000000
00000000
00000000
00000000
00000000
,
00010000
10000000
00010000
10000000
00010000
00000000
00100000
00001000
00100000
00000000
01000000
00000000
00010000
00000000
00001000
00000000
,
00011000
00000000
00000000
00000000
00000000
00000000
00000000
00000000
00000000
00000000
00000000
00000000
00000000
00000000
00000000
00000000
00001010
00000000
00000000
00000000
00000000
00000000
00000000
00000000
00000000
00000000
00000000
00000000
00000000
00000000
00000000
00000000
00000020
00000030
00000000
00000000
00000000
00000000
00000000
00000000
00000020
00000030
00000000
00000000
00000000
00000000
00000000
00000000
00000001
00000000
00000000
00000000
00000000
00000000
00000000
00000000
00000100
00000000
00000000
00000000
00000000
00000000
00000000
00000000
,
00001000
00010000
00100000
01200000
00000000
10300000
00010000
00000000
,
00010000
00000000
00100000
00000000
01000000
00000000
10000000
00000000
00010000
00000000
00100000
00010000
00100000
00000000
00001000
00000000
,
00010000
00000000
00000000
00000000
00000000
00000000
00000000
00000000
00000020
00000030
00000000
00000000
00000000
00000000
00000000
00000000
00000020
00000030
00000000
00000000
00000000
00000000
00000000
00000000
00000001
00000000
00000000
00000000
00000000
00000000
00000000
00000000
00001000
00000000
00000000
00000000
00000000
00000000
00000000
00000000
00000100
00000000
00000000
00000000
00000000
00000000
00000000
00000000
00000010
00000000
00000000
00000000
00000000
00000000
00000000
00000000
00000001
00000000
00000000
00000000
00000000
00000000
00000000
00000000
,
00000100
00000000
00001000
00000000
00010000
00000000
00100000
00000000
10000000
00000000
00010000
10000000
00010000
00000000
01000000
00000000
,
01010000
00000000
00011000
00000000
00001100
00001000
00000001
00000000
,
00001000
00000000
00000010
00000000
00000100
00000000
00000001
00000000
00001000
00000000
00000010
00001000
00000010
00000000
00010000
00000000
,
00001000
00000000
00000000
00000000
00000000
00000000
00000000
00000000
00200000
00300000
00000000
00000000
00000000
00000000
00000000
00000000
00200000
00300000
00000000
00000000
00000000
00000000
00000000
00000000
10000000
00000000
00000000
00000000
00000000
00000000
00000000
00000000
00010000
00000000
00000000
00000000
00000000
00000000
00000000
00000000
01000000
00000000
00000000
00000000
00000000
00000000
00000000
00000000
00100000
00000000
00000000
00000000
00000000
00000000
00000000
00000000
10000000
00000000
00000000
00000000
00000000
00000000
00000000
00000000
,
01000000
00000000
00010000
00000000
00001000
00000000
00000010
00000000
00000001
00000000
00001000
00000001
00001000
00000000
00000100
00000000
,
00010000
00001000
00010000
00100000
10000000
00010000
00100000
00000000
,
00001000
00010000
00001000
00000000
00010000
00000000
00000100
00001000
00000100
00000000
00001000
00000000
00000001
00000000
00000010
00000000
,
00000100
00000000
00010000
00001000
00010000
00000000
00001000
00010000
00001000
00000000
01000000
00000000
00010000
00000000
00100000
00000000
,
00010000
00000000
00000000
00000000
00000000
00000000
00000000
00000000
10000000
00000000
00000000
00000000
01000000
00000000
00000000
00000000
10000000
00000000
00000000
00000000
00000000
00000000
00000000
00000000
00010000
00000000
00000000
00000000
01000000
00000000
00000000
00000000
00010000
00000000
00000000
00000000
00000000
00000000
00000000
00000000
10000000
00000000
00000000
00000000
00000000
00000000
00000000
00000000
00200000
00300000
00000000
00000000
00000000
00000000
00000000
00000000
00200000
00300000
00000000
00000000
00000000
00000000
00000000
00000000
,
00010000
00000000
00000000
00000000
00000000
00000000
00000000
00000000
10000000
00000000
00000000
00000000
00000000
00000000
00000000
00000000
00010000
00000000
00000000
00000000
00000000
00000000
00000000
00000000
10000000
00000000
00000000
00000000
00000000
00000000
00000000
00000000
00200000
00300000
00000000
00000000
00000000
00000000
00000000
00000000
00200000
00300000
00000000
00000000
00000000
00000000
00000000
00000000
00001000
00000000
00000000
00000000
00000000
00000000
00000000
00000000
00010000
00000000
00000000
00000000
00000000
00000000
00000000
00000000
,
00000100
00000000
00001100
00000000
00000002
00000023
00000001
00000230
,
00000010
00002300
00000100
00003200
00001000
00020300
00000100
00032000
,
00013000
00000000
00000000
00000000
00000000
00000000
00000000
00000000
00000000
00000000
00000000
00000000
00000000
00000000
00000000
00000000
00011000
00000000
00000000
00000000
00000000
00000000
00000000
00000000
00001000
00000000
00000000
00000000
00000000
00000000
00000000
00000000
00010000
00000000
00000000
00000000
00000000
00000000
00000000
00000000
00100000
00000000
00000000
00000000
00000000
00000000
00000000
00000000
01000000
00000000
00000000
00000000
00000000
00000000
00000000
00000000
20000000
30000000
00000000
00000000
00000000
00000000
00000000
00000000
,
00000000
00000000
00000000
00000000
00000000
00000000
00000000
00000000
20000000
30000000
00000000
00000000
00000000
00000000
00000000
00000000
00100000
00000000
00000000
00000000
00000000
00000000
00000000
00000000
01000000
00000000
00000000
00000000
00000000
00000000
00000000
00000000
00010000
00000000
00000000
00000000
00000000
00000000
00000000
00000000
00000000
00000000
00000000
00000000
00000000
00000000
00000000
00000000
00000000
00000000
00000000
00000000
00000000
00000000
00000000
00000000
00000000
00000000
00000000
00000000
00000000
00000000
00000000
00000000
,
01000000
00010000
01000000
00010000
01000000
00000000
00001000
00010000
00001000
00000000
00010000
00000000
00000100
00000000
00000010
00000000
,
00000001
00001000
00000000
00000001
00001000
00000000
00000100
00000000
00010000
00001000
00010000
00001000
00010000
00000000
00100000
00000000
,
10000000
00000000
00010000
10000000
00010000
00000000
01000000
00000000
00001000
00010000
00001000
00010000
00001000
00010000
00000010
00000000
,
00001000
00000000
00000000
00000000
00000000
00000000
00000000
00000000
00000001
00000000
00000000
00000000
00000000
00000000
00000000
00000000
00001000
00000000
00000000
00000000
00000000
00000000
00000000
00000000
00000001
00000000
00000000
00000000
00000000
00000000
00000000
00000000
00000020
00000030
00000000
00000000
00000000
00000000
00000000
00000000
00000020
00000030
00000000
00000000
00000000
00000000
00000000
00000000
00010000
00000000
00000000
00000000
00000000
00000000
00000000
00000000
00001000
00000000
00000000
00000000
00000000
00000000
00000000
00000000
,
01000000
00000000
01010000
00000000
20000000
32000000
10000000
03200000
,
01000000
00320000
00230000
00302000
00100000
00023000
00031000
00000000
,
00010010
00010000
00001000
00000010
00000001
00001000
00000100
00000020
,
00000000
00000000
00000000
00000030
00000000
00002001
00000000
00003000
,
00000001
00000100
00001000
00010000
01000000
10000000
00020000
00000000
,
10030000
01000000
00010000
00001000
00000100
00000001
00002000
00000000
,
00003001
00000010
00001000
00010000
00100000
10000000
00010000
00100000
,
00000000
00101000
00002000
00020000
00033000
00020000
00000020
00030030
,
00010000
00000000
00000010
00001000
00000010
00000000
00000100
00000001
00000000
00000100
00000001
00000000
00000100
00000000
00000000
00000000
,
00001000
00000000
00010000
00000000
00001000
00010000
00001000
00000000
00100000
00000000
00010000
00000000
10000000
00000000
00000000
00000000
,
01000000
00010000
00001000
00010000
00001000
00000010
00000001
00000200
,
00000020
00000000
00000000
00000330
,
00001020
00000000
00000000
00000000
00000000
00000000
00000000
00000000
00000000
00000000
00000000
00000000
00001000
00000000
00000000
00000000
00000000
00000000
00000000
00000000
00000000
00000000
00000000
00000000
00001000
00000000
00000000
00000000
00000000
00000000
00000000
00000000
00000230
00000000
00000000
00000000
00000000
00000000
00000000
00000000
00000000
00000000
00000000
00000000
00000000
00000000
00000000
00000000
00000300
00000000
00000000
00000000
00000000
00000000
00000000
00000000
00000020
00000030
00000000
00000000
00000000
00000000
00000000
00000000
,
00000020
00000030
00000000
00000000
00000000
00000000
00000000
00000000
00000001
00000000
00000000
00000000
00000000
00000000
00000000
00000000
00001000
00000000
00000000
00000000
00000000
00000000
00000000
00000000
00000020
00000030
00000000
00000000
00000000
00000000
00000000
00000000
00000020
00000030
00000000
00000000
00000000
00000000
00000000
00000000
00000001
00000000
00000000
00000000
00000000
00000000
00000000
00000000
00001000
00000000
00000000
00000000
00000000
00000000
00000000
00000000
00000200
00000000
00000000
00000000
00000000
00000000
00000000
00000000
,
00000000
00000000
00000000
00000000
00000000
00000000
00000000
00000000
00020300
00030000
00000000
00000000
00000000
00000000
00000000
00000000
00020000
00030000
00000000
00000000
00000000
00000000
00000000
00000000
00000000
00000000
00000000
00000000
00000000
00000000
00000000
00000000
20000000
00000000
00000000
00000000
00000000
00000000
00000000
00000000
00100000
00000000
00000000
00000000
00000000
00000000
00000000
00000000
30200000
00000000
00000000
00000000
00000000
00000000
00000000
00000000
02300000
03000000
00000000
00000000
00000000
00000000
00000000
00000000
,
02000000
03000000
00000000
00000000
00000000
00000000
00000000
00000000
10000000
00000000
00000000
00000000
00000000
00000000
00000000
00000000
00010000
00000000
00000000
00000000
00000000
00000000
00000000
00000000
02000000
03000000
00000000
00000000
00000000
00000000
00000000
00000000
02000000
03000000
00000000
00000000
00000000
00000000
00000000
00000000
10000000
00000000
00000000
00000000
00000000
00000000
00000000
00000000
00010000
00000000
00000000
00000000
00000000
00000000
00000000
00000000
00100000
00000000
00000000
00000000
00000000
00000000
00000000
00000000
,
00002000
00103000
00012000
00003000
00020010
00030000
00020010
00031000
,
00010000
00000000
00000000
00000000
00000000
00000000
00000000
00000000
00000100
00000000
00000000
00000000
00001000
00000000
00000000
00000000
00000000
00000000
00000000
00000000
00000001
00000000
00000000
00000000
00000000
00000000
00000000
00000000
00001000
00000000
00000000
00000000
00000001
00000000
00000000
00000000
00000000
00000000
00000000
00000000
00000020
00000030
00000000
00000000
00000000
00000000
00000000
00000000
00002020
00000030
00000000
00000000
00000000
00000000
00000000
00000000
00003000
00000000
00000000
00000000
00000000
00000000
00000000
00000000
,
00000010
00000000
00000000
00000000
00010000
00000000
00000000
00000000
00001000
00000000
00000000
00000000
00000000
00000000
00000000
00000000
00100000
00000000
00000000
00000000
00000000
00000000
00000000
00000000
00010000
00000000
00000000
00000000
00100000
00000000
00000000
00000000
00010000
00000000
00000000
00000000
00000000
00000000
00000000
00000000
00200000
00300000
00000000
00000000
00000000
00000000
00000000
00000000
20200000
00300000
00000000
00000000
00000000
00000000
00000000
00000000
30020000
00000000
00000000
00000000
00000000
00000000
00000000
00000000
,
00000000
00130000
01000000
00100000
00001000
00020000
00000000
00030020
,
00001000
00000000
00000000
00000000
00000000
00000000
00000000
00000000
00000000
00000000
00000000
00000000
00000000
00000000
00000000
00000000
00000100
00000000
00000000
00000000
00000000
00000000
00000000
00000000
00000000
00000000
00000000
00000000
00000000
00000000
00000000
00000000
00000001
00000000
00000000
00000000
00000000
00000000
00000000
00000000
00000000
00000000
00000000
00000000
00000000
00000000
00000000
00000000
00002030
00000000
00000000
00000000
00000000
00000000
00000000
00000000
00003200
00000300
00000000
00000000
00000000
00000000
00000000
00000000
,
00000200
00000300
00000000
00000000
00000000
00000000
00000000
00000000
00000000
00000000
00000000
00000000
00000000
00000000
00000000
00000000
00000201
00000000
00000000
00000000
00000000
00000000
00000000
00000000
00000020
00000330
00000000
00000000
00000000
00000000
00000000
00000000
00000020
00000030
00000000
00000000
00000000
00000000
00000000
00000000
00000001
00000000
00000000
00000000
00000000
00000000
00000000
00000000
00001000
00000000
00000000
00000000
00000000
00000000
00000000
00000000
00000020
00000000
00000000
00000000
00000000
00000000
00000000
00000000
,
00000000
00000000
00000000
00000000
00000000
00000000
00000000
00000000
00020030
00030000
00000000
00000000
00000000
00000000
00000000
00000000
00020000
00030000
00000000
00000000
00000000
00000000
00000000
00000000
00000000
00000000
00000000
00000000
00000000
00000000
00000000
00000000
20000000
00000000
00000000
00000000
00000000
00000000
00000000
00000000
00100000
00000000
00000000
00000000
00000000
00000000
00000000
00000000
30200000
00000000
00000000
00000000
00000000
00000000
00000000
00000000
02300000
03000000
00000000
00000000
00000000
00000000
00000000
00000000
,
02000000
03000000
00000000
00000000
00000000
00000000
00000000
00000000
10000000
00000000
00000000
00000000
00000000
00000000
00000000
00000000
00010000
00000000
00000000
00000000
00000000
00000000
00000000
00000000
00200000
00300000
00000000
00000000
00000000
00000000
00000000
00000000
00200000
00300000
00000000
00000000
00000000
00000000
00000000
00000000
10000000
00000000
00000000
00000000
00000000
00000000
00000000
00000000
00010000
00000000
00000000
00000000
00000000
00000000
00000000
00000000
20020000
00000000
00000000
00000000
00000000
00000000
00000000
00000000
,
30000000
02000000
03000000
00200000
00330000
00001000
00010000
00000000
,
00000010
00001000
00000000
00000001
00000010
00000000
00000100
00001000
00000000
00000100
00010000
00000000
00001000
00000000
00000000
00000000
,
01000000
00000000
00000000
00000000
00000000
00000000
00000000
00000000
00000000
00000000
00000000
00000000
00000000
00000000
00000000
00000000
00000000
00000000
00000000
00000000
00000000
00000000
00000000
00000000
00010000
00000000
00000000
00000000
00000000
00000000
00000000
00000000
00000000
00000000
00000000
00000000
00000000
00000000
00000000
00000000
00000000
00000000
00000000
00000000
00000000
00000000
00000000
00000000
10000000
00000000
00000000
00000000
00000000
00000000
00000000
00000000
00000000
00000000
00000000
00000000
00010000
00000000
00000000
00000000
00000000
00000000
00000000
00000000
00000000
00000000
00000000
00000000
10000000
00000000
00000000
00000000
00000000
00000000
00000000
00000000
00000000
00000000
00000000
00000000
00010000
00000000
00000000
00000000
00000000
00000000
00000000
00000000
00000000
00000000
00000000
00000000
00200000
00000000
00000000
00000000
00000000
00000000
00000000
00000000
00000000
00000000
00000000
00000000
00000000
00000000
00000000
00000000
00000000
00000000
00000000
00000000
00000000
00000000
00000000
00300000
01000000
00000000
00000000
00000000
00000000
00000000
00000000
00000000
00000000
00000000
00000000
00000000
00000000
00000000
00000000
00000000
00000000
00000000
00000000
00000000
00000000
00000000
00000000
00000000
00010000
00000000
00000000
00000000
00000000
00000000
00000000
00000000
00000000
00000000
00000000
00000000
00000000
00000000
00000000
00000000
00000000
00000000
00000000
00000000
00000000
00000000
00000000
00000000
00001000
00000000
00000000
00000000
00000000
00000000
00000000
00000000
00000000
00000000
00000000
00000000
00000000
00000000
00000000
00000000
00000000
00000000
00000000
00000000
00000000
00000000
00000000
00000000
,
00011000
00000000
00000000
00000000
00000000
00000000
00000000
00000000
00000000
00000000
00000000
00000000
00000000
00000000
00000000
00000000
00001010
00000000
00000000
00000000
00000000
00000000
00000000
00000000
00000000
00000000
00000000
00000000
00000000
00000000
00000000
00000000
00000020
00000030
00000000
00000000
00000000
00000000
00000000
00000000
00000020
00000030
00000000
00000000
00000000
00000000
00000000
00000000
00000001
00000000
00000000
00000000
00000000
00000000
00000000
00000000
00000100
00000000
00000000
00000000
00000000
00000000
00000000
00000000
,
00001000
00010000
00100000
01200000
00000000
10300000
00010000
00000000
,
10020000
00000000
00000000
00000000
00000000
00000000
00000000
10030000
,
00200000
00000000
00000000
00310000
00002000
00000000
00003010
00000002
,
00000000
00000103
00000020
00000000
00002030
00000000
00000000
00000000
,
00000100
00000000
00010000
00000000
,
00000100
00000000
00000000
00000000
00003001
00000000
00000000
00000001
,
00000010
00000000
00000000
00001000
00010000
00000000
00100000
10000000
,
00000000
01000000
00100000
00000000
00020000
00000000
00000000
00000000
,
10000000
00000000
01000000
00000000
,
00001000
00000000
00000000
00000000
01030000
00000000
00000000
00001000
,
00100000
00000000
00001000
00010000
00000010
00000000
00001000
00000200
,
00000000
00000310
00000001
00000000
00002000
00000000
00000010
00000000
,
00023000
01000000
10000000
00100000
,
00032000
00000000
00000000
00000000
00000100
00000000
00000000
00000000
00000001
00000000
00000000
00000000
00003010
00000000
00000010
00001000
,
00000010
00001000
00000001
00000100
00001000
00010000
00100000
10000000
,
01000000
00010000
00001000
00000010
00000001
00000100
00001000
00010000
,
00001000
00100000
00001000
00100000
00010000
00100000
00010000
00100000
00010000
10000000
00010000
10000000
00100000
10000000
00100000
10000000
,
00200000
00000000
00000000
00000000
00000000
00000000
00000000
00000000
00000000
00000000
00000000
00000000
00000000
00000000
00000000
00000000
00000000
00000000
00000000
00000000
00000000
00000000
00000000
00000000
00000000
00000000
00000000
00000000
00000000
00000000
00000000
00000000
01300000
00000000
00000000
00000000
00000000
00000000
00000000
00000000
00000000
00000000
00000000
00000000
00000000
00000000
00000000
00000000
00000000
00000000
00000000
00000000
00000000
00000000
00000000
00000000
00200000
00300000
00000000
00000000
00000000
00000000
00000000
00000000
,
00210000
00300000
00000000
00000000
00000000
00000000
00000000
00000000
00000000
00000000
00000000
00000000
00000000
00000000
00000000
00000000
00000000
00000000
00000000
00000000
00000000
00000000
00000000
00000000
00200000
00300000
00000000
00000000
00000000
00000000
00000000
00000000
00200000
00300000
00000000
00000000
00000000
00000000
00000000
00000000
00000000
00000000
00000000
00000000
00000000
00000000
00000000
00000000
10100000
00000000
00000000
00000000
00000000
00000000
00000000
00000000
02010000
00000000
00000000
00000000
00000000
00000000
00000000
00000000
,
00000000
00000000
00000000
00000000
00000000
00000000
00000000
00000000
03002000
00003000
00000000
00000000
00000000
00000000
00000000
00000000
00002000
00003000
00000000
00000000
00000000
00000000
00000000
00000000
00000000
00000000
00000000
00000000
00000000
00000000
00000000
00000000
00000002
00000000
00000000
00000000
00000000
00000000
00000000
00000000
00001000
00000000
00000000
00000000
00000000
00000000
00000000
00000000
00002003
00000000
00000000
00000000
00000000
00000000
00000000
00000000
00003200
00000300
00000000
00000000
00000000
00000000
00000000
00000000
,
00000200
00000300
00000000
00000000
00000000
00000000
00000000
00000000
00000000
00000000
00000000
00000000
00000000
00000000
00000000
00000000
00002001
00000000
00000000
00000000
00000000
00000000
00000000
00000000
00003200
00000300
00000000
00000000
00000000
00000000
00000000
00000000
00000200
00000300
00000000
00000000
00000000
00000000
00000000
00000000
00000001
00000000
00000000
00000000
00000000
00000000
00000000
00000000
00001000
00000000
00000000
00000000
00000000
00000000
00000000
00000000
00000100
00000000
00000000
00000000
00000000
00000000
00000000
00000000
,
00020000
00030010
00021000
00030000
00102000
00003000
00102000
00013000
,
00001000
00000000
00000000
00000000
00000000
00000000
00000000
00000000
01000000
00000000
00000000
00000000
00010000
00000000
00000000
00000000
01000000
00000000
00000000
00000000
00010000
00000000
00000000
00000000
10000000
00000000
00000000
00000000
00010000
00000000
00000000
00000000
10000000
00000000
00000000
00000000
00000000
00000000
00000000
00000000
00200000
00300000
00000000
00000000
00000000
00000000
00000000
00000000
00220000
00300000
00000000
00000000
00000000
00000000
00000000
00000000
00030000
00000000
00000000
00000000
00000000
00000000
00000000
00000000
,
00100000
00000000
00000000
00000000
00001000
00000000
00000000
00000000
00010000
00000000
00000000
00000000
00000000
00000000
00000000
00000000
00000010
00000000
00000000
00000000
00000000
00000000
00000000
00000000
00001000
00000000
00000000
00000000
00000010
00000000
00000000
00000000
00001000
00000000
00000000
00000000
00000000
00000000
00000000
00000000
00000020
00000030
00000000
00000000
00000000
00000000
00000000
00000000
00000022
00000030
00000000
00000000
00000000
00000000
00000000
00000000
00002003
00000000
00000000
00000000
00000000
00000000
00000000
00000000
,
00000000
00003010
00000100
00000010
00010000
00002000
00000000
00203000
,
00010000
00000000
00000000
00000000
00000000
00000000
00000000
00000000
00000000
00000000
00000000
00000000
00000000
00000000
00000000
00000000
01000000
00000000
00000000
00000000
00000000
00000000
00000000
00000000
00000000
00000000
00000000
00000000
00000000
00000000
00000000
00000000
10000000
00000000
00000000
00000000
00000000
00000000
00000000
00000000
00000000
00000000
00000000
00000000
00000000
00000000
00000000
00000000
00320000
00000000
00000000
00000000
00000000
00000000
00000000
00000000
02030000
03000000
00000000
00000000
00000000
00000000
00000000
00000000
,
02000000
03000000
00000000
00000000
00000000
00000000
00000000
00000000
00000000
00000000
00000000
00000000
00000000
00000000
00000000
00000000
12000000
00000000
00000000
00000000
00000000
00000000
00000000
00000000
00200000
03300000
00000000
00000000
00000000
00000000
00000000
00000000
00200000
00300000
00000000
00000000
00000000
00000000
00000000
00000000
10000000
00000000
00000000
00000000
00000000
00000000
00000000
00000000
00010000
00000000
00000000
00000000
00000000
00000000
00000000
00000000
00200000
00000000
00000000
00000000
00000000
00000000
00000000
00000000
,
00000000
00000000
00000000
00000000
00000000
00000000
00000000
00000000
00302000
00003000
00000000
00000000
00000000
00000000
00000000
00000000
00002000
00003000
00000000
00000000
00000000
00000000
00000000
00000000
00000000
00000000
00000000
00000000
00000000
00000000
00000000
00000000
00000002
00000000
00000000
00000000
00000000
00000000
00000000
00000000
00000010
00000000
00000000
00000000
00000000
00000000
00000000
00000000
00000023
00000000
00000000
00000000
00000000
00000000
00000000
00000000
00000230
00000300
00000000
00000000
00000000
00000000
00000000
00000000
,
00000200
00000300
00000000
00000000
00000000
00000000
00000000
00000000
00000001
00000000
00000000
00000000
00000000
00000000
00000000
00000000
00001000
00000000
00000000
00000000
00000000
00000000
00000000
00000000
00000020
00000030
00000000
00000000
00000000
00000000
00000000
00000000
00000020
00000030
00000000
00000000
00000000
00000000
00000000
00000000
00000001
00000000
00000000
00000000
00000000
00000000
00000000
00000000
00001000
00000000
00000000
00000000
00000000
00000000
00000000
00000000
00002002
00000000
00000000
00000000
00000000
00000000
00000000
00000000
,
00000003
00000020
00000030
00000200
00003300
00010000
00002000
00003000
,
00100000
00010000
00100000
00010000
00100000
01000000
00100000
01000000
10000000
00000000
00010000
00000000
02000000
00000000
03000000
00000000
,
00001000
00010000
00001000
00010000
00000010
00001000
00000010
00001000
00000001
00000010
00000001
00000000
00002000
00000000
00003000
00000000
,
00000001
00000000
00000010
00000000
00001000
00000000
00010000
00000000
00100000
01000000
00100000
01000000
00010000
10000000
00020000
00000000
,
20030000
00000000
32000000
00000000
03020000
00000000
00032000
00000000
00003010
00000100
00000020
00000000
00000032
00000000
00000003
00000000
,
00001000
00000010
00000000
00010000
00000010
00000000
00010000
00001000
00010000
00001000
00010000
00000000
00001000
00000000
00000000
00000000
,
01000000
00000000
00000000
00000000
00000000
00000000
00000000
00000000
00000000
00000000
00000000
00000000
00000000
00000000
00000000
00000000
00000000
00000000
00000000
00000000
00000000
00000000
00000000
00000000
00010000
00000000
00000000
00000000
00000000
00000000
00000000
00000000
00000000
00000000
00000000
00000000
00000000
00000000
00000000
00000000
00000000
00000000
00000000
00000000
00000000
00000000
00000000
00000000
10000000
00000000
00000000
00000000
00000000
00000000
00000000
00000000
00000000
00000000
00000000
00000000
00010000
00000000
00000000
00000000
00000000
00000000
00000000
00000000
00000000
00000000
00000000
00000000
10000000
00000000
00000000
00000000
00000000
00000000
00000000
00000000
00000000
00000000
00000000
00000000
00010000
00000000
00000000
00000000
00000000
00000000
00000000
00000000
00000000
00000000
00000000
00000000
00200000
00000000
00000000
00000000
00000000
00000000
00000000
00000000
00000000
00000000
00000000
00000000
00000000
00000000
00000000
00000000
00000000
00000000
00000000
00000000
00000000
00000000
00000000
00300000
01000000
00000000
00000000
00000000
00000000
00000000
00000000
00000000
00000000
00000000
00000000
00000000
00000000
00000000
00000000
00000000
00000000
00000000
00000000
00000000
00000000
00000000
00000000
00000000
00010000
00000000
00000000
00000000
00000000
00000000
00000000
00000000
00000000
00000000
00000000
00000000
00000000
00000000
00000000
00000000
00000000
00000000
00000000
00000000
00000000
00000000
00000000
00000000
00001000
00000000
00000000
00000000
00000000
00000000
00000000
00000000
00000000
00000000
00000000
00000000
00000000
00000000
00000000
00000000
00000000
00000000
00000000
00000000
00000000
00000000
00000000
00000000
,
00011000
00000000
00000000
00000000
00000000
00000000
00000000
00000000
00000000
00000000
00000000
00000000
00000000
00000000
00000000
00000000
00001010
00000000
00000000
00000000
00000000
00000000
00000000
00000000
00000000
00000000
00000000
00000000
00000000
00000000
00000000
00000000
00000020
00000030
00000000
00000000
00000000
00000000
00000000
00000000
00000020
00000030
00000000
00000000
00000000
00000000
00000000
00000000
00000001
00000000
00000000
00000000
00000000
00000000
00000000
00000000
00000100
00000000
00000000
00000000
00000000
00000000
00000000
00000000
,
00001000
00010000
00100000
01100000
00000000
01000000
00010000
10000000
,
10010000
00000000
00000000
00000000
00000000
00000000
00000000
00000000
00000000
00000000
00000000
00000000
00000000
00000000
00000000
00000000
10100000
00000000
00000000
00000000
00000000
00000000
00000000
00000000
00000000
00000000
00000000
00000000
00000000
00000000
00000000
00000000
00200000
00300000
00000000
00000000
00000000
00000000
00000000
00000000
00200000
00300000
00000000
00000000
00000000
00000000
00000000
00000000
00001000
00000000
00000000
00000000
00000000
00000000
00000000
00000000
00010000
00000000
00000000
00000000
00000000
00000000
00000000
00000000
,
00000020
00000030
00000000
00000000
00000000
00000000
00000000
00000000
00000020
00000030
00000000
00000000
00000000
00000000
00000000
00000000
00000001
00000000
00000000
00000000
00000000
00000000
00000000
00000000
00001002
00000000
00000000
00000000
00000000
00000000
00000000
00000000
00000000
00000000
00000000
00000000
00000000
00000000
00000000
00000000
00000103
00000000
00000000
00000000
00000000
00000000
00000000
00000000
00000010
00000000
00000000
00000000
00000000
00000000
00000000
00000000
00000000
00000000
00000000
00000000
00000000
00000000
00000000
00000000
,
00000000
00000000
00000000
00000000
;
