
//----- song ID: wwto -----//
#TITLE:WOW WAR TONIGHT ~時には起こせよムーヴメント;
#ARTIST:Covered by uzumaki with Hommarju;
#TITLETRANSLIT:WOW WAR TONIGHT ~tokiniha okoseyo movement;
#BANNER:WOW WAR TONIGHT ~tokiniha okoseyo movement.png;
#BACKGROUND:WOW WAR TONIGHT ~tokiniha okoseyo movement-bg.png;
#CDTITLE:./CDTitles/DDR WORLD.png;
#MUSIC:WOW WAR TONIGHT ~tokiniha okoseyo movement.ogg;
#SAMPLESTART:65.34;
#SAMPLELENGTH:15;
#BPMS:0=180;
#NOTES:
     dance-single:
     :
     Beginner:
     3:
     :
0000
0000
0000
0000
,
0000
0000
0000
0000
,
0000
0000
0000
0000
,
0000
0000
0000
0000
,
0000
0000
0000
0000
,
1000
0000
0000
0000
,
0001
0000
0000
0000
,
0010
0000
0000
0000
,
0100
0000
0000
0000
,
1000
0000
0000
0000
,
0100
0000
0000
0000
,
0010
0000
0000
0000
,
0000
0000
0000
0000
,
1001
0000
0000
0000
,
0001
0000
0000
0000
,
1001
0000
0000
0000
,
1000
0000
0000
0000
,
0001
0000
0000
0000
,
0100
0000
0000
0000
,
0020
0000
0030
0000
,
0000
0000
0000
0000
,
1000
0000
0001
0000
,
1000
0000
0000
0000
,
0001
0000
1000
0000
,
0010
0000
0000
0000
,
1000
0000
0001
0000
,
1000
0000
0000
0000
,
0001
0000
1000
0000
,
0100
0000
0000
0000
,
1000
0000
0001
0000
,
0010
0000
0000
0000
,
0001
0000
1000
0000
,
0001
0000
0000
0000
,
1000
0000
0001
0000
,
0100
0000
0000
0000
,
0001
0000
1000
0000
,
0010
0000
0000
0000
,
1000
0000
1000
0000
,
0000
0000
0000
0000
,
0100
0000
0100
0000
,
0000
0000
0000
0000
,
0010
0000
0010
0000
,
0000
0000
0000
0000
,
0001
0000
0001
0000
,
0000
0000
0000
0000
,
0001
0000
1000
0000
,
0000
0000
0000
0000
,
1000
0000
0001
0000
,
0000
0000
0000
0000
,
1000
0000
0001
0000
,
1000
0000
0000
0000
,
0001
0000
1000
0000
,
0001
0000
0000
0000
,
1000
0000
0001
0000
,
0100
0000
0000
0000
,
0001
0000
1000
0000
,
0010
0000
0000
0000
,
1000
0000
0000
0000
,
0001
0000
0000
0000
,
0001
0000
0000
0000
,
1000
0000
0000
0000
,
1000
0000
0100
0000
,
0010
0000
0000
0000
,
2002
0000
0000
3003
,
0000
0000
0000
0000
,
1000
0000
0001
0000
,
0100
0000
0000
0000
,
0001
0000
1000
0000
,
0001
0000
0000
0000
,
1000
0000
0010
0000
,
1000
0000
0000
0000
,
0010
0000
1000
0000
,
0010
0000
0000
0000
,
1000
0000
0001
0000
,
0100
0000
0000
0000
,
0001
0000
0100
0000
,
0010
0000
0000
0000
,
1000
0000
0100
0000
,
0010
0000
0000
0000
,
0001
0000
1000
0000
,
2002
3003
0000
0000
,
1000
0000
0000
0000
,
0001
0000
0000
0000
,
1000
0000
0000
0000
,
0001
0000
0000
0000
,
0100
0000
0000
0000
,
0010
0000
0000
0000
,
1000
0000
0000
0000
,
0001
0000
0000
0000
,
2002
0000
3003
0000
,
0000
0000
0000
0000
;
#NOTES:
     dance-single:
     :
     Easy:
     6:
     :
0000
0000
0000
0000
,
0000
0000
0000
0000
,
0000
0000
0000
0000
,
0000
0000
0000
0000
,
0000
0000
0000
0000
,
1000
0001
1000
0000
,
0020
0000
0130
0000
,
0010
0100
0001
0000
,
0020
0000
0031
0000
,
0100
0010
1000
0000
,
0200
0000
0301
0000
,
0100
1000
0100
0000
,
2000
0000
3001
0000
,
2000
0000
3200
0000
,
0320
0000
0032
0000
,
0203
0000
0320
0000
,
2030
0000
3002
0000
,
1003
0000
0001
0000
,
1000
0000
0001
0000
,
2002
0000
0000
3003
,
0000
0000
0000
0000
,
0001
0000
1000
0000
,
0100
0000
0010
0000
,
0001
0000
0100
0000
,
0010
1000
0010
0000
,
0100
0000
0001
0000
,
1000
0000
0100
0000
,
0010
0000
0001
0000
,
1000
0001
1000
0000
,
0100
0000
0010
0000
,
0001
0000
0100
0000
,
0010
0000
1000
0000
,
0100
0010
0100
0000
,
1000
0000
0010
0000
,
0100
0000
0001
0000
,
1000
0000
0001
0000
,
0200
0000
0300
0000
,
0010
0000
0010
0000
,
1000
0000
1000
0000
,
0100
0000
0100
0000
,
0001
0000
0001
0000
,
0100
0000
0100
0000
,
1000
0000
1000
0000
,
0001
0000
0001
0000
,
1000
0000
1000
0000
,
0001
1000
0001
0000
,
0001
0000
1000
0000
,
1000
0001
1000
0000
,
0001
0000
0010
0000
,
0001
0100
0001
0000
,
1000
0000
0001
0000
,
0010
0001
0010
0000
,
0001
0000
1000
0000
,
0100
0010
0100
0000
,
1000
0000
0010
0000
,
1000
0001
0100
0000
,
0020
0000
0000
0030
,
1000
0001
1000
0000
,
2002
0000
3003
0000
,
0001
1000
0001
0000
,
2002
0000
3003
0000
,
0001
1000
0010
0000
,
2020
0000
3030
0000
,
0202
0000
0303
0000
,
0000
0000
0000
0000
,
1000
0001
1000
0000
,
2000
0000
3000
0000
,
0001
1000
0001
0000
,
0002
0000
0003
0000
,
0010
0001
1000
0000
,
2000
0000
3000
0000
,
0010
1000
0001
0000
,
0002
0000
0003
0000
,
0100
0001
1000
0000
,
2000
0000
3000
0000
,
0100
1000
0001
0000
,
0002
0000
0003
0000
,
0010
0100
1000
0000
,
2000
0000
3000
0000
,
0010
0100
0001
0000
,
0002
0000
0003
0000
,
1000
0000
0100
0000
,
0100
0000
0010
0000
,
0010
0000
0001
0000
,
0001
0000
1001
0000
,
1000
0010
1000
0000
,
0100
0000
0010
0000
,
0001
0010
0001
0000
,
1000
0000
0001
0000
,
2002
0000
0000
0000
,
3003
0000
0000
0000
,
0000
0000
0000
0000
;
#NOTES:
     dance-single:
     :
     Medium:
     9:
     :
0000
0000
0000
0000
,
0000
0000
0000
0000
,
0000
0000
0000
0000
,
0000
0000
0000
0000
,
0000
0000
0000
0000
,
1000
0001
1000
0000
,
0001
1000
0010
0000
,
0100
0001
1000
0000
,
0001
1000
0001
0000
,
1000
0001
1000
0000
,
0100
0010
0001
0000
,
0100
0010
1000
0000
,
0001
1000
0001
0000
,
1001
0001
0010
0000
,
1001
1000
0100
0000
,
1001
0001
0010
0000
,
1001
1000
0100
0000
,
1000
0001
0100
0010
,
1000
0001
1000
0000
,
2002
0000
0000
3003
,
0000
0000
0000
0000
,
0001
0000
1000
0000
0000
0100
0010
0000
,
0001
0000
0100
0000
0000
0010
1000
0000
,
0001
0000
0100
0000
0000
0010
1000
0000
,
0100
0000
0001
0000
0000
0100
0010
0000
,
0001
0000
0100
0000
0000
0010
0100
0000
,
0001
0000
0010
0000
0000
0100
1000
0000
,
0001
0000
0010
0000
0000
0100
0001
0000
,
0100
0000
1000
0000
0000
0010
0100
0000
,
0001
0000
0010
0000
0000
0100
1000
0000
,
0010
0000
0001
0000
0000
0010
0100
0000
,
0001
0000
0010
0000
0000
0001
1000
0000
,
0010
0000
0100
0000
0000
0001
1000
0000
,
0100
0000
0010
0000
0000
0001
0100
0000
,
0010
0000
1000
0000
0000
0001
0010
0000
,
0100
0000
0001
0000
0000
1000
0010
0000
,
0002
0000
0003
0000
,
1001
0000
1001
0000
,
1000
0010
0100
0000
,
1001
0000
1001
0000
,
0001
0010
0100
0000
,
0110
0000
0110
0000
,
1000
0100
0010
0000
,
1100
0000
1100
0000
,
0001
0100
0010
0000
,
1000
0100
0010
0000
,
0110
0000
0110
0000
,
0001
0100
0010
0000
,
1001
0000
1001
0000
,
2000
0000
0000
3200
0000
0000
0302
0000
,
0103
0010
0001
0100
,
0010
1000
0001
0000
,
0010
0001
0010
0000
,
0001
0100
1000
0100
,
0001
0010
1000
0010
,
0001
0100
0010
1000
,
0002
0000
0000
0003
,
1000
1000
0001
0000
,
2002
0000
3003
0000
,
0001
0001
1000
0000
,
2002
0000
3003
0000
,
1000
1000
0100
0001
,
0100
0010
0001
0100
,
0020
0000
0030
0000
,
0000
0000
0000
0000
,
1000
0000
0100
0000
0000
0010
0001
0000
,
0100
0000
0010
0000
0000
1000
0100
0000
,
0010
0000
0001
0000
0000
0100
0010
0000
,
1000
0000
0100
0000
0000
0010
0001
0000
,
1000
0000
0010
0000
0000
0100
0001
0000
,
0010
0000
0100
0000
0000
1000
0010
0000
,
0100
0000
0001
0000
0000
1000
0010
0000
,
0100
0000
0001
0000
0000
0010
0100
0000
,
1000
0001
1000
0000
0000
0001
0100
0000
,
0001
0000
1000
0000
0000
0100
0010
0000
,
0001
0000
1000
0000
0000
0001
0100
0000
,
0010
0000
1000
0000
0000
0100
0010
0000
,
0001
0000
0100
0000
0000
0010
1000
0000
,
0100
0000
0010
0000
0000
0001
0100
0000
,
0010
0000
1000
0000
0000
0001
1000
0000
,
2002
0000
3003
0000
,
1001
1000
0010
0000
,
1001
0001
0100
0000
,
1001
1000
0100
0000
,
1001
0001
0010
0000
,
0001
0100
0010
1000
,
0100
0010
0001
0100
,
0010
1000
0100
0010
,
0001
0100
0010
1000
,
0202
0000
0000
0000
,
0303
0000
0000
0000
,
0000
0000
0000
0000
;
#NOTES:
     dance-single:
     :
     Hard:
     12:
     :
0000
0000
0000
0000
,
0000
0000
0000
0000
,
0000
0000
0000
0000
,
0000
0000
0000
0000
,
0000
0000
0000
0000
,
1000
0000
0001
0000
0100
0010
1000
0000
,
0100
0010
0001
0000
,
1000
0000
0001
0000
0100
0010
1000
0000
,
0100
0001
0100
0000
,
1000
0000
0001
0000
0100
0010
1000
0000
,
0001
1000
0010
0000
,
0100
0000
0010
0000
1000
0100
0010
0000
,
0001
0100
0100
0000
,
0010
0100
1000
0000
0100
0001
0100
0000
,
0001
0010
0001
0000
1000
0100
0010
0000
,
0001
0100
0010
0000
1000
0010
0001
0000
,
0010
1000
0100
0000
1000
0000
0000
0000
,
0010
1000
0000
0100
0001
0100
1000
0010
,
0100
1000
0100
0010
0000
1000
0010
2000
,
0000
0000
0000
0000
,
3000
0000
0000
0000
,
1000
0000
0100
0000
0000
0001
0100
0000
,
1000
0000
0010
0000
0000
0100
1000
0000
,
0100
0000
0010
0000
0000
0001
0010
0000
,
1000
0000
0100
0000
0000
0001
0100
0000
,
1000
0000
0100
0000
0000
0010
1000
0000
,
0001
0000
1000
0000
0000
0010
0100
0000
,
1000
0000
0001
0000
0000
0100
1000
0000
,
0001
0000
0010
0000
0000
0100
0010
0000
,
1000
0100
0010
0000
0000
1000
0001
0000
,
0100
0000
1000
0000
0000
0010
0100
0000
,
1000
0000
0001
0000
0000
0010
1000
0000
,
0001
0000
0010
0000
0000
0100
0001
0000
,
0100
0000
0010
0000
0000
0001
1000
0000
,
0010
0000
0100
0000
0000
0001
0010
0000
,
0001
0000
1000
0000
0000
0100
1000
0000
,
0020
0000
0030
0000
,
1000
0010
0000
1000
0100
0000
0000
0000
,
1000
0010
0100
0000
,
0001
0010
0000
0001
0100
0000
0000
0000
,
0001
0010
0100
0000
,
1000
0100
0000
1000
0010
0000
0000
0000
,
1000
0100
0010
0000
,
0001
0100
0000
0001
0010
0000
0000
0000
,
0001
0100
0010
0000
,
1000
0100
0010
0001
0010
0100
0000
0000
,
1001
1000
1001
0000
,
0001
0100
0010
1000
0010
0100
0000
0000
,
1001
0001
1001
0000
,
2000
0000
0000
3200
0000
0000
0302
0000
,
0103
0010
0100
0010
0001
0100
0001
0100
,
0010
1000
0100
0020
0000
0000
0000
0000
,
0030
0000
0000
0000
,
0001
0100
0010
0000
1000
0010
1000
0000
,
0100
0010
0100
0010
0000
0001
0100
0010
,
1000
0100
0010
1000
0001
0100
0010
0002
,
0000
0000
0000
0003
,
1000
0100
0010
0001
1000
0001
0100
0010
,
0100
0000
0000
0010
0000
0000
0100
0000
0000
0000
0000
0000
0000
0000
0000
0000
,
0001
0010
0100
0010
1000
0001
1000
0010
,
0100
0000
0000
0010
0000
0000
0100
0000
0000
0000
0000
0000
0000
0000
0000
0000
,
1000
0010
0100
0001
1000
0001
0100
0010
,
0100
0010
0000
1000
0000
0001
1000
0020
,
0000
0000
0000
0030
,
0000
0000
0000
0000
,
0001
0000
0100
0000
0000
1000
0001
0000
,
0010
0000
1000
0000
0000
0100
0001
0000
,
1000
0000
0001
0000
0000
0100
1000
0000
,
0010
0000
0001
0000
0000
1000
0100
0000
,
0001
0000
1000
0000
0000
0100
0010
0000
,
1000
0000
0001
0000
0000
0100
1000
0000
,
0010
0000
0001
0000
0000
1000
0100
0000
,
0001
0000
0010
0000
0000
0100
0001
0000
,
0100
1000
0001
0000
0000
0100
0010
0000
,
0001
0000
0010
0000
0000
0100
0001
0000
,
0010
0000
0100
0000
0000
0001
1000
0000
,
0010
0000
0001
0000
0000
0100
1000
0000
,
0001
0000
0010
0000
0000
1000
0001
0000
,
0010
0000
1000
0000
0000
0001
0100
0000
,
0010
0000
0001
0000
0000
0100
0010
0000
,
0220
0000
0330
0000
,
1001
1000
0100
0000
,
0010
0001
0101
0000
,
0101
0001
1000
0000
,
0100
0010
0110
0000
,
1000
0100
1000
0000
0001
0010
0001
0000
,
0100
0001
0100
0000
0010
1000
0010
0000
,
1000
0100
0010
0001
1000
0100
0010
0001
,
0100
0010
1000
0001
0100
0010
1000
0000
,
2002
0000
0000
0000
,
3003
0000
0000
0000
,
0000
0000
0000
0000
;
#NOTES:
     dance-double:
     :
     Easy:
     5:
     :
00000000
00000000
00000000
00000000
,
00000000
00000000
00000000
00000000
,
00000000
00000000
00000000
00000000
,
00000000
00000000
00000000
00000000
,
00000000
00000000
00000000
00000000
,
00010000
00000000
00010000
00000000
,
00001000
00000000
00000100
00000000
,
00000010
00000000
00000010
00000000
,
00001000
00000000
00000000
00000000
,
00000100
00000000
00000100
00000000
,
00010000
00000000
00001000
00000000
,
00100000
00000000
00100000
00000000
,
00010000
00000000
00000000
00000000
,
10000000
00000000
01000000
00000000
,
00100000
00000000
00010000
00000000
,
01000000
00001000
01000000
00000000
,
00001000
00000000
00010000
00000000
,
00000100
00001000
00000100
00000000
,
00000010
00000000
00000001
00000000
,
00000010
00000001
00000010
00000000
,
00001001
00000000
00000000
00000000
,
00000002
00000003
00000200
00000300
,
00000002
00000003
00000010
00000000
,
00000200
00000300
00002000
00003000
,
00000200
00000300
00010000
00000000
,
00002000
00003000
00020000
00030000
,
00002000
00003000
00100000
00000000
,
00020000
00030000
00200000
00300000
,
00020000
00030000
01000000
00000000
,
00200000
00300000
02000000
03000000
,
00200000
00300000
10000000
00000000
,
02000000
03000000
20000000
30000000
,
02000000
03000000
00100000
00000000
,
02000000
03000000
00200000
00300000
,
02000000
03000000
00010000
00000000
,
00002000
00003000
00020000
00030000
,
00002000
00003000
00010000
00000000
,
00011000
00000000
00010000
00000000
,
00001000
00000000
00100000
00000000
,
00110000
00000000
00010000
00000000
,
01000000
00000000
00001000
00000000
,
00011000
00000000
00010000
00000000
,
00000100
00000000
00000010
00000000
,
00000011
00000000
00000001
00000000
,
00000100
00000000
00001000
00000000
,
00010000
00000010
00001000
00000000
,
00000010
00000000
00010000
00000000
,
00001000
00100000
00010000
00000000
,
00100000
00000000
00001000
00000000
,
00010000
00000000
00000000
01000000
00000000
00000000
00010000
00000000
,
00001000
00000000
00001000
00001000
,
00010000
00000000
00001000
00000000
,
00100000
00000000
00001000
00000000
,
00010000
00010000
00010000
00000000
,
00010000
00000000
00000100
00000000
,
00001000
00000000
00000010
00000000
,
00001000
00000000
00000001
00000000
,
00001000
00001000
00001000
00000000
,
00000100
00000000
00010000
00000000
,
01000000
01000000
01000000
00000000
,
00010000
00000000
00001000
00000000
,
00010000
00010000
00010000
00000000
,
00001000
00000000
00010000
00000000
,
00002000
00000000
00003000
00000000
,
00000000
00000000
00000000
00000000
,
00010000
00000000
00000100
00000000
,
00001000
00000000
00000001
00000000
,
00000010
00000000
00000100
00000000
,
00002000
00000000
00003000
00000000
,
00000010
00000000
00010000
00000000
,
00001000
00000000
00100000
00000000
,
01000000
00000000
00010000
00000000
,
00002000
00000000
00003000
00000000
,
00010000
00000000
00010000
00000000
,
00001000
00000000
00000100
00000000
,
00001000
00000000
00010000
00000000
,
00002000
00000000
00003000
00000000
,
00010000
00000000
00000010
00000000
,
00001000
00000000
00000100
00000000
,
00010000
00000000
00001000
00000000
,
00022000
00000000
00033000
00000000
,
00010000
00000000
00001000
00000000
,
00010000
00000000
00001000
00000000
,
00100000
00000000
00010000
00000000
,
00100000
00000000
00010000
00000000
,
10000000
00000000
01000000
00000000
,
00100000
00000000
00001000
00000000
,
00010000
00000000
00000100
00000000
,
00000010
00000000
00000001
00000000
,
00000011
00000000
00000000
00000000
,
00000000
00000000
00000000
00000000
;
#NOTES:
     dance-double:
     :
     Medium:
     9:
     :
00000000
00000000
00000000
00000000
,
00000000
00000000
00000000
00000000
,
00000000
00000000
00000000
00000000
,
00000000
00000000
00000000
00000000
,
00000000
00000000
00000000
00000000
,
00010000
00001000
00000010
00000000
,
00000100
00001000
00000010
00000000
,
00000100
00001000
00010000
00000000
,
00000100
00001000
00000010
00000000
,
00010000
00001000
01000000
00000000
,
00100000
10000000
01000000
00000000
,
00100000
00010000
10000000
00000000
,
00100000
10000000
01000000
00000000
,
11000000
00000000
00010000
00000000
,
01010000
00000000
00001000
00000000
,
00011000
00000000
00000100
00000000
,
00001100
00000000
00000001
00000000
,
00001000
00000100
00000010
00000100
,
00010000
00001000
00010000
00000000
,
00001000
00100000
01000000
00000000
,
00100000
00001000
00010000
00000000
,
00002000
00000000
00000000
00000000
00003000
00000010
00000001
00000000
,
00000020
00000000
00000000
00000000
00000030
00000001
00001000
00000000
,
00000200
00000000
00000000
00000000
00000300
00010000
00001000
00000000
,
02000000
00000000
00000000
00000000
03000000
00010000
10000000
00000000
,
00200000
00000000
00000000
00000000
00300000
01000000
00001000
00000000
,
00020000
00000000
00000000
00000000
00030000
00000100
00000010
00000000
,
00000002
00000000
00000000
00000000
00000003
00000100
00001000
00000000
,
00020000
00000000
00000000
00000000
00030000
01000000
00010000
00000000
,
00002000
00000000
00000000
00000000
00003000
00100000
00001000
00000000
,
02000000
00000000
00000000
00000000
03000000
00100000
10000000
00000000
,
00020000
00000000
00000000
00000000
00030000
00100000
01000000
00000000
,
00020000
00000000
00000000
00000000
00030000
00001000
00000100
00000000
,
00000002
00000000
00000000
00000000
00000003
00000010
00000100
00000000
,
00020000
00000000
00000000
00000000
00030000
00001000
01000000
00000000
,
00200000
00000000
00000000
00000000
00300000
10000000
00010000
00000000
,
20000000
00000000
30000000
00000000
,
10100000
00000000
01010000
00000000
,
01000000
01000000
00010000
00000000
,
00101000
00000000
00010100
00000000
,
00000100
00000100
00001000
00000000
,
00001010
00000000
00000101
00000000
,
00000100
00000100
00000010
00000000
,
00010010
00000000
01001000
00000000
,
01000000
01000000
00100000
00000000
,
10000000
00010000
10000000
00000000
00010000
00000000
00100000
00000000
,
00001000
00010000
00000100
00000000
,
00001000
00000001
00001000
00000000
00000001
00000000
00000100
00000000
,
00000010
00000100
00000001
00000000
,
00002000
00000000
00000000
00003002
00000000
00000000
00000203
00000000
,
00000310
00001000
00000010
00000000
00010000
00000000
00010000
00000000
,
00001000
00010000
00001000
00000000
00020000
00000000
00000000
00000000
,
00030000
00000000
00000000
00000000
,
00001000
00010000
00001000
00000000
00100000
00000000
00100000
00000000
,
00010000
10000000
00010000
00000000
01000000
00000000
01000000
00000000
,
00001000
00010000
00001000
00000000
00000010
00000000
00000010
00000000
,
00000200
00000000
00000000
00000300
,
00010000
00001000
00010000
00000000
00001000
00000000
01000000
00000000
,
00010000
00000000
00000000
01000000
00000000
00000000
00010000
00000000
00000000
00000000
00000000
00000000
00000000
00000000
00000000
00000000
,
00100000
00010000
00100000
00000000
00001000
00000000
00010000
00000000
,
00000100
00000000
00000000
00001000
00000000
00000000
00000100
00000000
00000000
00000000
00000000
00000000
00000000
00000000
00000000
00000000
,
00000010
00000001
00000010
00000000
00000001
00000000
00000100
00000000
,
00000010
00000100
00000000
00000001
00000000
00001000
00000100
00020000
,
00000000
00000000
00000000
00000000
,
00030000
00000000
00000000
00000000
,
00002000
00000000
00000000
00000000
00003000
00010000
00000100
00000000
,
00002000
00000000
00000000
00000000
00003000
00000001
00000010
00000000
,
00000200
00000000
00000000
00000000
00000300
00010000
00001000
00000000
,
02000000
00000000
00000000
00000000
03000000
00100000
10000000
00000000
,
02000000
00000000
00000000
00000000
03000000
00100000
00001000
00000000
,
00020000
00000000
00000000
00000000
00030000
00000010
00001000
00000000
,
00000200
00000000
00000000
00000000
00000300
00000010
00000001
00000000
,
00000200
00000000
00000000
00000000
00000300
00000010
00010000
00000000
,
00002000
00000000
00000000
00000000
00003000
00100000
01000000
00000000
,
20000000
00000000
00000000
00000000
30000000
00100000
01000000
00000000
,
00002000
00000000
00000000
00000000
00003000
00010000
00000010
00000000
,
00002000
00000000
00000000
00000000
00003000
00000010
00000100
00000000
,
00000002
00000000
00000000
00000000
00000003
00000010
00000100
00000000
,
00020000
00000000
00000000
00000000
00030000
00001000
00100000
00000000
,
02000000
00000000
00000000
00000000
03000000
00010000
00001000
00000000
,
00020000
00000000
00030000
00000000
,
00002000
00000000
00003200
00000000
,
00002300
00000000
00023000
00000000
,
00230000
00000000
00320000
00000000
,
00032000
00000000
00003200
00000000
,
00001300
00010000
00001000
00000000
,
00100000
00010000
00100000
00000000
,
01000000
10000000
01000000
00000000
,
00010000
00001000
00010000
00000000
,
00022000
00000000
00000000
00000000
,
00033000
00000000
00000000
00000000
,
00000000
00000000
00000000
00000000
;
#NOTES:
     dance-double:
     :
     Hard:
     12:
     :
00000000
00000000
00000000
00000000
,
00000000
00000000
00000000
00000000
,
00000000
00000000
00000000
00000000
,
00000000
00000000
00000000
00000000
,
00000000
00000000
00000000
00000000
,
00010000
00000000
00001000
00000000
00000010
00000001
00000100
00000000
,
00001000
00010000
00010000
00000000
,
00001000
00000000
00010000
00000000
00100000
10000000
01000000
00000000
,
00010000
00001000
00001000
00000000
,
00010000
00000000
00001000
00000000
00000100
00001000
00010000
00000000
,
00100000
00010000
00010000
00000000
,
00001000
00000000
00010000
00000000
01000000
00010000
00001000
00000000
,
00000010
00001000
00001000
00000000
,
00011000
00001000
00100000
00000000
,
00011000
00010000
00000010
00000000
,
00011000
00001000
01000000
00000000
,
00011000
00010000
00000100
00000000
,
00000010
00000100
00000000
00010000
00001000
00010000
00001000
00010000
,
00000010
00001000
00000010
00001000
00000000
00000001
00001000
00000002
,
00000000
00000000
00000000
00000000
,
00000003
00000000
00000000
00000000
,
00000001
00000000
00000010
00000000
00000000
00000100
00001000
00000000
,
00000010
00000000
00000100
00000000
00000000
00000001
00000010
00000000
,
00000100
00000000
00010000
00000000
00000000
00000010
00000100
00000000
,
00000001
00000000
00000010
00000000
00000000
00001000
00010000
00000000
,
00100000
00000000
01000000
00000000
00000000
10000000
01000000
00000000
,
00100000
00000000
00010000
00000000
00000000
00100000
10000000
00000000
,
01000000
00000000
00010000
00000000
00000000
01000000
00100000
00000000
,
00001000
00000000
01000000
00000000
00000000
00100000
00010000
00000000
,
00001000
00010000
00001000
00000000
00000000
00000010
00000100
00000000
,
00001000
00000000
00000001
00000000
00000000
00000100
00000010
00000000
,
00010000
00000000
00001000
00000000
00000000
00000010
00000100
00000000
,
00010000
00000000
00001000
00000000
00000000
00100000
01000000
00000000
,
10000000
00000000
00100000
00000000
00000000
00010000
00100000
00000000
,
10000000
00000000
01000000
00000000
00000000
00100000
10000000
00000000
,
00010000
00000000
01000000
00000000
00000000
10000000
00010000
00000000
,
20000000
00000000
30000000
00000000
,
10000000
01000000
00000000
00100000
01000000
00000000
00000000
00000000
,
00010000
00001000
00000010
00000000
,
00000001
00000100
00000000
00000010
00000100
00000000
00000000
00000000
,
00001000
00010000
00100000
00000000
,
10000000
01000000
00000000
00100000
01000000
00000000
00000000
00000000
,
00010000
00001000
00000010
00000000
,
00000001
00000100
00000000
00000010
00000100
00000000
00000000
00000000
,
00001000
00010000
00100000
00000000
,
10000000
01000000
00100000
00001000
00010000
00000010
00000000
00000000
,
00001000
00000100
00000010
00000000
,
00000001
00000100
00000010
00010000
00001000
00100000
00000000
00000000
,
00010000
10000000
10010000
00000000
,
20000000
00000000
00000000
32000000
00000000
00000000
03020000
00000000
,
00031000
00000010
00000001
00000000
00000100
00001000
00010000
00001000
,
00100000
00001000
00010000
00002000
00000000
00000000
00000000
00000000
,
00003000
00000000
00000000
00000000
,
00010000
00001000
00000010
00000000
00000001
00001000
00000001
00000000
,
00001000
00000010
00010000
00002000
00000000
00103000
00010000
00100000
,
00001000
00010000
00001000
00100000
00001000
00010000
00001000
00020000
,
00000000
00000000
00000000
00030000
,
00001000
00010000
00001000
00000000
00000010
00000001
00001000
00000010
,
00000100
00000000
00000000
00001000
00000000
00000000
00010000
00000000
00000000
00000000
00000000
00000000
00000000
00000000
00000000
00000000
,
00001000
00010000
00001000
00000000
00010000
00001000
00100000
00010000
,
01000000
00000000
00000000
00100000
00000000
00000000
01000000
00000000
00000000
00000000
00000000
00000000
00000000
00000000
00000000
00000000
,
00001000
00010000
00001000
00000000
00010000
00001000
00000100
00000001
,
00000010
00001000
00000000
00010000
00000000
00001000
00100000
02000000
,
00000000
00000000
00000000
00000000
,
03000000
00000000
00000000
00000000
,
01000000
00000000
00010000
00000000
00000000
01000000
10000000
00000000
,
00100000
00000000
00010000
00000000
00000000
00001000
00000010
00000000
,
00000001
00000000
00000100
00000000
00000000
00001000
00010000
00000000
,
01000000
00000000
10000000
00000000
00000000
00100000
00010000
00000000
,
00001000
00000000
00000010
00000000
00000000
00000001
00000100
00000000
,
00001000
00000000
00010000
00000000
00000000
01000000
10000000
00000000
,
00100000
00000000
00010000
00000000
00000000
00001000
00000100
00000000
,
00000001
00000000
00000010
00000000
00000000
00001000
00010000
00000000
,
00100000
00010000
00001000
00000000
00000000
00000100
00000001
00000000
,
00000010
00000000
00001000
00000000
00000000
00010000
01000000
00000000
,
10000000
00000000
00100000
00000000
00000000
00010000
00001000
00000000
,
00000010
00000000
00000001
00000000
00000000
00000100
00001000
00000000
,
00010000
00000000
00100000
00000000
00000000
10000000
01000000
00000000
,
00010000
00000000
00001000
00000000
00000000
00000100
00000001
00000000
,
00000010
00000000
00001000
00000000
00000000
00010000
00001000
00000000
,
00020000
00000000
00030000
00000000
,
00002000
00000000
00203000
00000000
,
02300000
00000000
03020000
00000000
,
00032000
00000000
00003200
00000000
,
00002300
00000000
00023000
00000000
,
00032000
00003100
00000020
00010030
,
00002000
01003000
00200000
00310000
,
00002000
00003010
00000200
00000301
,
00000200
00000310
00002000
00013000
,
00022000
00000000
00000000
00000000
,
00033000
00000000
00000000
00000000
,
00000000
00000000
00000000
00000000
;
