
//----- song ID: vamp -----//
#TITLE:ヴァンパイア;
#ARTIST:DECO*27;
#TITLETRANSLIT:Vampire;
#BANNER:Vampire.png;
#BACKGROUND:Vampire-bg.png;
#CDTITLE:./CDTitles/DDR WORLD.png;
#MUSIC:Vampire.ogg;
#SAMPLESTART:57.615;
#SAMPLELENGTH:15;
#BPMS:0=164;
#NOTES:
     dance-single:
     :
     Beginner:
     2:
     :
0000
0000
0000
0000
,
0000
0000
0000
0000
,
0000
0000
0000
0000
,
0000
0000
0000
0000
,
0000
0000
0000
0000
,
0000
0000
0000
0000
,
0001
0000
0000
0000
,
1000
0000
0000
0000
,
0001
0000
0000
0000
,
0000
0000
0000
0000
,
0010
0000
0000
0000
,
0010
0000
0000
0000
,
1000
0000
0000
0000
,
0000
0000
0000
0000
,
0010
0000
0000
0000
,
0010
0000
0000
0000
,
0001
0000
0000
0000
,
0000
0000
0000
0000
,
0001
0000
0000
0000
,
0000
0000
0000
0000
,
0001
0000
0000
0000
,
0001
0000
0000
0000
,
1000
0000
0000
0000
,
0000
0000
0000
0000
,
1000
0000
0000
0000
,
1000
0000
0000
0000
,
0001
0000
0000
0000
,
1000
0000
0000
0000
,
0001
0000
0000
0000
,
0000
0000
0000
0000
,
1000
0000
0000
0000
,
0001
0000
0000
0000
,
1000
0000
0000
0000
,
0000
0000
0000
0000
,
0010
0000
0000
0000
,
0001
0000
0000
0000
,
1000
0000
0000
0000
,
0000
0000
0000
0000
,
0010
0000
0000
0000
,
0000
0000
0000
0000
,
0001
0000
0000
0000
,
1000
0000
0000
0000
,
0001
0000
0000
0000
,
1000
0000
0000
0000
,
0010
0000
0000
0000
,
0000
0000
0000
0000
,
1001
0000
0000
0000
,
0000
0000
0000
0000
,
0001
0000
0000
0000
,
0000
0000
0000
0000
,
1000
0000
0000
0000
,
0001
0000
0000
0000
,
0010
0000
0000
0000
,
0000
0000
0000
0000
,
1001
0000
0000
0000
,
0000
0000
0000
0000
,
0100
0000
0000
0000
,
0000
0000
0000
0000
,
0010
0000
0000
0000
,
0001
0000
0000
0000
,
1000
0000
0000
0000
,
0001
0000
0000
0000
,
0010
0000
0000
0000
,
1000
0000
0000
0000
,
1001
0000
0000
0000
,
0000
0000
0000
1001
,
0000
0000
0000
0000
;
#NOTES:
     dance-single:
     :
     Easy:
     6:
     :
0000
0000
0000
0000
,
0000
0000
0000
0000
,
0000
0000
0000
0000
,
0000
0000
0000
0000
,
0000
0000
0000
0000
,
0000
0000
0000
0000
,
0001
0010
0001
0000
,
1000
0010
1000
0000
,
0110
0000
0110
0000
,
0000
0000
1001
0000
,
0001
0010
0100
1000
,
0001
0001
0001
0000
,
1000
0100
0010
0001
,
1000
1000
1000
0000
,
0001
0010
0100
1000
,
0010
1000
0001
0000
,
2000
0000
3002
0000
,
0103
0001
0010
0000
,
0001
0000
0001
0000
,
1000
0010
1000
0000
,
0001
0100
0001
0000
,
2000
0000
3001
0000
,
1000
0000
1000
0000
,
0001
0010
0001
0000
,
1000
0100
1000
0000
,
0002
0000
1003
0000
,
0001
0010
0001
0000
,
1000
0010
1000
0000
,
0001
0010
0001
1000
,
0001
0010
0001
0000
,
1000
0010
1000
0000
,
0001
0010
0001
0000
,
1000
0010
1000
0001
,
1000
0010
1000
0000
,
0002
0000
0103
0000
,
2000
0000
3100
0000
,
0002
0000
0103
0000
,
0001
1000
0001
0000
,
2002
0000
0000
3003
,
0001
0001
1000
1000
,
0000
1001
0001
0000
,
1000
0001
1000
0000
,
0001
0100
0010
1000
,
0001
0100
0001
0000
,
2000
0100
3002
0100
,
2003
0010
3010
0000
,
1000
0001
2002
0000
,
0000
0000
3003
0000
,
0002
0010
2003
0010
,
3002
0010
1003
0000
,
2000
0100
3002
0100
,
2003
0100
3001
0000
,
0001
0010
0100
0010
,
0001
0100
0010
0000
,
1000
0001
2002
0000
,
0000
3003
1000
0000
,
2010
0000
3002
0000
,
0203
0000
0301
0000
,
1000
0100
0010
0100
,
0001
0100
1000
0000
,
0001
0100
0010
0100
,
1000
0100
0001
0000
,
1000
0100
0010
0100
,
0001
0100
1000
0000
,
0002
0000
2000
0000
,
3003
0000
1001
1001
,
0000
0000
0000
0000
;
#NOTES:
     dance-single:
     :
     Medium:
     10:
     :
0000
0000
0000
0000
,
0000
0000
0000
0000
,
0000
0000
0000
0000
,
0000
0000
0000
0000
,
0000
0000
0000
0000
,
0000
0000
0000
0000
0000
1000
0001
0000
,
0010
0000
0200
0000
0300
1000
0000
1100
,
0000
1000
0001
0000
0020
0000
0031
0100
,
0010
0000
0110
0000
1000
0000
0001
2000
,
0000
0001
0000
0001
0002
0000
3003
0000
,
1000
0000
0100
0010
0001
0000
0100
0010
,
1000
0000
0001
0010
0100
0000
1000
0000
,
0001
0000
0001
0000
0100
0000
0100
0020
,
0000
1030
0001
0000
0010
0000
0020
0000
,
0130
1000
0100
0000
0010
0000
0100
0010
,
0001
0000
1000
0010
0100
0000
0001
0000
,
1000
0000
1000
0000
0010
0000
0010
0200
,
0000
0301
1000
0000
0002
0000
0000
0003
,
0200
0000
0000
0000
0300
0000
0000
0000
0010
0000
0000
0010
0000
0000
1000
0000
,
0000
0100
0020
0000
0230
0000
0310
0000
,
0000
0001
0001
0000
1000
0000
0010
0200
,
0000
0301
1000
0000
2000
0000
3000
0000
,
0200
0000
0000
0000
0300
0000
0000
0000
0010
0000
0000
0010
0000
0000
0001
0000
,
0000
1000
0002
0000
2003
0000
3010
0000
,
0000
1000
1000
0000
0001
0000
0010
0200
,
0000
1300
0001
0000
0002
0000
0003
1000
,
0100
0000
0100
0000
0100
0010
0000
0001
,
0100
0000
0100
0000
0100
0010
0000
1000
,
1000
1100
0001
0101
,
0200
0000
1000
0000
0302
0000
0003
0001
,
0010
0000
0010
0000
0010
0100
0000
1000
,
0010
0000
0010
0000
0010
0100
0000
0001
,
0001
0011
1000
1010
,
0020
0001
2030
0010
,
3001
0000
0000
0001
0020
0000
0031
0000
,
1000
0000
0000
1000
0020
0000
1030
0000
,
0001
0100
0001
0000
1000
0100
1000
0000
,
0001
1000
0001
1000
0010
0000
1000
0000
,
2001
0000
0001
0000
0001
0000
0000
3020
,
0000
1030
0001
0010
0001
0000
2000
0000
,
3010
0000
0000
0000
1010
0000
0000
0000
0002
0000
0000
0003
0000
0000
0010
0000
,
0000
0000
0001
0000
0000
0000
0001
0000
2000
0000
0000
3000
0000
0000
0200
0000
,
0000
0000
1300
0000
0100
0000
1000
0000
0002
0000
0000
0003
0000
0000
0201
0000
,
0000
0000
0301
0000
1000
0001
1000
0000
,
0010
0000
0200
0000
0300
0001
0000
0101
,
0000
0001
1000
0000
0020
0000
1030
0100
,
0010
0000
0110
0000
0001
0000
1000
0002
,
0000
0000
0003
0010
0001
0000
1000
0000
,
0010
0000
0000
1000
0000
0000
0001
0000
0010
0000
0000
0001
0000
0000
1000
0000
,
0100
0010
0010
0200
,
0301
0100
0000
2000
0000
3001
0001
0000
,
0010
0100
0200
1300
,
2100
0000
0002
0000
3003
1000
0000
0200
,
0000
1300
0001
0000
0020
0000
0031
0100
,
0010
0000
0110
0000
1000
0000
0001
2000
,
0000
0000
3000
0010
1000
0000
0002
0000
,
0013
0000
0011
0000
1000
0000
0001
0100
,
0000
0001
0100
0000
0200
0000
0300
0000
,
0001
0012
2003
0010
,
3002
0010
0020
0033
,
1000
2010
3002
0010
,
2003
0010
0020
3030
,
0001
0102
2003
0100
,
3002
0100
0200
0303
,
0010
0000
0110
0000
1000
0000
0001
2000
,
0000
0000
3001
1001
,
0000
0000
0000
0000
;
#NOTES:
     dance-single:
     :
     Hard:
     13:
     :
0000
0000
0000
0000
,
0000
0000
0000
0000
,
0000
0000
0000
0000
,
0000
0000
0000
0000
,
0000
0000
0000
0000
,
0000
0000
0000
0000
0000
1000
0001
0100
,
0020
0000
0130
0001
0000
1000
0000
2010
,
0000
3010
1000
0100
0020
0000
0130
1000
,
0001
0000
0012
0000
0103
0001
0100
0020
,
0000
0001
0000
1000
2000
0000
3030
0000
,
1000
0100
0010
0001
0010
0100
1000
0010
,
0100
0001
0010
0100
1000
0100
1000
0001
,
0100
0010
0100
0010
1000
0001
1000
0020
,
0000
0130
0001
1000
0100
0000
0120
0000
,
0031
0010
0001
1000
0010
0100
0001
0010
,
0100
1000
0010
0100
0001
0100
0001
1000
,
0100
0010
0100
0010
0001
1000
0001
0200
,
0000
0310
0100
0001
0020
0000
0030
0000
,
0210
0000
0300
0000
0100
0000
0000
0000
0010
0000
0000
0010
0000
0000
0002
0000
,
0003
0100
0010
0100
0010
0100
0010
0100
,
0000
0001
1000
0001
1000
0100
0010
0002
,
0000
0103
0001
0100
0020
0000
0030
0000
,
0210
0000
0300
0000
0100
0000
0000
0000
0010
0000
0000
0010
0000
0000
2000
0000
,
3000
0001
0010
0100
1000
0100
0010
0001
,
0000
1000
0001
1000
0001
0100
0010
2000
,
0000
3100
1000
0100
0020
0030
0000
0001
,
0100
0010
0100
1000
0100
0001
0000
1000
,
0100
0010
0100
0001
0100
1000
0000
0010
,
1010
0011
1100
0101
,
1000
0010
0200
0000
0302
0000
0003
1000
,
0010
0100
0010
0001
0010
1000
0000
0001
,
0010
0100
0010
1000
0010
0001
0000
0100
,
0101
1100
0011
1010
,
0001
0100
0010
1000
0002
0000
0023
0000
,
0031
0000
0000
0001
0000
0000
0001
0000
0200
0000
0000
0000
0302
0000
0000
0000
,
1003
0000
0000
1000
0000
0000
1000
0000
0200
0000
0000
0000
2300
0000
0000
0000
,
3001
1000
0001
0100
0010
0100
1000
0100
,
0001
1000
0100
0010
0001
0000
0110
0000
,
2001
0000
0100
0000
0001
0001
0000
3020
,
0030
1000
0100
0010
0001
1000
0002
0000
,
1003
0000
0000
0000
1010
0000
0000
0000
2000
0000
0000
3100
0000
0000
0010
0000
,
0000
0000
0011
0000
0000
0000
1000
0000
0002
0000
0000
0103
0000
0000
0120
0000
,
0000
0000
0130
0000
0010
0000
0100
0000
0002
0000
0000
1003
0000
0000
2100
0000
,
0000
3001
1000
0010
0100
0001
1000
0100
,
0020
0000
0130
1000
0000
0001
0000
0012
,
0000
0013
0001
0100
0020
0000
0130
0001
,
1000
0000
2010
0000
3100
1000
0100
0020
,
0000
0000
0000
0031
1000
0001
2000
0000
,
3010
0000
0000
1000
0000
0000
0001
0000
0010
0000
0000
0001
0000
0000
1000
0000
,
0100
1000
0100
0010
0001
0000
0100
0001
,
0010
0001
1000
0020
0000
1030
0001
0100
,
0010
0100
0010
1000
0001
1000
0002
0000
,
0013
0000
0011
0000
0000
1000
0000
2010
,
0000
3010
1000
0100
0020
0000
0130
1000
,
0001
0000
0012
0000
0103
0001
0100
0020
,
0000
0000
0030
1000
0001
1000
0002
0000
,
1003
0000
1010
0000
0010
1000
0001
0100
,
0000
0100
0200
0300
0200
0000
0300
0000
,
0020
0030
2010
0000
3001
1000
0000
0100
,
0000
0001
0100
1000
0002
0000
0003
0000
,
0020
0030
0012
0000
1003
0001
0000
0100
,
0000
1000
0100
0001
2000
0000
3000
0000
,
0200
0300
2100
0000
3001
1000
0000
0010
,
0000
0001
0010
1000
0002
0000
0003
0000
,
1000
0000
2010
0000
3100
1000
0100
0020
,
0000
0000
0130
1001
,
0000
0000
0000
0000
;
#NOTES:
     dance-double:
     :
     Easy:
     6:
     :
00000000
00000000
00000000
00000000
,
00000000
00000000
00000000
00000000
,
00000000
00000000
00000000
00000000
,
00000000
00000000
00000000
00000000
,
00000000
00000000
00000000
00000000
,
00000000
00000000
00000000
00000000
,
00010000
00001000
00010000
00000000
,
00000010
00001000
00000010
00000000
,
00000110
00000000
00000110
00000000
,
00000000
00000000
00011000
00000000
,
00001000
00010000
00100000
10000000
,
00100000
00100000
00100000
00000000
,
10000000
01000000
00010000
00001000
,
00010000
00010000
00010000
00000000
,
00001000
00000010
00000001
00001000
,
00000010
00010000
00001000
00000000
,
00020000
00000000
00032000
00000000
,
00103000
00010000
00100000
00000000
,
01000000
00000000
00100000
00000000
,
01000000
10000000
01000000
00000000
,
00100000
00001000
00010000
00000000
,
00000010
00001000
00000001
00000000
,
00000010
00000000
00000100
00000000
,
00000010
00000001
00000010
00000000
,
00000100
00010000
00001000
00000000
,
01000000
00001000
00011000
00000000
,
00001000
00100000
00001000
00000000
,
01000000
00010000
01000000
00000000
,
00010000
00100000
00010000
10000000
,
00010000
00100000
00001000
00000000
,
00010000
00000010
00010000
00000000
,
00000100
00001000
00000100
00000000
,
00001000
00000010
00001000
00000001
,
00001000
00000010
00010000
00000000
,
00002000
00000000
00013000
00000000
,
00020000
00000000
00031000
00000000
,
00002000
00000000
00013000
00001000
,
00100000
00010000
10000000
00000000
,
20020000
00000000
00000000
30030000
,
10000000
01000000
00010000
00000000
,
00001000
00011000
00010000
00000000
,
00000100
00000010
00000110
00000000
,
00000001
00000100
00000010
00000100
,
00001000
00010000
00100000
00000000
,
20000000
01000000
30020000
01000000
,
20030000
00100000
30200000
00000000
,
00310000
00001000
00022000
00000000
,
00000000
00000000
00033000
00000000
,
00002000
00100000
00023000
00000010
,
00032000
00100000
00013000
00000000
,
00020000
00000100
00032000
01000000
,
00023000
00000100
00031000
00000000
,
00001000
00000010
00000001
00000100
,
00000010
00000100
00001000
00000000
,
00010000
00001000
00022000
00000000
,
00000000
00033000
00001000
00000000
,
00201000
00000000
00320000
00000000
,
20030000
00000000
31000000
00000000
,
10000000
01000000
00100000
01000000
,
00010000
00001000
00010000
00000000
,
00001000
00000010
00000001
00000010
,
00000100
00000010
00000001
00000000
,
00000001
00000100
00001000
00000100
,
00000010
00010000
00001000
00000000
,
00020000
00000000
00002000
00000000
,
00033000
00000000
00011000
00011000
,
00000000
00000000
00000000
00000000
;
#NOTES:
     dance-double:
     :
     Medium:
     10:
     :
00000000
00000000
00000000
00000000
,
00000000
00000000
00000000
00000000
,
00000000
00000000
00000000
00000000
,
00000000
00000000
00000000
00000000
,
00000000
00000000
00000000
00000000
,
00000000
00000000
00000000
00000000
00000000
00010000
00001000
00000000
,
00000010
00000000
00000002
00000000
00000003
00000100
00000000
00000101
,
00000000
00000100
00000010
00000000
00002000
00000000
00003010
00010000
,
00001000
00000000
00011000
00000000
00001000
00000000
00100000
00002000
,
00000000
00010000
00000000
00010000
00020000
00000000
00033000
00000000
,
00001000
00000000
00010000
00100000
01000000
00000000
00010000
10000000
,
01000000
00000000
00100000
01000000
00010000
00000000
00001000
00000000
,
00010000
00000000
00010000
00000000
00000100
00000000
00000100
00000020
,
00000000
00000130
00001000
00000000
00000001
00000000
00000020
00000000
,
00000031
00000100
00000010
00000000
00010000
00000000
00001000
00010000
,
00100000
00000000
10000000
00100000
01000000
00000000
00010000
00000000
,
00100000
00000000
00100000
00000000
00001000
00000000
00001000
00020000
,
00000000
00031000
00010000
00000000
00000020
00000000
00000000
00000030
,
00000200
00000000
00000000
00000000
00000300
00000000
00000000
00000000
00000010
00000000
00000000
00000010
00000000
00000000
00000100
00000000
,
00000000
00000001
00000020
00000000
00000230
00000000
00000310
00000000
,
00000000
00000100
00010000
00000000
00001000
00000000
00010000
00200000
,
00000000
00310000
00100000
00000000
20000000
00000000
30000000
00000000
,
02000000
00000000
00000000
00000000
03000000
00000000
00000000
00000000
00100000
00000000
00000000
00100000
00000000
00000000
00010000
00000000
,
00000000
10000000
00020000
00000000
02030000
00000000
03010000
00000000
,
00000000
01000000
00001000
00000000
00010000
00000000
00001000
00000020
,
00000000
00001030
00000010
00000000
00000002
00000000
00000003
00001000
,
00000100
00000000
00000100
00000000
00000100
00000010
00000000
00000001
,
00000100
00000000
00000100
00000000
00000100
00000010
00000000
00010000
,
00001000
00101000
00100000
01100000
,
02000000
00000000
00010000
00000000
23000000
00000000
30000000
00010000
,
00100000
00000000
00100000
00000000
00100000
01000000
00000000
10000000
,
00100000
00000000
00100000
00000000
00100000
01000000
00000000
00001000
,
00010000
00010010
00000010
00000110
,
00000200
00001000
00000001
00002300
,
00013000
00000000
00000000
00010000
00000020
00000000
00010030
00000000
,
00001000
00000000
00000000
00001000
00200000
00000000
00301000
00000000
,
00010000
00001000
00010000
00000000
01000000
00000000
10000000
00000000
,
00100000
00010000
00001000
00000010
,
00000021
00000000
00000001
00000000
00000001
00000000
00000000
00000230
,
00000000
00010300
00001000
00010000
00100000
00000000
20000000
00000000
,
30100000
00000000
00000000
00000000
10100000
00000000
00000000
00000000
00020000
00000000
00000000
00030000
00000000
00000000
00100000
00000000
,
00000000
00000000
00010000
00000000
00000000
00000000
00100000
00000000
00002000
00000000
00000000
00003000
00000000
00000000
00020000
00000000
,
00000000
00000000
00031000
00000000
00010000
00000000
00000000
00000000
00000200
00000000
00000000
00000300
00000000
00000000
00000020
00000000
,
00000000
00000000
00000031
00000000
00000100
00001000
00010000
00000000
,
00100000
00000000
20000000
00000000
30000000
01000000
00000000
11000000
,
00000000
01000000
00100000
00000000
00020000
00000000
00130000
00001000
,
00010000
00000000
00011000
00000000
00010000
00001000
00020000
00002000
,
00000000
00033000
00010000
00010000
,
00000010
00000000
00000000
00001000
00000000
00000000
00000001
00000000
00000010
00000000
00000000
00000001
00000000
00000000
00001000
00000000
,
00000100
00010000
00010000
00002000
,
00013000
00001000
00000000
02000000
00000000
03010000
00010000
00000000
,
01000000
00100000
00200000
10300000
,
20100000
00000000
02000000
00000000
33000000
01000000
00000000
20000000
,
00000000
31000000
00100000
00000000
00020000
00000000
00130000
00001000
,
00010000
00000000
00011000
00000000
00010000
00001000
00020000
00002000
,
00000000
00000000
00033000
00001000
00000010
00000000
00000002
00000000
,
00000013
00000000
00000011
00000000
00001000
00000000
00000001
00000100
,
00000000
00000001
00000100
00000000
00000200
00000000
00000300
00000000
,
00000001
00000012
00002003
00000010
,
00003200
00020300
00002000
00033000
,
00010000
00201000
00320000
10000000
,
02030000
03200000
20000000
30300000
,
00010000
00120000
20030000
00100000
,
30020000
02030000
00002000
03003000
,
00011000
00000000
00010010
00000000
00000010
00001000
00000010
00002000
,
00000000
00000000
00003100
00000110
,
00000000
00000000
00000000
00000000
;
#NOTES:
     dance-double:
     :
     Hard:
     13:
     :
00000000
00000000
00000000
00000000
,
00000000
00000000
00000000
00000000
,
00000000
00000000
00000000
00000000
,
00000000
00000000
00000000
00000000
,
00000000
00000000
00000000
00000000
,
00000000
00000000
00000000
00000000
00000000
00001000
00010000
00001000
,
00200000
00000000
01300000
10000000
00000000
00010000
00000000
00120000
,
00000000
00130000
00001000
00010000
00000020
00000000
00000130
00000001
,
00001000
00000000
00002010
00000000
00003010
00010000
00001000
00020000
,
00000000
00000100
00000000
00001000
00002000
00000000
00033000
00000000
,
00001000
00010000
00100000
10000000
00100000
01000000
00010000
00100000
,
01000000
10000000
00100000
01000000
00010000
01000000
00001000
00010000
,
00000100
00001000
00000100
00001000
00000001
00000010
00000001
00000200
,
00000000
00000310
00001000
00000010
00010000
00000000
00021000
00000000
,
00031000
00010000
00000010
00001000
00000010
00000100
00000001
00000010
,
00000100
00001000
00000010
00000100
00000001
00001000
00000100
00010000
,
00001000
01000000
00001000
01000000
00010000
10000000
00010000
02000000
,
00000000
03100000
01000000
00010000
20000000
00000000
30000000
00000000
,
12000000
00000000
03000000
00000000
01000000
00000000
00000000
00000000
00100000
00000000
00000000
00100000
00000000
00000000
00020000
00000000
,
00030000
01000000
00100000
01000000
00100000
01000000
00100000
01000000
,
00000000
00001000
00010000
00001000
00010000
00001000
00000010
00002000
,
00000000
00003010
00000001
00000010
00000002
00000000
00000003
00000000
,
00000201
00000000
00000300
00000000
00000100
00000000
00000000
00000000
00000010
00000000
00000000
00000010
00000000
00000000
00002000
00000000
,
00003000
00000100
00000010
00000100
00000001
00000100
00001000
00000010
,
00000000
00010000
00001000
00010000
00001000
00010000
00100000
00020000
,
00000000
00130000
10000000
00100000
20000000
00000000
30000000
10000000
,
01000000
00100000
01000000
00010000
00001000
00010000
00000000
00001000
,
01000000
00010000
01000000
00100000
10000000
01000000
00000000
10000000
,
01000000
00110000
00011000
00001100
,
00000001
00000010
00000002
00000000
00000023
00000000
00000030
00000001
,
00000100
00000010
00000100
00001000
00010000
00001000
00000000
00010000
,
00000100
00001000
00000100
00000010
00000001
00000100
00000000
00000001
,
00000100
00001010
00010100
00101000
,
01000000
00010000
10000000
00100000
20000000
00000000
30020000
00000000
,
01030000
00000000
00000000
01000000
00000000
00000000
01000000
00000000
00002000
00000000
00000000
00000000
00023000
00000000
00000000
00000000
,
00030100
00000000
00000000
00000100
00000000
00000000
00000100
00000000
00020000
00000000
00000000
00000000
00032000
00000000
00000000
00000000
,
00103000
00010000
00100000
00010000
10000000
01000000
10000000
01000000
,
00100000
01000000
00010000
00001000
00000010
00000000
00000110
00000000
,
00001002
00000000
00000100
00000000
00001000
00001000
00000000
00000023
,
00000030
00000001
00000100
00000010
00000100
00001000
00020000
00000000
,
00031000
00000000
00000000
00000000
00101000
00000000
00000000
00000000
00200000
00000000
00000000
01300000
00000000
00000000
10000000
00000000
,
00000000
00000000
10010000
00000000
00000000
00000000
10000000
00000000
00200000
00000000
00000000
01300000
00000000
00000000
01020000
00000000
,
00000000
00000000
01030000
00000000
00010000
00000000
01000000
00000000
00002000
00000000
00000000
00103000
00000000
00000000
00210000
00000000
,
00000000
00300000
01000000
00100000
00001000
00010000
00001000
00010000
,
00000020
00000000
00000130
00000001
00000000
00001000
00000000
00002010
,
00000000
00003010
00010000
00001000
00200000
00000000
01300000
10000000
,
00010000
00000000
00120000
00000000
00130000
00001000
00020000
00002000
,
00000000
00000000
00033000
00001000
00010000
00001000
00020000
00000000
,
00030010
00000000
00000000
00001000
00000000
00000000
00000001
00000000
00000010
00000000
00000000
00000001
00000000
00000000
00001000
00000000
,
00000100
00001000
00000100
00000010
00000001
00000000
00000100
00001000
,
00010000
00001000
01000000
00200000
00000000
10300000
00010000
00100000
,
01000000
00100000
01000000
10000000
01000000
00010000
00002000
00000000
,
00013000
00000000
00010010
00000000
00000000
00000010
00000000
00002010
,
00000000
00003010
00010000
00001000
00200000
00000000
01300000
10000000
,
00010000
00000000
00120000
00000000
00130000
00001000
00020000
00002000
,
00000000
00000000
00033000
00010000
00000100
00010000
00002000
00000000
,
00013000
00000000
00010010
00000000
00000010
00001000
00000001
00000100
,
00000000
00000100
00000200
00000300
00000200
00000000
00000300
00000000
,
00000020
00000030
00002010
00000000
00003001
00001000
00000000
00000010
,
00000000
00000100
00001000
00010000
00002000
00000000
00003000
00000000
,
00200000
00300000
00120000
00000000
10030000
00010000
00000000
00100000
,
00000000
01000000
00010000
00001000
00020000
00000000
00030000
00000000
,
00000200
00000300
00002100
00000000
00003001
00001000
00000000
00000100
,
00000000
00000010
00001000
00010000
00002000
00000000
00003000
00000000
,
00100000
00000000
00210000
00000000
01300000
00100000
00001000
00020000
,
00000000
00000000
00031000
00011000
,
00000000
00000000
00000000
00000000
;
