
//----- song ID: vill -----//
#TITLE:V!LLA!N;
#ARTIST:Kaname;
#TITLETRANSLIT:VILLAIN;
#BANNER:V!LLA!N.png;
#BACKGROUND:V!LLA!N-bg.png;
#CDTITLE:./CDTitles/DDR WORLD.png;
#MUSIC:V!LLA!N.ogg;
#SAMPLESTART:66.569;
#SAMPLELENGTH:15;
#BPMS:0=210;
#NOTES:
     dance-single:
     :
     Beginner:
     5:
     :
0000
0000
0000
0000
,
0000
0000
0000
0000
,
0000
0000
0000
0000
,
0000
0000
0000
0000
,
0000
0000
0000
0000
,
0000
0000
0000
0000
,
0000
0000
0000
0000
,
0000
0000
0000
0000
,
0000
0000
0000
0000
,
0000
0000
0000
0000
,
1000
0000
0000
0000
,
1000
0000
0000
0000
,
0001
0000
0000
0000
,
0001
0000
0000
0000
,
0100
0000
0000
0000
,
0100
0000
0000
0000
,
0010
0000
0000
0000
,
0010
0000
0000
0000
,
1000
0000
1000
0000
,
0001
0000
0001
0000
,
1000
0000
1000
0000
,
0001
0000
0001
0000
,
0010
0000
0010
0000
,
0200
0000
0300
0000
,
0000
0000
0000
0000
,
0000
0000
0000
0000
,
1000
0000
0000
0000
,
0100
0000
0000
0000
,
0010
0000
0000
0000
,
0100
0000
0000
0000
,
0010
0000
0000
0000
,
0100
0000
0000
0000
,
2000
0000
3000
0000
,
0002
0000
0003
0000
,
0200
0000
0300
0000
,
0010
0000
0000
0000
,
1000
0000
0000
0000
,
0001
0000
0000
0000
,
1000
0000
0000
0000
,
0001
0000
0000
0000
,
1000
0000
1000
0000
,
1000
0000
0001
0000
,
0010
0000
0001
0000
,
0010
0000
0001
0000
,
1000
0000
0100
0000
,
1000
0000
0100
0000
,
0020
0030
0100
0000
,
0010
0000
0001
0000
,
1000
0000
1000
0000
,
0200
0000
0300
0000
,
1001
0000
1000
0000
,
0001
0000
0001
0000
,
1000
0000
1000
0000
,
0001
0000
0100
0000
,
0010
0000
0010
0000
,
0100
0000
0100
0000
,
0010
0000
0010
0000
,
0010
0000
0010
0000
,
0000
0010
0000
0010
,
0000
1000
0000
1000
,
0000
0001
0000
0001
,
0000
0100
0000
0100
,
0000
0001
0000
0001
,
0000
1000
1000
0000
,
0020
0000
0030
0000
,
0200
0000
0300
0000
,
0000
0001
0000
0001
,
0000
1000
0000
1000
,
0000
0001
0000
0100
,
0000
0010
0000
0000
,
2000
0000
3000
0000
,
0002
0000
0003
0000
,
0020
0030
0200
0300
,
0020
0030
0000
0000
,
0100
0000
0000
0000
,
1000
0000
0000
0000
,
0001
0000
0000
0000
,
0010
0000
0000
0000
,
0001
0000
0000
0000
,
1000
0000
0000
0000
,
0001
0000
0000
0000
,
1000
0000
0000
0000
,
0001
0000
0001
0000
,
0010
0000
0010
0000
,
0100
0000
0100
0000
,
1000
0000
1000
0000
,
0200
0000
0300
0000
,
0020
0000
0030
0000
,
0002
0000
0003
0000
,
2000
0000
3000
0000
,
1001
0000
0000
0000
,
0000
0000
0000
0000
,
1001
0000
0000
0000
,
0000
0000
0000
0000
;
#NOTES:
     dance-single:
     :
     Easy:
     7:
     :
0000
0000
0000
0000
,
0000
0000
0000
0000
,
0000
0000
0000
0000
,
0000
0000
0000
0000
,
0000
0000
0000
0000
,
0000
0000
0000
0000
,
0000
0000
0000
0000
,
0000
0000
0000
0000
,
0000
0000
0000
0000
,
0000
0000
0000
0000
,
1000
0000
1000
0000
,
0001
0000
0001
0000
,
0010
0000
0010
0000
,
0100
0000
0100
0000
,
1000
0000
0100
0000
,
0001
0000
0100
0000
,
1000
0000
0100
0000
,
0001
0000
0100
0000
,
0010
0001
0100
0000
,
0010
1000
0100
0000
,
0010
0100
1000
0000
,
0010
0100
0001
0000
,
2000
3000
0002
0003
,
2000
3200
0320
0032
,
0000
0000
0000
0000
,
0003
0000
0000
0000
,
1000
0000
1100
0000
,
0001
0000
0101
0000
,
0001
0001
0010
0000
,
0100
0100
1000
0000
,
0010
1000
0010
0000
,
0100
0001
0100
0000
,
0200
0000
0302
0000
,
0023
0000
0032
0000
,
2003
0000
3000
0000
,
0010
0000
1000
0000
,
0001
0100
0010
0000
,
1000
0100
0010
0000
,
0001
0001
1000
0000
,
1000
1000
0001
0000
,
2002
3000
0020
0003
,
0230
0000
1300
0001
,
0020
0030
0200
0300
,
2000
3000
0002
0003
,
0010
0001
0100
0000
,
0010
1000
0100
0000
,
0200
0000
0310
0000
,
0001
1000
0100
0000
,
0011
0000
1100
0000
,
2000
0000
3002
0000
,
0103
0000
0000
0000
0020
0000
0000
0100
,
0000
0130
0000
0000
0002
0000
0000
1000
,
0000
1003
0000
0000
0200
0000
0000
0010
,
0000
0310
0000
0001
0000
0000
0001
0000
,
1000
0000
0000
0000
2000
0000
0000
0001
,
0000
3001
0000
0000
0020
0000
0000
0100
,
0000
0130
0000
0000
2000
0000
0000
0001
,
0000
0001
0000
0001
0000
3000
0000
2002
,
0000
3003
0000
0000
0001
0000
0010
0002
,
0000
0000
0000
0003
0010
0000
0100
0020
,
0000
0000
0000
0030
0100
0000
1000
0002
,
0000
0000
0000
0003
1000
0000
0010
2000
,
0000
0000
0000
3000
0010
0000
0100
0002
,
0000
0000
0000
0003
0100
0000
0010
0000
,
0110
0000
1001
0000
,
1000
0001
2000
0000
,
3000
0010
0100
0010
,
0000
1000
0001
1000
,
0000
0010
0100
0010
,
0110
0000
1001
0000
,
0002
0000
0003
0000
,
2000
0000
3000
0000
,
0020
0000
0230
0300
,
0020
0000
2030
0000
,
3001
0010
0001
0000
,
1000
0100
0010
0000
,
0000
0100
0000
0000
0010
0000
0000
0100
,
0000
1000
0000
0001
0000
0000
0000
0000
,
1000
0010
1000
0000
,
0001
0010
0001
0000
,
0020
0000
0032
0000
,
2003
0000
3001
0001
,
1000
0000
1010
0000
,
0001
0000
0011
0000
,
1000
0001
0010
0000
,
0001
1000
0010
1000
,
0002
0000
0000
0003
,
2000
0000
0000
3000
,
0020
0000
0000
0000
,
0000
0000
0000
0000
,
0000
0000
0000
0000
,
0000
0000
0000
0130
,
0110
0000
0000
0000
,
0000
0000
0000
0000
;
#NOTES:
     dance-single:
     :
     Medium:
     13:
     :
0000
0000
0000
0000
,
0000
0000
0000
0000
,
0000
0000
0000
0000
,
0000
0000
0000
0000
,
0000
0000
0000
0000
,
0000
0000
0000
0000
,
0000
0000
0000
0000
,
0000
0000
0000
0000
,
0000
0000
0000
0000
,
0000
0000
0000
0000
,
1000
0000
1000
0000
1000
0000
1000
0100
,
0010
0100
1000
0000
0001
0000
0001
0010
,
0100
0000
0100
0000
0100
0000
0100
1000
,
0001
1000
0010
0000
1000
0100
0001
0100
,
0010
0000
0010
0000
0010
0000
0010
0100
,
0001
0100
0010
0000
0001
0000
0001
0100
,
0010
0000
0010
0000
0010
0000
0010
1000
,
0001
1000
0100
0010
0000
0100
0010
0100
,
0010
0000
0000
0000
0010
0000
0000
0000
0001
0000
0000
1000
0000
0000
0001
0000
,
0100
0000
0000
0000
0100
0000
0000
0000
0001
0000
0000
1000
0000
0000
0001
0000
,
0010
0000
0000
0000
0100
0000
0000
0000
1000
0000
0000
0001
0000
0000
1000
0000
,
0010
0100
0110
0000
,
2000
3200
0320
0032
2003
3200
0320
0032
,
2003
3020
0230
0302
2003
3020
0230
0302
,
0000
0000
0000
0000
,
0003
0000
0000
0000
,
0011
0000
0001
0010
0001
0000
1000
0010
,
0000
0100
0001
1000
0010
0000
0000
0000
,
0010
1000
1000
0010
0100
0100
0001
0010
,
0000
0100
1000
0010
0100
0000
0000
0000
,
0001
0001
1000
0000
1000
0000
0100
0001
,
0000
0100
0000
1000
0010
0000
0100
0000
,
0002
0000
0103
0020
0000
1030
0100
0010
,
0001
0010
0001
1000
,
1000
0000
0000
0000
0100
0000
0000
0000
0010
0000
0000
0000
0010
0000
0000
0000
0000
0000
0100
0000
0000
0010
0000
0000
,
0000
0100
0010
0000
0001
0000
0000
0000
,
0001
0100
0100
1000
0100
0100
0010
0100
,
0000
0010
0000
0100
0001
0000
0000
0000
,
1000
1000
0100
0000
0100
0000
0010
0001
,
0000
1000
0000
0001
1000
0000
0000
0000
,
0020
0200
0300
0200
,
0300
0000
0200
0330
0110
0000
0110
0000
,
0001
0000
0001
0000
0001
0000
0001
0010
,
0000
0010
0100
0010
0001
0000
1000
0000
,
1000
0100
1000
0000
0100
1000
0000
0001
,
0000
0010
0100
1000
0001
0000
0001
0000
,
0200
0000
0000
0000
0310
0000
0000
1000
,
0000
0100
0000
1000
0010
0000
0200
0000
,
0300
0010
1000
0000
0010
1000
0000
0010
,
0200
0000
0320
0030
,
1000
0000
0000
0000
0010
0100
0010
2000
,
0000
3001
0000
0000
0001
0100
1000
0200
,
0000
0310
0000
0000
0001
0010
1000
0020
,
0000
0130
0000
0002
0000
1003
0100
1000
,
0100
0000
0000
0000
1000
0100
0001
0200
,
0000
0310
0000
0000
1000
0010
0001
0020
,
0000
0130
0000
0000
0001
0100
1000
0020
,
0000
0001
0000
0100
0000
1030
0001
0020
,
0000
0000
0000
0130
1000
0100
0010
0002
,
0000
0000
0000
0103
0010
0001
0010
0200
,
0000
0000
0000
1300
0100
0001
0100
0020
,
0000
0000
0000
0130
0010
1000
0010
0200
,
0000
0000
0000
0301
0100
0010
1000
0002
,
0000
0000
0000
0103
0001
1000
0001
0100
,
0010
0000
0000
1000
0001
0000
0000
1000
,
0001
0000
0000
0000
0001
0000
0000
0000
1000
0000
0000
1000
0000
0000
1000
0000
,
0001
0000
1000
0100
0010
0100
0010
0001
,
0100
0000
0001
0010
0100
0010
0100
1000
,
0010
0000
0100
0010
1000
0000
1000
0001
,
0010
0011
1000
1100
,
0002
0000
0003
0020
0000
0030
0000
0000
,
0200
0000
0300
2000
0000
3000
0000
0000
,
0020
0000
1000
0100
,
0002
0003
0030
0000
,
0010
0000
0010
1000
0100
0000
0100
0010
,
0000
0010
0001
0010
1000
0000
0000
0000
,
0010
0001
0001
0010
0100
0100
0010
1000
,
0000
0001
0100
1000
0010
0000
0000
0000
,
0100
0100
0001
0000
1010
0000
1000
0100
,
0000
1000
0100
0010
0002
0000
0000
0000
,
2003
3002
2003
3002
,
2003
0000
0002
3003
1001
0000
1001
0000
,
0000
0000
1000
0000
1000
0100
1000
0010
,
1000
0100
1000
0000
0001
0010
0001
0100
,
0001
0010
0001
0000
1000
0010
0100
0001
,
0010
0100
1000
0200
0310
0200
0310
0100
,
0020
0000
0000
0030
,
0200
0000
0000
0300
,
2000
0000
0000
0000
,
0000
0000
0000
0000
,
0000
0000
0000
0000
,
0000
0000
0000
3001
,
1001
0000
0000
0000
,
0000
0000
0000
0000
;
#NOTES:
     dance-single:
     :
     Hard:
     17:
     :
0000
0000
0000
0000
,
0000
0000
0000
0000
,
0000
0000
0000
0000
,
0000
0000
0000
0000
,
0000
0000
0000
0000
,
0000
0000
0000
0000
,
0000
0000
0000
0000
,
0000
0000
0000
0000
,
0000
0000
0000
0000
,
0000
0000
0000
0000
,
2000
0000
0000
0000
0000
0000
3001
0010
0001
0000
1000
0000
0100
0000
0002
0000
,
0000
0000
2003
0000
0000
0000
3010
0001
0010
0000
0001
0000
0100
0000
2000
0000
,
0000
0000
3002
0000
0000
0000
0013
1000
0010
0000
1000
0000
0100
0000
0002
0000
,
0000
2003
0000
3020
0000
0130
0010
0001
,
2000
0000
0000
0000
0000
0000
3001
0100
0001
0000
1000
0000
0010
0000
0002
0000
,
0000
0000
2003
0000
0000
0000
3100
0001
0100
0000
0001
0000
0010
0000
2000
0000
,
0000
0000
3002
0000
0000
0000
0103
1000
0100
0000
1000
0000
0010
0000
0002
0000
,
0000
2003
0000
3200
0000
0310
0100
0010
,
0101
0000
0000
0000
1010
0000
0000
0000
0101
0000
0000
0001
0100
0000
0001
0000
,
0101
0000
0000
0000
1001
0000
0000
0000
0011
0000
0000
1001
0000
0000
0001
0100
,
0010
0000
0000
0000
1000
0000
0000
0000
0010
0000
0000
0100
0000
0000
0010
0000
,
0001
0000
1000
0000
0100
0000
0001
0001
,
0010
0100
1000
0100
0010
1000
0010
0001
,
0100
0010
0100
0010
0100
0010
0100
0010
1000
0001
1000
0001
1000
0001
2000
0002
,
0000
0000
0000
0000
,
3003
0000
0000
0000
,
1100
0000
0011
0001
0010
0000
0100
0001
,
0000
1000
0010
0001
0011
0000
0000
0000
,
0001
0000
1000
0100
0010
0000
0100
0000
0010
0000
0001
0000
0000
0000
1100
0000
,
0000
1000
0100
0010
0000
0000
0000
0000
,
0011
0011
0010
0000
0010
0000
0100
0001
,
1000
0000
0010
0000
0001
0000
1000
0000
0002
0000
0000
0000
0103
0010
0100
0010
,
0200
0001
0301
0100
1000
0100
0010
0001
,
1000
0100
0001
0000
1000
0000
0100
0000
,
0010
0000
0000
0000
0010
0000
0000
0000
0100
0000
1000
0000
0010
0000
0000
0000
0000
0000
0100
0000
0000
0001
0000
0000
,
0000
0001
0010
0001
1000
0000
0000
0000
,
1000
0000
0100
0010
0100
0000
0001
0000
0100
0000
0100
0000
0000
0000
0010
0000
,
0000
0001
1000
0010
0100
0000
0000
0000
,
1010
1010
0010
0000
0010
0000
0100
1000
,
0001
0000
0010
0000
1000
0000
0001
0000
2000
0000
0000
0000
3100
0010
0100
0010
,
0200
0000
0000
0000
0000
0000
0000
0000
0000
0000
0000
0000
0310
0000
0000
0000
0001
0000
0000
0000
0010
0000
0000
0000
0200
0000
0000
0000
0000
0000
0000
0000
0000
0000
0000
0000
1300
0000
0000
0010
0000
0000
1000
0000
0000
0010
0000
0000
,
0200
0000
0020
0330
0110
0000
0110
0000
,
1000
0100
1000
0100
0010
0000
0100
0010
,
0000
0010
0001
0100
0010
0000
1000
1000
,
0100
0000
0010
0001
0010
0000
0000
0000
0001
0000
0010
0000
0000
0000
1100
0000
,
0000
1000
0010
0100
0001
0000
0010
0010
,
0001
1000
0001
1000
0100
0000
0000
0000
0010
0000
0001
0000
0000
0000
0011
0000
,
0000
0000
0011
0000
0000
0000
0011
0000
0001
0000
0000
0000
1000
0100
1000
0100
,
0000
0010
0001
0000
0001
0100
0000
0010
,
1000
0000
0100
0000
0000
0001
0000
0000
0100
0000
0000
1000
0000
0000
0100
0010
,
0200
0000
0000
0000
0000
0000
1300
0100
0010
0000
1000
0000
0010
0000
0200
0000
,
0000
0000
0001
0000
0000
0000
1300
0010
0100
0000
1000
0000
0100
0000
0020
0000
,
0000
0000
0001
0000
0000
0000
1030
0001
0100
0000
1000
0000
0100
0000
0020
0000
,
0000
0001
0000
0100
0000
1030
0001
1000
,
0001
0001
1000
1000
0010
0010
0100
0100
,
0001
0100
0001
0100
0001
0100
0001
0100
0010
1000
0010
1000
0010
1000
0010
1000
,
0002
0000
0000
0000
0000
0000
1003
0100
0020
0000
0000
0000
0000
0000
0031
1000
,
0200
0000
1300
0001
2000
0000
3002
0000
0000
0000
2003
0000
3020
0000
2030
0000
,
0000
0000
0000
3100
0010
0001
0100
0010
,
0001
0000
0010
0000
1000
0000
0001
0100
0010
0000
0001
0000
0010
0000
0100
0000
,
1000
0000
0001
0000
0010
0000
1000
0100
0010
0000
1000
0000
0010
0000
0001
0000
,
1000
0000
0100
0000
0010
0000
1000
0010
0100
0000
0010
0000
0100
0000
0010
0000
,
1000
1000
1000
0010
0001
0100
0010
1000
,
0100
0001
1000
0010
0100
0001
0100
1000
,
0020
0000
0000
0000
0000
0000
0130
0001
0020
0000
0000
0000
0000
0000
0130
1000
,
0010
0000
0000
0000
0010
0000
0000
0000
0100
0000
0000
0100
0000
0000
0100
0010
,
0100
0010
0200
0000
0000
0000
0310
0000
0001
0000
1000
0000
0100
0000
0010
0000
,
0001
0010
1000
0010
0001
1000
0100
0010
,
0100
0000
0001
0000
0100
0000
0010
1000
0001
0000
1000
0000
0100
0000
0010
0000
,
0100
0000
1000
0000
0100
0000
0001
0100
0001
0000
0100
0000
0010
0000
0001
0000
,
1000
0100
1000
0100
1000
0000
0001
0010
0001
0010
0001
0000
0000
0000
0000
0000
,
1000
0010
1000
0010
1000
0000
0001
0100
0001
0100
0001
0000
0000
0000
0000
0000
,
1000
0100
0010
0000
0001
0100
0010
0100
0020
0000
0000
0000
0130
0000
1000
0000
,
0100
0010
0100
0020
0000
0000
0130
0000
0001
0000
0100
0000
,
0020
0000
0230
1000
0320
0000
1030
0001
,
1000
0100
1000
0010
1000
0000
0000
0000
,
0101
0000
0100
0001
0010
0000
0100
0000
0010
0000
0010
0000
0000
0000
0001
0000
,
1000
0010
1000
0001
0000
0000
0000
0000
,
1001
1001
1000
0000
1000
0000
0010
1000
,
0100
0010
0001
0100
2000
0000
0000
0000
,
3002
0000
0000
0000
0000
0000
0000
0000
0000
0000
0000
0000
0013
0000
0000
0000
0100
0000
0000
0000
0010
0000
0000
0000
2000
0000
0000
0000
0000
0000
0000
0000
0000
0000
0000
0000
3010
0000
0000
0100
0000
0000
0010
0000
0000
0100
0000
0000
,
0002
0000
2000
3003
1001
0000
1001
0000
,
0000
0000
1000
0100
1000
0100
0010
0001
,
0010
0000
0001
0000
1000
0000
0100
0000
0010
0000
0001
0000
0010
0001
0010
0001
,
0010
0100
0010
1000
0010
0001
1000
0100
,
0001
0100
1000
0020
0130
0020
0130
0010
,
1000
0001
1000
0001
1000
0001
1000
0100
1000
0100
1000
0000
0000
0000
0000
0000
,
0001
1000
0001
1000
0001
1000
0001
0010
0001
0010
0001
0000
0000
0000
0000
0000
,
0001
0010
0100
1000
0100
0001
0100
2000
,
0000
0000
0000
0000
0000
0000
3010
0100
0010
0000
0001
0000
0010
0000
1000
0000
,
0200
0000
0000
0000
,
0000
0000
0000
0000
0000
0000
0020
0330
,
0110
0000
0000
0000
,
0000
0000
0000
0000
;
#NOTES:
     dance-double:
     :
     Easy:
     7:
     :
00000000
00000000
00000000
00000000
,
00000000
00000000
00000000
00000000
,
00000000
00000000
00000000
00000000
,
00000000
00000000
00000000
00000000
,
00000000
00000000
00000000
00000000
,
00000000
00000000
00000000
00000000
,
00000000
00000000
00000000
00000000
,
00000000
00000000
00000000
00000000
,
00000000
00000000
00000000
00000000
,
00000000
00000000
00000000
00000000
,
00000001
00000000
00000000
00000000
,
00000100
00000000
00000000
00000000
,
00000010
00000000
00000000
00000000
,
00010000
00000000
00000000
00000000
,
00001000
00000000
00010000
00000000
,
00100000
00000000
00010000
00000000
,
00001000
00000000
00010000
00000000
,
00100000
00000000
10000000
00000000
,
10000000
01000000
00100000
00000000
,
01000000
00000000
00100000
00000000
,
00001000
00100000
00010000
00000000
,
01000000
00000000
00001000
00000000
,
00020000
00030000
00000200
00000300
,
00002000
00003200
00000320
00000032
,
00000000
00000000
00000000
00000000
,
00000003
00000000
00000000
00000000
,
00000001
00000000
00000101
00000000
,
00000100
00000000
00001010
00000000
,
00000010
00000000
00010000
00001000
,
00100000
00000000
00010000
00000000
,
01000000
01000000
00100000
00000000
,
10000000
01000000
10000000
00000000
,
02000000
00000000
03200000
00000000
,
00320000
00000000
02030000
00000000
,
03002000
00000000
00003000
00000000
,
00010000
00000000
00000010
00000000
,
00001001
00000000
00001100
00000000
,
00010000
00000100
00001000
00000000
,
00000010
00010000
00001000
00000000
,
00001000
00000100
00000010
00000000
,
00020020
00030000
00002000
00000030
,
00003200
00000000
00001300
00000001
,
00000020
00000030
00000200
00000300
,
00002000
00003000
00000002
00000003
,
00000100
00001000
00010000
00000000
,
00001000
00010000
00100000
00000000
,
00200000
00000000
10300000
00000000
,
01000000
10000000
00010000
00000000
,
11000000
00000000
00110000
00000000
,
00020000
00000000
00230000
00000000
,
00301000
00000000
00000000
00000000
00020000
00000000
00000000
00001000
,
00000000
00031000
00000000
00000000
00200000
00000000
00000000
01000000
,
00000000
01300000
00000000
00000000
20000000
00000000
00000000
00010000
,
00000000
30010000
00000000
00100000
00000000
00000000
00100000
00000000
,
01000000
00000000
00000000
00000000
00200000
00000000
00000000
01000000
,
00000000
01300000
00000000
00000000
00020000
00000000
00000000
00001000
,
00000000
00031000
00000000
00000000
00000020
00000000
00000000
00000100
,
00000000
00000000
00000000
00000100
00000000
00000130
00000000
00000220
,
00000000
00000330
00000000
00000000
00000001
00000000
00001000
00000002
,
00000000
00000000
00000000
00000003
00001000
00000000
00000100
00000020
,
00000000
00000000
00000000
00000030
00000100
00000000
00010000
00002000
,
00000000
00000000
00000000
00003000
00010000
00000000
01000000
00200000
,
00000000
00000000
00000000
00300000
01000000
00000000
00100000
00020000
,
00000000
00000000
00000000
00030000
00100000
00000000
01000000
00000000
,
01100000
00000000
10010000
00000000
,
10000000
00010000
20000000
00000000
,
30000000
01000000
00100000
00010000
,
00000000
01000000
00001000
00010000
,
00000000
00000100
00000010
00001000
,
00010000
00000000
00001000
00000000
,
00200000
00000000
00300000
00000000
,
00020000
00000000
00030000
00000000
,
00200000
00000000
02300000
03000000
,
00200000
00000000
00302000
00000000
,
00013000
00001000
00010000
00000000
,
00010000
00001000
00000010
00000000
,
00000000
00000010
00000000
00000000
00000100
00000000
00000000
00000010
,
00000000
00000001
00000000
00001000
00000000
00000000
00000000
00000000
,
00001000
00000100
00000001
00000000
,
00000001
00000100
00001000
00000000
,
00000020
00000000
00020030
00000000
,
00032000
00000000
00103000
00100000
,
00000000
00010000
10000000
01000000
,
00000000
01000000
10000000
00100000
,
00000000
01000000
00010000
00100000
,
00001000
00000000
00010100
00000000
,
00020000
00000000
00000000
00030000
,
00002000
00000000
00000000
00003000
,
02000000
00000000
00000000
00000000
,
00000000
00000000
00000000
00000000
,
00000000
00000000
00000000
00000000
,
00000000
00000000
00000000
03100000
,
01100000
00000000
00000000
00000000
,
00000000
00000000
00000000
00000000
;
#NOTES:
     dance-double:
     :
     Medium:
     13:
     :
00000000
00000000
00000000
00000000
,
00000000
00000000
00000000
00000000
,
00000000
00000000
00000000
00000000
,
00000000
00000000
00000000
00000000
,
00000000
00000000
00000000
00000000
,
00000000
00000000
00000000
00000000
,
00000000
00000000
00000000
00000000
,
00000000
00000000
00000000
00000000
,
00000000
00000000
00000000
00000000
,
00000000
00000000
00000000
00000000
,
10000000
00000000
10000000
00000000
10000000
00000000
10000000
01000000
,
00010000
01000000
10000000
00000000
00100000
00000000
00010000
00001000
,
00000010
00000000
00000010
00000000
00000010
00000000
00000010
00000001
,
00001000
00000001
00000010
00000100
00000000
00000100
00000010
00000000
,
00000001
00000000
00000001
00000000
00000001
00000000
00000001
00000100
,
00001000
00000100
00000010
00000000
00000010
00000000
00000100
00001000
,
00010000
00000000
00010000
00000000
00010000
00000000
00010000
00001000
,
00010000
01000000
10000000
01000000
00000000
00100000
01000000
00100000
,
01000000
00000000
00000000
00000000
01000000
00000000
00000000
00000000
00100000
00000000
00000000
01000000
00000000
00000000
00100000
00000000
,
00010000
00000000
00000000
00000000
00010000
00000000
00000000
00000000
10000000
00000000
00000000
00010000
00000000
00000000
10000000
00000000
,
01000000
00000000
00000000
00000000
01000000
00000000
00000000
00000000
00010000
00000000
00000000
00001000
00000000
00000000
00010000
00000000
,
00000100
00000010
00000110
00000000
,
00000002
00000203
00000320
00002030
00003200
00020300
00032000
00203000
,
00320000
02030000
03002000
00023000
00030200
00000320
00000032
00002003
,
00000000
00000000
00000000
00000000
,
00003000
00000000
00000000
00000000
,
00001100
00000000
00001000
00000100
00001000
00000000
00000010
00010000
,
00000000
00001000
00010000
00001000
00010000
00000000
00000000
00000000
,
00001000
01000000
01000000
00001000
00100000
00100000
00001000
00010000
,
00000000
00100000
10000000
00010000
10000000
00000000
00000000
00000000
,
01000000
01000000
00100000
00000000
00100000
00000000
10000000
00100000
,
00000000
00010000
00000000
01000000
10000000
00000000
01000000
00000000
,
00200000
00000000
00310000
00002000
00000000
00013000
00001000
00000100
,
00000010
00000100
00000001
00001000
,
00000001
00000000
00000000
00000000
00000100
00000000
00000000
00000000
00000010
00000000
00000000
00000000
00000100
00000000
00000000
00000000
00000000
00000000
00000010
00000000
00000000
00001000
00000000
00000000
,
00000000
00000010
00001000
00000000
00000100
00000000
00000000
00000000
,
00010000
00000100
00000100
00010000
00000010
00000010
00010000
00001000
,
00000000
00000010
00000001
00001000
00000001
00000000
00000000
00000000
,
00000010
00000010
00000100
00000000
00000100
00000000
00000010
00000001
,
00000000
00001000
00000000
00000001
00000100
00000000
00000000
00000000
,
00002000
00020000
00030000
00020000
,
00030000
00000000
00020000
00033000
00011000
00000000
00011000
00000000
,
00010000
00000000
00010000
00000000
00010000
00000000
00010000
01000000
,
00000000
01000000
00000000
00100000
00010000
00000000
10000000
00000000
,
10000000
01000000
10000000
00000000
01000000
00010000
00000000
00001000
,
00000000
00010000
00000000
00000100
00000010
00000000
00000100
00000000
,
00020000
00000000
00000000
00000000
00031000
00000000
00000000
00000010
,
00000000
00000001
00000000
00000100
00000010
00000000
00000200
00000000
,
00000300
00000010
00001000
00000000
00001000
00000100
00000000
00000100
,
00020000
00000000
00032000
00003000
,
00100000
00000000
00000000
00000000
01000000
00100000
01000000
20000000
,
00000000
30010000
00000000
00000000
01000000
00010000
00100000
00002000
,
00000000
00013000
00000000
00000000
00000100
00000010
00000001
00002000
,
00000000
00003010
00000000
00020000
00000000
00031000
00010000
00001000
,
00000100
00000000
00000000
00000000
00000001
00000100
00001000
00000200
,
00000000
00000310
00000000
00000000
00000100
00001000
00010000
00002000
,
00000000
00013000
00000000
00000000
00001000
00010000
00100000
20000000
,
00000000
00010000
00000000
01000000
00000000
30010000
01000000
00200000
,
00000000
00000000
00000000
00310000
00100000
10000000
01000000
00200000
,
00000000
00000000
00000000
00301000
00010000
00000100
00001000
00000020
,
00000000
00000000
00000000
00000031
00000010
00000100
00000010
00002000
,
00000000
00000000
00000000
00003100
00000001
00000100
00000010
00002000
,
00000000
00000000
00000000
00013000
00001000
00010000
00100000
20000000
,
00000000
00000000
00000000
30010000
00100000
01000000
10000000
01000000
,
00100000
00000000
00000000
01000000
00100000
00000000
00000000
00010000
,
10000000
00000000
00000000
00000000
00010000
00000000
00000000
00000000
00100000
00000000
00000000
00100000
00000000
00000000
00100000
00000000
,
01000000
00000000
10000000
00000000
01000000
00010000
00001000
00000000
,
00000010
00000000
00000100
00000000
00010000
00001000
00000100
00000000
,
00000010
00000000
00010000
00000000
00001000
00010000
00100000
00000000
,
10000000
01000000
00100000
10000000
,
00200000
00000000
00300000
00020000
00000000
00030000
00000000
00000000
,
20000000
00000000
30000000
02000000
00000000
03000000
00000000
00000000
,
00020000
00000000
00031000
00000100
,
00000020
00000000
00000030
00000000
,
00000100
00000000
00000001
00000000
00000010
00000000
00001000
00000010
,
00000000
00000001
00000100
00001000
00010000
00000000
00000000
00000000
,
00001000
00010000
00010000
00001000
00100000
00100000
00010000
01000000
,
00000000
00100000
10000000
01000000
00010000
00000000
00000000
00000000
,
00001000
00001000
00010000
00000000
00000100
00000000
00000010
00000001
,
00000000
00001000
00000010
00000100
00000002
00000000
00000000
00000000
,
00002003
00003002
00002003
00003002
,
00002003
00000000
00000002
00003003
00001001
00000000
00001001
00000000
,
00000000
00000000
00000001
00000000
00000100
00001000
00010000
00000000
,
00010000
00001000
00000010
00000000
00001000
00010000
00100000
00000000
,
01000000
00010000
00100000
00000000
01000000
10000000
00100000
00000000
,
00010000
00100000
10000000
02000000
03100000
02000000
03100000
01000000
,
00020000
00000000
00000000
00030000
,
00002000
00000000
00000000
00003000
,
00020000
00000000
00000000
00000000
,
00000000
00000000
00000000
00000000
,
00000000
00000000
00000000
00000000
,
00000000
00000000
00000000
00031000
,
00011000
00000000
00000000
00000000
,
00000000
00000000
00000000
00000000
;
#NOTES:
     dance-double:
     :
     Hard:
     16:
     :
00000000
00000000
00000000
00000000
,
00000000
00000000
00000000
00000000
,
00000000
00000000
00000000
00000000
,
00000000
00000000
00000000
00000000
,
00000000
00000000
00000000
00000000
,
00000000
00000000
00000000
00000000
,
00000000
00000000
00000000
00000000
,
00000000
00000000
00000000
00000000
,
00000000
00000000
00000000
00000000
,
00000000
00000000
00000000
00000000
,
00010000
00000000
00010000
00000000
00010000
00000000
00001000
00010000
,
00100000
01000000
00010000
00000000
00100000
00000000
00001000
00010000
,
01000000
00000000
10000000
00000000
00100000
00000000
00010000
00001000
,
00000010
00000001
00000100
00000000
00000100
00000001
00000010
00000100
,
00010000
00000000
00010000
00000000
00010000
00000000
00001000
00000100
,
00000010
00000100
00000001
00000000
00000010
00000000
00001000
00000010
,
00000001
00000000
00000100
00000000
00001000
00000000
00010000
01000000
,
00100000
10000000
00100000
00020000
00000000
10030000
01000000
00010000
,
00001000
00000000
00000000
00000000
00001000
00000000
00000000
00000000
00001000
00000000
00000000
00010000
00001000
00000000
00010000
00000000
,
01000000
00000000
00000000
00000000
01000000
00000000
00000000
00000000
00100000
00000000
00000000
00100000
00000000
00000000
00010000
10000000
,
01000000
00000000
00000000
00000000
01000000
00000000
00000000
00000000
00010000
00000000
00000000
00001000
00000000
00000000
00000010
00000000
,
00000001
00000000
00001000
00000000
00002001
00000000
00000001
00003001
,
00000010
00001000
00010000
00100000
00010000
00001000
00000100
00000010
,
00001000
00000010
00001000
00000010
00001000
00000000
00000001
00000000
00000100
00000010
00000100
00000010
00000100
00000000
00002000
00000000
,
00020000
00030000
00020000
00030000
,
00013000
00200000
02300000
03010000
,
10100000
00000000
10000000
01000000
00100000
00000000
10000000
00100000
,
00000000
00010000
01000000
00001000
00020000
00000000
00030100
00000000
,
00000010
00000000
00000001
00000010
00000001
00000000
00000100
00000000
00000010
00000000
00001000
00000000
00000000
00000000
00000101
00000000
,
00000000
00000100
00001000
00010000
00000000
00001000
00010000
00000000
,
00100000
00100000
01000000
00000000
01000000
00000000
10000000
01000000
,
00010000
00000000
00100000
00000000
10000000
00000000
00100000
00000000
01000000
00000000
00000000
00000000
00010000
00001000
00010000
00001000
,
00010000
00001000
00100000
00001000
00010000
00000100
00010000
00001000
,
00022000
00033000
00020200
00030300
00002200
00003300
00000220
00000330
,
00000010
00000000
00000000
00000000
00000001
00000000
00000000
00000000
00000010
00000000
00000001
00000000
00000100
00000000
00000000
00000000
00000000
00000000
00000001
00000000
00000000
00000100
00000000
00000000
,
00000000
00000010
00001000
00010000
02000000
00000000
03100000
00000000
,
00100000
00000000
10000000
01000000
00100000
00000000
10000000
00000000
00100000
00000000
01000000
00000000
00000000
00000000
11000000
00000000
,
00000000
01000000
10000000
00100000
00020000
00000000
00031000
00000000
,
00000100
00000100
00000010
00000000
00000100
00000000
00000001
00000010
,
00000100
00000000
00000001
00000000
00000100
00000000
00001000
00000000
00010000
00000000
00100000
00000000
01000000
00100000
01000000
00100000
,
02000000
00000000
00000000
00000000
00000000
00000000
00000000
00000000
00000000
00000000
00000000
00000000
13000000
00000000
00000000
00000000
01000000
00000000
00000000
00000000
10000000
00000000
00000000
00000000
02000000
00000000
00000000
00000000
00000000
00000000
00000000
00000000
00000000
00000000
00000000
00000000
03100000
00000000
00000000
00010000
00000000
00000000
00100000
00000000
00000000
00010000
00000000
00000000
,
02000000
00000000
00200000
03300000
01100000
00000000
01100000
00000000
,
10000000
00000000
10000000
00000000
10000000
00000000
01000000
00100000
,
00010000
01000000
00100000
00010000
00001000
00000000
00001000
00000000
,
00001000
00000000
00010000
00001000
00010000
00000000
00000000
00000000
00000100
00000000
00000010
00000000
00000000
00000000
00000110
00000000
,
00000000
00000010
00000001
00001000
00000000
00000100
00000100
00000000
,
00000010
00000001
00001000
00000001
00000010
00000000
00000000
00000000
00000100
00000000
00000000
00000000
00010000
00000000
00001000
00000000
,
00010000
00000000
00001000
00000000
01000000
00000000
00100000
00000000
01000000
00000000
00000000
00000000
00010000
01000000
00010000
01000000
,
00000000
00100000
00100000
00000000
10000000
10000000
00000000
00100000
,
01000000
00000000
00010000
00000000
00000000
00001000
00000000
00000000
00000010
00000000
00000000
00000001
00000000
00000000
00000010
00001000
,
00000010
00000000
00000110
00000000
00000010
00000100
00001000
00020000
,
00000000
01030000
00000000
00000000
00100000
00010000
00001000
00000200
,
00000000
00000310
00000000
00000000
00001000
00010000
00100000
20000000
,
00000000
31000000
00000000
00020000
00000000
01030000
10000000
00100000
,
10000000
01000000
10000000
01000000
00010000
01000000
00010000
01000000
,
00010000
00001000
00010000
00001000
00010000
00001000
00010000
00000000
00000100
00000010
00000100
00000010
00000100
00000010
00000100
00000000
,
00000010
00000000
00000000
00000000
00000000
00000000
00000001
00001000
00000100
00000000
00000000
00000000
00000000
00000000
00000010
00000001
,
00001000
00000020
00000000
00000230
00000000
00000301
00000010
00002000
,
00000000
00000000
00000000
00003010
00000001
00000100
00000010
00001000
,
00000001
00000100
00001000
00010000
00000010
00001000
00000100
00010000
,
00001000
00000010
00001000
00010000
00100000
01000000
10000000
01000000
,
00010000
00000000
10000000
00000000
00100000
00000000
01000000
00010000
01000000
00000000
00100000
00000000
00010000
00000000
00001000
00000000
,
00000100
00000100
00000100
00000010
00000001
00000010
00001000
00000001
,
00000100
00001000
00000100
00000010
00010000
00001000
00000100
00001000
,
00010000
00000000
00000000
00100000
01000000
00000000
00000000
00010000
,
10000000
00000000
00000000
00000000
11000000
00000000
00000000
00000000
01000000
00000000
00000000
00100000
00000000
00000000
00001000
00000000
,
00010000
00000000
00100000
00010000
00100000
10000000
00010000
01000000
,
00100000
00010000
00001000
00000010
00000001
00000100
00000001
00000100
,
00000020
00000000
00001030
00000100
00000010
00001000
00010000
00001000
,
00020000
00000000
00031000
00100000
01000000
00100000
00010000
10000000
,
00010000
10000000
00010000
10000000
00010000
00000000
00100000
01000000
00100000
01000000
00100000
00000000
00000000
00000000
00000000
00000000
,
00001000
00010000
00001000
00010000
00001000
00000000
00000010
00000100
00000010
00000100
00000010
00000000
00000000
00000000
00000000
00000000
,
00000001
00000100
00000010
00000000
00000100
00000010
00001000
00000000
00000002
00000000
00000000
00000000
00000103
00000000
00001000
00000000
,
00010000
00100000
10000000
01000000
00000000
00000000
10000000
00000000
01000000
00000000
00100000
00000000
,
00010000
00000000
00120000
00000000
10030000
00000000
00010000
00100000
,
00000000
01000000
00010000
00001000
00000010
00000000
00000000
00000000
,
00000000
00000000
00000001
00001000
00000100
00000000
00000000
00000000
00000010
00000001
00001000
00000000
00000000
00000000
00000110
00000000
,
00000000
00001001
00000000
00001100
00000000
00000000
00000011
00000000
,
00000010
00000010
00000100
00000000
00000110
00000000
00000010
00000001
,
00000000
00000100
00001000
00010000
00200000
00000000
00000000
00000000
,
02300000
00000000
00000000
00000000
00000000
00000000
00000000
00000000
00000000
00000000
00000000
00000000
03010000
00000000
00000000
00000000
00100000
00000000
00000000
00000000
00010000
00000000
00000000
00000000
02000000
00000000
00000000
00000000
00000000
00000000
00000000
00000000
00000000
00000000
00000000
00000000
03100000
00000000
00000000
10000000
00000000
00000000
00100000
00000000
00000000
10000000
00000000
00000000
,
02000000
00000000
00200000
03300000
01100000
00000000
01100000
00000000
,
00000000
00000000
10000000
01000000
00100000
00010000
00100000
00010000
,
00001000
00000000
00000100
00000000
00001000
00000000
00000100
00000000
00000010
00000000
00000001
00000000
00000010
00000001
00000010
00000001
,
00000100
00000001
00000100
00000001
00000100
00001000
00000100
00001000
,
00010000
00001000
00010000
00200000
00310000
00200000
01300000
00200000
,
10300000
00100000
10000000
00100000
10000000
00000000
00010000
01000000
00010000
01000000
00010000
00000000
00000000
00000000
00000000
00000000
,
00100000
01000000
00100000
01000000
00100000
00000000
00010000
10000000
00010000
10000000
00010000
00000000
00000000
00000000
00000000
00000000
,
10000000
01000000
00010000
10000000
00100000
01000000
00010000
00002000
,
00000000
00000000
00000000
00000000
00000000
00000000
00003010
00000100
00000010
00000000
00000001
00000000
00000100
00000000
00001000
00000000
,
00020000
00000000
00000000
00000000
,
00000000
00000000
00000000
00000000
00000000
00000000
00002000
00033000
,
00011000
00000000
00000000
00000000
,
00000000
00000000
00000000
00000000
;
