
//----- song ID: unkn -----//
#TITLE:UИKNØWNZ;
#ARTIST:nora2r & L.E.D.-G;
#TITLETRANSLIT:UNKNOWNZ;
#ARTISTTRANSLIT:nora2r & L.E.D.-G;
#BANNER:UNKNOWNZ.png;
#BACKGROUND:UNKNOWNZ-bg.png;
#CDTITLE:./CDTitles/DDR WORLD.png;
#MUSIC:UNKNOWNZ.ogg;
#SAMPLESTART:80.69;
#SAMPLELENGTH:15;
#BPMS:0=232,40=116,56=232,216=116,232=232,248=116,256=232,352=116,360=232,372=116;
#BGSTAGE:;
#NOTES:
     dance-single:
     :
     Beginner:
     5:
     :
0000
0000
0000
0000
,
0000
0000
0000
0000
,
0000
0000
0000
0000
,
0000
0000
0000
0000
,
0000
0000
0000
0000
,
0000
0000
0000
0000
,
1000
0000
0000
0000
,
0000
0000
0000
0000
,
0001
0000
0000
0000
,
0000
0000
0000
0000
,
1000
0000
0000
0000
,
1000
0000
0000
0000
,
0001
0000
0000
0000
,
0001
0000
0000
0000
,
0020
0000
0000
0000
,
0030
0000
0000
0000
,
0100
0000
0000
0000
,
0100
0000
0000
0000
,
0010
0000
0010
0000
,
0001
0000
0001
0000
,
1000
0000
1000
0000
,
0100
0000
0100
0000
,
0010
0000
0010
0000
,
0001
0000
0001
0000
,
1000
0000
1000
0000
,
0200
0000
0300
0000
,
1000
0000
1000
0000
,
0001
0000
0001
0000
,
0100
0000
0100
0000
,
0010
0000
0010
0000
,
0110
0000
0000
0000
,
1001
0000
0000
0000
,
0001
0000
0001
0000
,
1000
0000
1000
0000
,
0020
0000
0000
0030
,
0000
0000
0010
0000
,
1000
0000
1000
0000
,
0100
0000
0100
0000
,
0010
0000
0010
0000
,
0001
0000
0001
0000
,
0100
0000
0100
0000
,
0001
0000
0001
0000
,
1000
0000
1000
0000
,
0010
0000
0010
0000
,
0010
0000
1000
0000
,
0010
0000
1000
0000
,
0001
0000
0100
0000
,
0001
0000
0001
0000
,
0020
0000
0030
0000
,
0100
0000
0100
0000
,
1000
0000
0100
0000
,
0010
0000
0001
0000
,
1001
0000
0000
0000
,
0000
0000
0000
0000
,
0002
0000
0003
0000
,
2000
0000
3000
0000
,
0002
0000
0003
0000
,
2000
0000
3000
0000
,
0020
0000
0030
0000
,
0020
0000
0030
0000
,
0200
0000
0300
0000
,
0200
0000
0300
0000
,
0001
0000
0000
0000
,
1000
0000
0000
0000
,
1001
0000
0000
0000
,
0001
0000
0000
0000
,
1000
0000
0000
0000
,
0000
0000
0000
0000
,
0001
0000
0001
0000
,
1000
0000
1000
0000
,
0100
0000
0100
0000
,
0010
0000
0010
0000
,
0001
0000
0001
0000
,
1000
0000
1000
0000
,
0010
0000
0010
0000
,
0010
0000
0010
0000
,
0100
0000
0100
0000
,
0100
0000
0100
0000
,
2002
0000
0000
3003
,
0000
0000
0000
0000
,
1000
0000
1000
0000
,
0001
0000
0001
0000
,
1000
0000
1000
0000
,
0001
0000
0001
0000
,
0200
0000
0300
0000
,
0200
0000
0300
0000
,
0020
0000
0030
0000
,
0020
0000
0030
0000
,
1001
0000
0000
0000
,
1001
0000
0000
0000
,
2000
3000
0000
0002
,
0003
0000
0010
0000
,
0200
0000
0300
0000
,
1001
0000
0000
0000
,
0000
0000
0000
0000
;
#NOTES:
     dance-single:
     :
     Easy:
     11:
     :
0000
0000
0000
0000
,
0000
0000
0000
0000
,
0000
0000
0000
0000
,
0000
0000
0000
0000
,
0000
0000
0000
0000
,
0000
0000
0000
0000
,
1000
0100
1000
0000
,
0001
0010
0001
0000
,
1000
0010
1000
0010
,
1000
0000
0000
0010
0000
0000
1000
0000
,
0001
0000
0100
0000
0001
0000
0000
0001
0000
0001
0000
0001
0000
0000
1000
0000
,
0010
0000
0100
0000
0010
0000
0000
1000
0000
1000
0000
1000
0000
0000
0100
0000
,
1000
0000
0001
0000
1000
0000
0000
0010
0000
0010
0000
0010
0000
0000
0100
0000
,
0110
0000
0000
0000
1000
1000
0001
0001
,
1000
1000
0001
0001
,
0010
0010
0100
0100
,
0010
0010
0010
0010
,
1001
0000
0000
0000
,
0001
0001
0001
0100
,
0100
0100
0010
0010
,
0010
1000
1000
1000
,
0001
0000
0000
0001
0000
0000
0001
0000
,
1000
0100
0010
0001
,
1000
0100
0010
0001
,
0010
0010
0100
0100
,
0010
0000
0000
0010
0000
0000
0010
0000
,
1100
1100
1100
0000
,
0011
0011
0011
0000
,
1000
0001
1000
0001
,
0100
0000
0000
0100
0000
0000
0100
0000
,
0002
0103
0010
1000
,
0100
0010
0100
0010
,
0100
0100
1000
0010
,
1000
0000
0000
1000
0000
0000
1000
0000
,
1001
0000
0000
1000
0000
0000
1001
0000
,
0000
0001
0000
0000
1001
0000
0000
0000
,
0001
0010
0100
1000
,
0100
0010
0001
0000
,
0001
0100
1000
0100
,
0001
0100
0000
0000
,
0010
0100
0001
1000
,
0010
0100
0001
0001
,
1000
1000
0100
0100
,
0020
0032
0023
0032
,
1003
0010
0100
0001
,
0100
0010
1000
0001
,
1000
0010
0001
0010
,
2000
0000
3010
0100
,
0110
0000
1000
0100
,
0010
0100
0010
0001
,
0020
0000
0230
0000
,
2300
0000
3002
0000
,
2003
0000
0000
0000
,
0000
0000
0000
0000
,
3001
0000
0100
0000
0001
0000
0000
0010
0000
0010
0000
0010
0000
0000
0001
0000
,
1000
0000
0010
0000
1000
0000
0000
0100
0000
0100
0000
0100
0000
0000
1000
0000
,
0100
0000
0010
0000
0001
0000
0000
1000
0000
1000
0000
1000
0000
0000
0001
0000
,
0010
0100
2000
0000
3200
0000
0320
0000
,
0031
0000
0000
0001
0000
0000
0001
0000
,
1000
0000
0000
1000
0000
0000
1000
0000
,
0010
0000
0000
0010
0000
0000
0010
0000
,
0100
0100
0100
0100
,
0200
0300
0100
0100
,
0010
0000
0010
0000
1000
1000
1000
0000
,
0220
0000
0000
0000
,
0000
0000
0000
0330
,
2002
0000
0000
0000
,
0000
0000
3003
1001
,
1000
0001
0010
0001
,
1000
0100
1000
0001
,
0010
0010
0100
0100
,
1000
0100
0010
0001
,
0001
1000
0010
1000
,
0001
0100
0001
1000
,
0001
0100
0020
0030
,
0020
0030
0020
0030
,
0100
0000
0100
0000
,
0100
0100
0100
0000
,
2002
0000
0000
0000
,
3003
0000
0000
0000
,
1000
0100
0001
0100
,
1000
0100
0001
0000
,
0100
1000
0010
1000
,
0100
1000
0010
0000
,
0100
0000
0001
0000
0000
0001
0000
0000
,
0001
0000
0000
0001
0000
0000
0001
0000
,
1000
1000
1000
0000
,
0010
0010
0010
0000
,
0110
0000
0000
0000
0000
0000
0000
0010
0000
0010
0000
0010
0000
0000
0000
0000
,
1001
0000
0000
0000
0000
0000
0000
1000
0000
1000
0000
1000
0000
0000
0000
0000
,
0001
0100
1000
0100
,
0001
0010
0001
0100
,
0010
0000
0000
0010
0000
0000
0010
0000
,
1001
0000
0000
0000
,
0000
0000
0000
0000
;
#NOTES:
     dance-single:
     :
     Medium:
     14:
     :
0000
0000
0000
0000
,
0000
0000
0000
0000
,
0000
0000
0000
0000
,
0000
0000
0000
0000
,
0000
0000
0000
0000
,
0000
0000
0000
0000
,
1000
0100
1000
0010
,
0100
0000
0001
0000
1000
0100
1000
0100
,
0010
0100
1000
0001
,
0010
0010
0000
0110
0000
0000
1000
0001
,
1000
0001
1000
0000
0010
0000
0000
0100
0000
0100
0000
0002
0000
0000
0103
0000
,
0010
0100
0010
0000
1000
0000
0000
0001
0000
0001
0000
0020
0000
0000
0130
0000
,
1000
0010
1000
0000
0001
0000
0000
0010
0000
0010
0000
0200
0000
0000
1300
0000
,
1010
0000
1000
0010
1000
0010
1000
0000
0001
0100
0001
0100
0010
0000
0110
0000
,
1001
1000
0100
0100
,
0010
0010
0001
0001
,
1000
0010
1000
0010
0100
0001
0100
0001
,
0010
0000
0000
0000
,
0001
0100
0010
0000
1000
0000
1000
0100
,
0010
0000
0001
0000
0001
0010
0001
0000
,
0010
0000
0010
0000
0001
1000
0001
0000
,
0010
0000
0100
1000
0000
0001
0010
0000
,
0010
0000
0100
0000
0011
0000
1000
0100
,
1000
0000
0010
0000
0101
0000
0001
1000
,
0010
0000
0100
0000
0100
0001
0010
0001
,
1000
0000
1000
0010
0000
0100
0001
0000
,
1000
0100
0001
0000
0100
0000
1000
0100
,
0001
0000
0100
0000
1000
0010
0001
0000
,
0010
0000
1000
0000
0001
0100
0010
0000
,
1000
0100
0010
0001
0010
0100
0001
0000
,
0200
0000
0320
0000
0031
0000
0100
1000
,
0100
0000
0001
0000
0010
0000
0001
0100
,
1000
0100
0001
0000
0010
0000
0100
1000
,
0010
0100
0001
1000
0001
0100
0010
0000
,
1010
0000
0000
0110
0000
0000
0101
0000
,
0000
0110
0000
0000
1001
0000
0000
0000
,
0001
0000
0000
1000
0000
0001
1000
0000
0000
0001
0000
1000
,
0001
0011
1001
0101
,
0010
0000
0100
0010
0000
0000
0100
0000
0000
0010
0000
0000
,
2002
0000
0000
0000
0000
3003
0000
0000
0000
0000
0000
0000
,
1000
1100
0100
0110
,
0001
0100
0010
1000
,
0001
0101
0100
0110
,
2000
3200
0320
0031
,
0010
0000
0000
0100
0000
0010
0100
0000
0000
0010
0000
0100
,
0010
0000
0100
0010
0000
0100
0010
0000
0000
0001
0000
0000
,
1000
0000
0100
0010
0000
0000
0110
0000
0000
1001
0000
0000
,
2000
0000
3010
0100
,
0000
0000
0000
0001
0000
0000
1000
0000
0100
1000
0000
0100
,
1000
0000
0000
0001
0000
0010
0001
0000
0010
0001
0000
0000
,
0022
0033
2200
3300
,
0200
0320
0032
0203
,
0020
0000
0000
0000
,
0000
0000
0000
0330
,
0100
0010
0100
0000
0001
0100
0010
1000
0000
0001
0000
2000
0000
0000
3100
0000
,
0010
0100
0010
0000
0001
0010
0100
1000
0000
0001
0000
2000
0000
0000
3001
0000
,
1000
0001
1000
0000
0001
1000
0100
0010
0000
0100
0000
0020
0000
0000
0130
0000
,
1000
0100
0001
0000
0001
0000
0100
1000
0010
0001
0010
1000
0100
0010
0001
0000
,
1000
0000
1000
0100
0000
1000
0100
0000
,
0010
0000
0010
0001
0000
0010
0001
0000
,
0100
0000
0100
0010
0000
0100
0010
0000
,
1000
0000
1000
0000
0001
0100
0001
0100
,
0001
0010
0001
0000
1000
0001
1000
0010
0000
0010
0000
0010
0000
0100
0001
1000
,
0001
0000
0001
0000
1000
0100
1000
0000
0010
0000
0100
0000
0220
0000
0330
0000
,
0010
1000
0001
0000
0001
1000
0010
0000
,
0010
0100
0001
0000
0100
0010
1000
0000
,
2000
3002
0023
2030
,
3020
0000
0032
0000
1003
0100
1001
0000
,
1000
0100
0010
0000
0001
0100
0010
1000
,
0000
1000
0000
0200
0000
0310
0001
1000
,
0001
0100
0010
0000
1000
0010
0100
0001
,
0000
0001
0000
0002
0000
0103
0010
1000
,
0001
0010
1000
0000
0010
0001
0100
0010
,
0000
0010
0000
0200
0000
0310
1000
0001
,
1000
0100
0001
0000
0100
1000
0100
0000
,
1100
1001
1010
1001
,
0001
0000
1000
0000
,
0010
0010
0010
0000
,
2002
0000
0000
0000
,
3003
0000
0000
0000
,
1000
0000
0100
0010
0100
0010
0100
0000
,
0010
0001
1000
0000
1000
0001
0010
0000
,
0010
0100
1000
0000
1000
0100
0010
0000
,
0010
0001
0100
0001
0010
0001
1000
0000
,
0100
0010
0100
0010
0000
0002
0000
1003
,
0010
0010
0000
0020
0000
1030
1000
0000
,
0001
0100
0001
0100
0001
0010
0001
0000
,
1000
0100
2000
0000
3100
0010
0100
0010
,
0002
0003
0000
0000
0000
0000
0000
0000
0010
0000
0000
0000
0000
0000
0000
0000
0100
0000
0000
0000
0000
0000
0000
0000
0000
0000
0000
0000
1000
0000
0000
0000
0000
0000
0000
0000
0001
0000
0000
0000
0000
0000
0000
0000
1000
0000
0000
0000
0000
0000
0000
0000
0001
0000
0000
0000
0010
0000
0000
0000
0000
0000
0000
0000
,
0100
0000
1000
0000
0100
0000
0000
0010
0000
0001
0000
1000
0000
0000
0000
0000
,
1000
0100
0010
0001
0011
0000
0001
0100
,
0010
1000
1010
0000
0001
1000
0001
0000
,
0011
0000
0000
1001
0000
0000
0101
0000
,
1001
0000
0000
0000
,
0000
0000
0000
0000
;
#NOTES:
     dance-single:
     :
     Hard:
     16:
     :
0000
0000
0000
0000
,
0000
0000
0000
0000
,
0000
0000
0000
0000
,
0000
0000
0000
0000
,
0000
0000
0000
0000
,
0000
0000
0000
0000
,
1000
0100
1000
0010
0100
0010
0001
0010
,
0100
0010
1000
0001
0100
1000
0100
0001
,
0010
0001
0100
0010
1000
0100
0001
0100
,
0010
0010
0000
0010
0000
0001
1000
0001
,
0010
1000
0001
0000
0200
0000
0310
0200
0000
0320
0000
0230
0000
1300
0001
0000
,
0010
1000
0001
0000
0200
0000
0310
0200
0000
0320
0000
0230
0000
1300
0001
0000
,
0100
1000
0001
0000
0020
0000
0130
0020
0000
0230
0000
0320
0000
0130
0010
0000
,
0110
0000
0000
0000
0010
0000
0100
0000
0001
1000
0001
0000
1000
0000
0100
0000
0010
0000
0010
0000
0001
0000
0010
0000
0001
0000
0000
0000
1001
0000
0000
0000
,
1000
0100
1000
0100
1000
0100
1000
0000
,
0001
0010
0001
0010
0001
0001
0001
0000
,
1000
0000
0001
0000
1000
0000
0001
0000
1000
0001
1000
0000
0001
1000
0001
0000
,
0100
0000
0000
0010
1000
0100
0001
0100
,
0010
0001
0010
0001
1000
0000
0100
1000
,
0100
1000
0001
0000
0100
1000
0001
0010
,
1000
0000
0001
0000
0100
0100
0100
0000
,
1000
0100
0001
1000
0100
0001
0100
0000
,
0110
0000
0110
0000
1100
0000
1000
0100
,
1100
0000
1100
0000
1001
0000
0001
1000
,
0001
0000
1001
0000
0001
0001
1000
1000
,
0010
0000
1000
0000
0100
0000
0010
0000
0001
0000
0100
0000
0010
0100
0010
0000
,
0110
0000
1001
0000
0011
0000
1000
0100
,
1000
0000
0100
0000
0010
0000
0001
0001
,
0001
0000
1100
0000
0100
0100
0100
0000
,
1000
0100
0010
1000
0010
0001
0100
0000
,
0002
0000
2003
0000
3001
0000
0001
0001
,
1000
0000
0010
0000
0100
0000
0010
0010
,
1000
0001
0010
0000
0010
0000
0001
1000
,
0010
1000
0001
1000
0100
0001
0100
0100
,
0110
0000
0000
0101
0000
0000
0110
0000
,
0000
1100
0000
0000
1001
0000
0001
0000
,
1000
0000
0000
0100
0000
0010
0001
0000
0000
0100
0000
0010
,
0001
0000
0010
0100
0000
0010
1000
0000
0000
0101
0000
0000
,
1010
0000
1000
0010
0000
0100
0001
0000
0000
0100
0000
0000
,
0001
0100
0001
0100
0000
0001
0000
0000
0000
0000
0000
0000
,
0101
1001
1100
1001
,
0001
0000
1000
0100
0010
0001
0010
0000
0001
0010
0100
1000
,
0100
1100
0110
0011
,
2001
0000
0000
3020
0000
0000
1030
0001
1000
0001
0000
0000
,
0011
0000
0000
0010
0000
0010
0001
0000
0000
1000
0000
0100
,
0010
0000
0010
0001
0000
0001
0100
0000
0000
0110
0000
0000
,
0010
0000
1000
0100
0000
0000
1100
0000
0000
0011
0000
0000
,
0001
0100
0001
0100
0000
0100
0010
0000
0000
0010
1000
0010
,
1000
0000
0000
0001
0000
0000
1000
0000
1000
0100
0000
0100
,
0010
0000
0000
0001
0000
0001
0100
0000
0100
0010
0000
0010
,
1000
0010
1000
0010
0000
0100
0010
0100
0010
0100
0000
0001
,
1000
0100
1000
0001
0100
0001
1000
0010
1000
0001
0010
0001
,
2000
0000
0000
0000
,
0000
0000
0000
0000
,
3001
1000
0002
0000
1003
1000
0100
0020
0000
0001
0000
0100
0000
1030
0010
0001
,
1000
0010
0002
0000
1003
1000
0100
0020
0000
1000
0000
0100
0000
0031
0010
1000
,
0100
0010
0002
0000
0103
0010
0100
1000
0000
0110
0000
1001
0000
1000
0001
0100
,
0001
0000
1000
0000
0010
0000
0000
0000
0010
0000
0000
0100
0010
0000
1000
0000
0100
0010
0100
0000
1000
0000
0001
0000
0100
0010
0100
0000
1000
0000
0100
0000
,
0010
0100
1000
0001
0010
0100
0001
1000
,
0100
0010
1000
0001
0100
0010
0001
1000
,
0001
0010
0100
0010
1000
0010
0001
1000
,
1001
0000
1001
0000
1000
1000
0001
0001
,
1000
1000
1000
0000
0001
0001
0001
0010
0000
0010
0000
0010
0000
0100
0010
0001
,
1000
0000
0000
0000
0100
0000
0001
0000
0100
0000
1000
0001
1000
0000
0100
0000
1100
0000
0000
0000
1100
0000
0000
0000
0022
0000
0000
0000
0033
0000
0000
0000
,
0010
0010
0010
0010
0100
0100
0100
0100
,
0010
0010
0010
0001
1000
1000
1000
0100
,
1000
0100
1000
0000
0100
1000
0100
0000
0010
0001
0010
0000
0001
0010
0001
0000
,
1000
0001
1000
0001
1000
0000
0001
0000
0010
0000
0001
0100
0001
0000
0000
0000
,
0001
0000
0100
0000
1000
0000
0000
0000
0001
0000
0000
0010
0100
0000
0001
0000
,
0000
1000
0000
1001
0000
0001
1000
0100
,
1000
0100
0001
0000
1000
1000
1000
0010
,
0000
0000
0110
0000
0000
0000
1001
0000
0000
0000
0001
0000
1000
0001
1000
0000
,
0010
0000
0001
0000
1000
0000
0000
0000
0100
0000
0010
0100
0010
0000
0100
0000
,
0000
0101
0000
1010
0000
1000
0100
0001
,
0100
0010
1000
0000
1000
0000
0001
0100
,
1000
0010
0001
0010
0100
0010
0001
1000
,
0100
0000
0110
0000
,
0110
0110
1001
0000
,
1000
0100
1000
0100
1000
0000
0001
0000
0010
0001
0010
0001
0010
0000
0100
0000
,
1001
0000
0000
0000
,
1000
0000
0001
0001
0010
0010
0100
0000
,
0001
0000
0100
0010
0100
0000
1000
0000
0001
0000
0100
0000
1000
0000
0100
0010
,
0100
0000
0010
0000
1000
0000
0001
0000
1000
0100
1000
0000
0010
0000
0100
0000
,
0010
1000
0100
0001
0100
1000
0010
0001
,
0010
0010
0010
0010
0000
0220
0330
1000
,
1000
1000
0000
2002
3003
0001
0001
0000
,
0001
0000
0100
0000
1000
0000
0100
0001
0100
0000
1000
0000
0100
0000
0001
0000
,
1000
0010
0001
0010
1000
1000
0001
0001
,
1001
0000
1000
0000
0001
0000
0000
1000
0000
0100
0000
0011
0000
0001
0100
1000
,
0100
0000
0010
0000
0001
0000
0000
0110
0000
1010
0000
1001
0000
0000
0000
0000
,
1000
0100
1000
0000
0100
0000
0010
0000
0001
0000
0000
0000
0001
0010
0001
0000
,
0010
0100
1000
0000
0001
0001
1000
1000
,
1100
0000
0000
1001
0000
0000
0110
0000
,
1001
0000
0000
0000
,
0000
0000
0000
0000
;
#NOTES:
     dance-single:
     :
     Challenge:
     18:
     :
0000
0000
0000
0000
,
0000
0000
0000
0000
,
0000
0000
0000
0000
,
0000
0000
0000
0000
,
0000
0000
0000
0000
,
0000
0000
0000
0000
,
0001
0100
1000
0001
0010
1000
0001
0010
,
0100
0010
0100
1000
0010
0100
1000
0001
,
0010
0100
0001
0010
0100
0010
0001
0100
,
1001
0000
1001
0000
0000
0000
1001
0000
0000
0000
1000
0001
1000
0000
0001
0000
,
1000
0100
0010
0000
0210
0000
1000
1000
0000
0320
0000
0032
0000
1003
0020
0000
,
0130
0001
1000
0000
1002
0000
0010
0010
0000
2003
0000
3200
0000
0310
0002
0000
,
1003
0100
0020
0000
0001
0000
0100
0100
0000
0001
0000
1000
0000
0100
0130
0000
,
0011
0000
0000
0000
1000
0000
0010
0000
1000
0010
1000
0000
0001
0000
0100
0000
0001
0000
0100
0001
0100
0000
0001
0100
0001
0000
0010
0000
0001
0000
0000
0000
,
1000
0100
1000
0100
0010
0001
0010
0001
,
0010
0100
0010
0100
0010
0010
0010
0010
,
0001
0000
0001
0000
1000
0000
1000
0000
0010
1000
0010
1000
0010
1000
0010
1000
,
0010
0000
0000
0000
0000
0000
0100
0001
0100
0000
0001
0000
1000
0001
1000
0001
,
1000
1000
0001
0001
0010
0000
0010
0010
,
0100
0100
1000
0000
1000
1000
0001
0001
,
0100
0000
1010
0000
0010
0010
0010
0000
,
0100
0001
0010
0100
1000
0010
0100
0000
,
0101
0000
1001
0000
0011
0000
1000
0100
,
1100
0000
1001
0000
1010
0000
0001
0100
,
0101
0000
0000
0000
1010
0000
0000
0000
1000
0010
1000
0000
0010
0100
0010
0000
,
1000
0000
0100
0000
0001
0000
1000
0000
0010
0000
0001
0000
0010
0100
0000
0100
,
0010
0000
0001
0000
0011
0000
1000
0100
,
1000
0000
0100
0000
1100
0000
0100
0100
,
0110
0000
0011
0000
0001
0001
0001
0000
,
1100
1000
0010
0101
0001
0010
0100
0000
,
0020
0000
0130
0000
1001
0000
0011
0001
,
0001
0000
0100
0000
0010
0000
1010
1000
,
1000
0100
0010
0000
0001
0000
0101
0100
,
0100
0000
0010
0000
0100
0000
0001
0000
1000
0000
0001
0000
0100
0010
0100
0000
,
0110
0000
0000
1010
0000
0000
0101
0000
,
0000
0011
0000
0000
1001
0000
0001
0000
,
1000
0000
0000
0100
0000
0010
0001
0000
0000
1000
0000
0100
,
0010
0000
0010
0001
0100
0010
1000
0100
0001
0100
1000
0010
,
0100
0000
0100
0010
0000
0010
1000
0000
0000
1000
0000
0000
,
0010
0100
0010
0100
0000
1001
0000
0000
0000
0000
0000
0000
,
0011
1001
1010
1001
,
0001
0000
0100
0010
1000
0001
0100
0010
1000
0001
0100
1000
,
0100
0110
0101
0011
,
1200
0000
0000
0320
0000
0000
0031
1000
0001
0100
0000
0000
,
1010
0000
0000
0010
0000
0010
1000
0000
0000
1000
0000
0100
,
0010
0000
0001
0010
0001
1000
0010
1000
0001
0100
0001
1000
,
0100
0000
0100
0010
0000
0000
0110
0000
0000
1001
0000
0000
,
1000
0100
1000
0010
0000
0010
0100
0000
0000
0100
0001
0100
,
0101
0000
0000
0001
0000
0000
1000
0000
0100
0001
0000
1000
,
0010
0000
0000
0001
0000
0100
0010
1000
0001
0100
0010
1000
,
0001
0100
0001
0100
0000
0010
1000
0010
1000
0010
0000
0100
,
0010
1000
0100
0010
0001
0100
0010
0001
0010
1000
0100
0010
,
0002
0000
0000
0000
,
0000
0000
0000
0000
,
1003
0000
0001
0000
2000
0000
0000
0000
3010
0000
0100
0010
0100
0000
0101
0000
0000
0000
1010
0000
0000
0000
0101
0000
0000
0000
0001
1000
0001
1000
0001
0000
,
1000
0000
0001
0000
2000
0000
0000
0000
3100
0000
0010
0100
0010
0000
0011
0000
0000
0000
1100
0000
0000
0000
0011
0000
0000
0000
1000
0001
1000
0001
1000
0000
,
0010
0000
0100
0000
0020
0000
0000
0000
1030
0000
0001
1000
0001
0000
1001
0000
0000
0000
0110
0000
0000
0000
1001
0000
0000
0000
1000
0100
0010
0001
0010
0000
,
0001
0000
0100
0000
2000
0000
0000
0000
3100
0000
0000
0000
0001
0000
0010
0000
0001
0010
0001
0000
0010
0001
0010
0000
0100
1000
0100
0000
1000
0100
1000
0000
,
0100
0000
0010
0001
0010
0000
0100
0000
1000
0001
1000
0000
0100
0000
1000
0000
,
0100
0010
0100
0000
1000
0000
0001
0010
0001
0000
0010
0000
0100
0000
0010
0000
,
0001
0000
1000
0100
1000
0000
0010
0000
0100
0001
0100
0000
0010
0000
1000
0000
,
1010
0000
0101
0000
0100
0100
0100
0100
,
0010
1000
0010
0000
1000
0100
1000
0001
0000
0001
0000
0001
0000
0100
0010
0001
,
0010
0000
0000
0000
1000
0000
0100
0000
1000
0000
0100
0010
0001
0000
0010
0000
1100
0000
0000
0000
1100
0000
0000
0000
2002
0000
0000
0000
3003
0000
0000
0000
,
0001
0001
0001
0001
0001
0001
0001
0001
,
1000
1000
1000
1000
1000
1000
1000
1000
,
0001
1000
0001
1000
0001
1000
0001
1000
0001
1000
0001
1000
0001
1000
0001
1000
,
0001
1000
0001
1000
0001
1000
0001
1000
0001
0000
0100
0010
1000
0000
0000
0000
,
1010
0000
0010
0000
0100
0000
0000
0000
0001
0000
0010
0100
0010
0000
0011
0000
,
0000
0000
1001
0000
0000
0000
0101
0000
0000
0000
0001
0100
0001
0000
0010
0000
,
0001
0000
0100
0000
0010
0000
0000
0000
1000
0000
0100
0010
0100
0000
1100
0000
,
0000
0000
1001
0000
0000
0000
1010
0000
0000
0000
1000
0000
0010
1000
0100
0000
,
0010
0000
0001
0000
0100
0000
0000
0000
0100
0000
0010
1000
0010
0000
0110
0000
,
0000
0000
1001
0000
0000
0000
0011
0000
0000
0000
0010
0001
1000
0000
0100
0000
,
0010
0000
0100
0000
1000
0000
0000
0000
1000
0000
0100
0000
0010
0001
0010
0001
,
0020
0100
0032
1000
0203
0010
0002
0303
,
1001
0010
1001
0100
,
1001
1001
1001
0000
,
1000
0100
0010
0001
1000
0100
0010
0001
1000
0010
0100
0001
1000
0010
0100
0001
,
0000
0000
0000
0000
,
0010
0000
0000
0000
0001
0000
1000
0000
0001
0000
1000
0100
1000
0100
0010
0000
,
0001
0000
0100
0010
0100
0010
1000
0000
0100
0000
0001
0000
0100
0000
1000
0010
,
1000
0000
0010
0000
0100
0000
0001
0000
1000
0000
0100
0010
0100
0010
0001
0000
,
0010
0000
0001
0100
0001
0000
0100
0001
0100
0010
0100
0001
0100
0000
0010
0000
,
1010
1010
1010
1010
0000
2002
3003
0101
,
0101
0101
0000
0220
0330
1010
1010
0000
,
0110
0000
1010
0000
0110
0000
0100
0010
0100
0000
0110
0000
0101
0000
0100
0010
,
0100
0110
2020
3030
1001
1001
1100
1100
,
0011
0000
0000
0000
,
0000
0000
0000
0000
,
0001
0010
0001
1000
0001
0100
0001
1000
0001
0010
0001
0000
1000
0100
1000
0001
,
1000
0010
1000
0001
1000
0100
1000
0000
0001
0000
0001
0000
1000
0000
1000
0000
,
1000
0010
1000
0010
0000
0000
1000
0000
0000
0001
0010
0001
0010
0000
0000
0001
0000
0000
0010
0000
0000
0100
0000
0000
,
1001
0000
0000
0000
,
0000
0000
0000
0000
;
#NOTES:
     dance-double:
     :
     Easy:
     11:
     :
00000000
00000000
00000000
00000000
,
00000000
00000000
00000000
00000000
,
00000000
00000000
00000000
00000000
,
00000000
00000000
00000000
00000000
,
00000000
00000000
00000000
00000000
,
00000000
00000000
00000000
00000000
,
00010000
00000000
00010000
00000000
,
00001000
00000000
00001000
00000000
,
00000010
00000100
00000010
00000100
,
00000010
00000000
00000000
00000001
00000000
00000000
00000100
00000000
,
00000001
00000000
00001000
00000000
00000001
00000000
00000000
00000100
00000000
00000100
00000000
00000100
00000000
00000000
00001000
00000000
,
00010000
00000000
00100000
00000000
00010000
00000000
00000000
00001000
00000000
00001000
00000000
00001000
00000000
00000000
01000000
00000000
,
00100000
00000000
10000000
00000000
00100000
00000000
00000000
01000000
00000000
01000000
00000000
01000000
00000000
00000000
00100000
00000000
,
01100000
00000000
00000000
00000000
10000000
10000000
00010000
00010000
,
10000000
10000000
01000000
01000000
,
00010000
00010000
00001000
00001000
,
00000100
00000100
00000010
00000010
,
00001010
00000000
00000000
00000000
,
00000010
00001000
00000100
00000010
,
00000001
00000100
00000010
00010000
,
00001000
00010000
00001000
00010000
,
01000000
00000000
00000000
00100000
00000000
00000000
01000000
00000000
,
00100000
00010000
01000000
00100000
,
10000000
01000000
00100000
00001000
,
00010000
00010000
00001000
00001000
,
00000010
00000000
00000000
00000100
00000000
00000000
00000010
00000000
,
00000011
00000000
00001100
00000000
,
00010100
00000000
00011000
00000000
,
00010000
01000000
10000000
01000000
,
00010000
00000000
00000000
00001000
00000000
00000000
00010000
00000000
,
00200000
10300000
01000000
00100000
,
00010000
01000000
00001000
00010000
,
00000100
00000100
00000010
00000001
,
00000100
00000000
00000000
00000010
00000000
00000000
00000100
00000000
,
00001000
00000000
00000000
00010000
00000000
00000000
00100000
00000000
,
00000000
01000000
00000000
00000000
10010000
00000000
00000000
00000000
,
20000000
30000000
02000000
03000000
,
00010000
00001000
00010000
00001000
,
00000020
00000030
00000002
00000003
,
00000100
00000010
00000000
00000000
,
00002000
00003000
00000200
00000300
,
00010000
00001000
01000000
00100000
,
20000000
30000000
00020000
00030000
,
02020000
03030000
20200000
30300000
,
20000000
30000000
00200000
00300000
,
00010000
00001000
00010000
00000100
,
00002000
00003000
00000020
00000030
,
00000200
00000000
00000301
00000010
,
00001001
00000000
00000001
00000100
,
00001000
00010000
00001000
00000010
,
00002000
00000000
00023000
00000000
,
02030000
00000000
03200000
00000000
,
02300000
00000000
00000000
00000000
,
00000000
00000000
00000000
00000000
,
13000000
00000000
00100000
00000000
10000000
00000000
00000000
00010000
00000000
00010000
00000000
00010000
00000000
00000000
00100000
00000000
,
00001000
00000000
00010000
00000000
00001000
00000000
00000000
00000100
00000000
00000100
00000000
00000100
00000000
00000000
00000001
00000000
,
00000010
00000000
00000100
00000000
00000010
00000000
00000000
00001000
00000000
00001000
00000000
00001000
00000000
00000000
00010000
00000000
,
00002000
00203000
00320000
02030000
,
03100000
00000000
00000000
00100000
00000000
00000000
00100000
00000000
,
00010000
00000000
00000000
00010000
00000000
00000000
00010000
00000000
,
00001000
00000000
00000000
00001000
00000000
00000000
00001000
00000000
,
00000100
00000100
00000100
00000000
,
00000020
00000030
00000010
00000010
,
00001000
00000000
00001000
00000000
00000001
00000001
00000001
00000000
,
00000220
00000000
00000000
00000000
,
00000000
00000000
00000000
00000330
,
00002002
00000000
00000000
00000000
,
00000000
00000000
00003003
00001001
,
00000001
00000100
00001000
00010000
,
00100000
00010000
00001000
00000000
,
00010000
00001000
00000010
00001000
,
00010000
01000000
10000000
00000000
,
01000000
00100000
00001000
00010000
,
01000000
00100000
00010000
00000000
,
10000000
01000000
00020000
00030000
,
00002000
00003000
00000020
00000030
,
00000001
00000000
00000001
00000000
,
00000100
00000100
00000100
00000000
,
00002002
00000000
00000000
00000000
,
00003003
00000000
00000000
00000000
,
00000001
00000010
00000001
00000100
,
00001000
00010000
01000000
00000000
,
10000000
00100000
10000000
01000000
,
00010000
00001000
00000100
00000000
,
00000001
00000000
00001000
00000000
00000000
00001000
00000000
00000000
,
00001000
00000000
00000000
00001000
00000000
00000000
00001000
00000000
,
00000010
00000010
00000010
00000000
,
00010000
00010000
00010000
00000000
,
00011000
00000000
00000000
00000000
00000000
00000000
00000000
00010000
00000000
00010000
00000000
00010000
00000000
00000000
00000000
00000000
,
01001000
00000000
00000000
00000000
00000000
00000000
00000000
00100000
00000000
00100000
00000000
00100000
00000000
00000000
00000000
00000000
,
10010000
10000000
10000000
01010000
,
00010000
00100000
00001000
00010000
,
00001000
00000000
00000000
00000100
00000000
00000000
00000010
00000000
,
00000110
00000000
00000000
00000000
,
00000000
00000000
00000000
00000000
;
#NOTES:
     dance-double:
     :
     Medium:
     14:
     :
00000000
00000000
00000000
00000000
,
00000000
00000000
00000000
00000000
,
00000000
00000000
00000000
00000000
,
00000000
00000000
00000000
00000000
,
00000000
00000000
00000000
00000000
,
00000000
00000000
00000000
00000000
,
00001000
00010000
00001000
01000000
,
00100000
00000000
10000000
00000000
01000000
00100000
00010000
00000000
,
01000000
00001000
00010000
00001000
,
00000010
00000010
00000000
00000100
00000000
00000000
00001000
00000001
,
00001000
00000001
00001000
00000000
00000010
00000000
00000000
00000100
00000000
00001000
00000000
00020000
00000000
00000000
00031000
00000000
,
00100000
00010000
00100000
00000000
00001000
00000000
00000000
00010000
00000000
00001000
00000000
00000020
00000000
00000000
00000031
00000000
,
00000010
00000100
00000010
00000000
00001000
00000000
00000000
00010000
00000000
01000000
00000000
00200000
00000000
00000000
01300000
00000000
,
01100000
00000000
10000000
00000000
01000000
00100000
01000000
00000000
00010000
00001000
00010000
00000000
01000000
00000000
01100000
00000000
,
10010000
10000000
01000000
01000000
,
00010000
00010000
00001000
00001000
,
00000010
00000001
00000010
00000000
00000001
00001000
00000100
00000000
,
00000011
00000000
00000001
00000100
,
00001000
00010000
00100000
00000000
00010000
00000000
00001000
00010000
,
00100000
00000000
00010000
00000000
00100000
10000000
00010000
00000000
,
01000000
00000000
01000000
00000000
00100000
01000000
00100000
00000000
,
10000000
00000000
01000000
00100000
00000000
00001000
00010000
00000000
,
01000000
00000000
10000000
00000000
00100000
00000000
00010000
00001000
,
00010000
00000000
00000100
00000000
00000010
00000000
00000100
00001000
,
00000001
00000000
00000001
00000000
00000100
00001000
00010000
00001000
,
00010000
00000000
00100000
10000000
00000000
10000000
01000000
00000000
,
10000000
01000000
00010000
00000000
00001000
00000000
00001000
00000010
,
00000001
00000000
00000001
00000000
00000001
00000100
00001000
00000000
,
00010000
00000000
00010000
00000000
00010000
00001000
00010000
00000000
,
00010000
00001000
00000010
00000100
00000010
00000100
00001000
00000000
,
00000002
00000000
00002003
00000000
00003001
00000000
00000010
00000001
,
00000010
00000000
00000100
00000000
00001000
00000000
00000010
00010000
,
00001000
00010000
00000100
00000000
00010000
00000000
00001000
00000000
,
00010000
00100000
10000000
00100000
00010000
00100000
01000000
00000000
,
01100000
00000000
00000000
01010000
00000000
00000000
00101000
00000000
,
00000000
00011000
00000000
00000000
00010100
00000000
00000000
00000000
,
00010000
00000000
00000000
00000100
00000000
00000010
00000100
00000000
00000000
00001000
00000000
00000001
,
00001000
00001010
00001001
00000101
,
00000001
00000000
00000100
00000001
00000000
00000000
00000010
00000000
00000000
00001000
00000000
00000000
,
00022000
00000000
00000000
00000000
00000000
00033000
00000000
00000000
00000000
00000000
00000000
00000000
,
00001000
00100000
00010000
01000000
,
00100000
10000000
01000000
00100000
,
00001000
00010000
00001000
00000010
,
00000220
00000330
00002002
00003003
,
00000001
00000000
00000000
00000100
00000000
00001000
00010000
00000000
00000000
00100000
00000000
01000000
,
00100000
00000000
01000000
00100000
00000000
01000000
00100000
00000000
00000000
10000000
00000000
00000000
,
01000000
00000000
00010000
00001000
00000000
00000000
01000000
00000000
00000000
00100000
00000000
00000000
,
20000000
00000000
30010000
00100000
,
00000000
00000000
00000000
00001000
00000000
00000000
00010000
00000000
00000100
00000010
00000000
00000100
,
00000010
00000000
00000000
00000001
00000000
00000100
00001000
00000000
00000100
00001000
00000000
00000000
,
00020000
00030000
00200000
00300000
,
20000000
32000000
03020000
00032000
,
00020000
00000000
00000000
00000000
,
00000000
00000000
00000000
00033000
,
00010000
00001000
00010000
00000000
00001000
00000100
00001000
00010000
00000000
00001000
00000000
00020000
00000000
00000000
00030010
00000000
,
00000100
00000010
00000001
00000000
00000010
00001000
00000100
00001000
00000000
00000010
00000000
00020000
00000000
00000000
00031000
00000000
,
00001000
00010000
00001000
00000000
00001000
00100000
00010000
01000000
00000000
00100000
00000000
02000000
00000000
00000000
13000000
00000000
,
01000000
00010000
00100000
00000000
00001000
00000000
00010000
00001000
00000100
00001000
00010000
00001000
00000100
00000010
00000100
00000000
,
00001000
00000000
00001000
00010000
00000000
00001000
00010000
00000000
,
00100000
00000000
00100000
10000000
00000000
00100000
10000000
00000000
,
01000000
00000000
01000000
00100000
00000000
01000000
00100000
00000000
,
00001000
00000000
00001000
00000000
00010000
00001000
00010000
00001000
,
00010000
00001000
00010000
00000000
00001000
00000100
00000001
00000010
00000000
00000010
00000000
00000010
00000000
00001000
00000010
00000100
,
00000010
00000000
00000001
00000000
00000100
00001000
00000100
00000000
00000010
00000000
00000100
00000000
00000220
00000000
00000330
00000000
,
00000010
00000100
00001000
00000000
00001000
00010000
00100000
00000000
,
00100000
01000000
00010000
00000000
00100000
01000000
10000000
00000000
,
20000000
32000000
03020000
00032000
,
00003200
00000000
00000302
00000000
00000013
00000010
00000001
00000000
,
00000100
00000000
00001000
00000000
00010000
00100000
01000000
00010000
,
00000000
01000000
00000000
00200000
00000000
10300000
01000000
00010000
,
00001000
00000000
00000010
00000000
00001000
00010000
00100000
01000000
,
00000000
00100000
00000000
02000000
00000000
03100000
10000000
00100000
,
01000000
00000000
00010000
00000000
10000000
01000000
00100000
00001000
,
00000000
00010000
00000000
00002000
00000000
00013000
00000100
00000010
,
00000001
00000010
00000100
00000000
00000010
00000001
00001000
00000000
,
00001001
00001010
00000101
00001001
,
00000001
00000000
00001000
00000000
,
00000010
00000010
00000010
00000000
,
00000220
00000000
00000000
00000000
,
00000330
00000000
00000000
00000000
,
00000010
00000000
00001000
00000100
00000010
00000100
00001000
00000000
,
00000100
00010000
00001000
00000000
00001000
00010000
00100000
00000000
,
00100000
10000000
01000000
00000000
01000000
10000000
00100000
00000000
,
00010000
00100000
10000000
01000000
00010000
01000000
00100000
00000000
,
00001000
00010000
00001000
00010000
00000000
00002000
00000000
00013000
,
00000100
00000100
00000000
00000020
00000000
00000031
00000001
00000000
,
00000100
00001000
00000100
00001000
00010000
00001000
00010000
00000000
,
00100000
01000000
00200000
00000000
10300000
00010000
10000000
00010000
,
02000000
03000000
00000000
00000000
00000000
00000000
00000000
00000000
00010000
00000000
00000000
00000000
00000000
00000000
00000000
00000000
10000000
00000000
00000000
00000000
00000000
00000000
00000000
00000000
00000000
00000000
00000000
00000000
01000000
00000000
00000000
00000000
00000000
00000000
00000000
00000000
00010000
00000000
00000000
00000000
00000000
00000000
00000000
00000000
00001000
00000000
00000000
00000000
00000000
00000000
00000000
00000000
00000100
00000000
00000000
00000000
00000001
00000000
00000000
00000000
00000000
00000000
00000000
00000000
,
00001000
00000000
00000001
00000000
00000100
00000000
00000000
00001000
00000000
00010000
00000000
01000000
00000000
00000000
00000000
00000000
,
10000000
01000000
00010000
00001000
00000010
00000000
00000001
00000010
,
00001000
00010000
01000000
00000000
00010000
00001000
00010000
00000000
,
00011000
00000000
00000000
00010100
00000000
00000000
01001000
00000000
,
00011000
00000000
00000000
00000000
,
00000000
00000000
00000000
00000000
;
#NOTES:
     dance-double:
     :
     Hard:
     17:
     :
00000000
00000000
00000000
00000000
,
00000000
00000000
00000000
00000000
,
00000000
00000000
00000000
00000000
,
00000000
00000000
00000000
00000000
,
00000000
00000000
00000000
00000000
,
00000000
00000000
00000000
00000000
,
00010000
00001000
00010000
00001000
00000010
00000100
00000010
00000100
,
00000001
00000100
00001000
00000100
00000010
00000001
00000100
00000000
,
00000010
00001000
00000100
00010000
00001000
00010000
01000000
00100000
,
00010000
00010000
00000000
00010000
00000000
00000000
10000000
10000000
,
01000000
00100000
10000000
00000000
00200000
00000000
01300000
00200000
00000000
00320000
00000000
02030000
00000000
03001000
00010000
00000000
,
00001000
00000010
00000100
00000000
00000020
00000000
00000031
00000200
00000000
00000320
00000000
00000230
00000000
00001300
00010000
00000000
,
00100000
01000000
10000000
00000000
02000000
00000000
03100000
02000000
00000000
23000000
00000000
32000000
00000000
03010000
00100000
00000000
,
00110000
00000000
00000000
00000000
00010000
00000000
00100000
00000000
00001000
00010000
00001000
00000000
00010000
00000000
00000100
00000000
00000010
00000000
00000010
00000000
00000001
00000000
00000010
00000000
00000001
00000000
00000000
00000000
00001001
00000000
00000000
00000000
,
00000001
00000100
00000001
00000100
00000010
00001000
00000100
00000000
,
00010000
00001000
00010000
00001000
01000000
00010000
00100000
00000000
,
00010000
00000000
01000000
00000000
00010000
00000000
01000000
00000000
00010000
01000000
00010000
00000000
01000000
00010000
01000000
00000000
,
00001000
00000000
00000000
00010000
01000000
10000000
01000000
00000000
,
00100000
01000000
00100000
01000000
00100000
00000000
00001000
00010000
,
00001000
00010000
00001000
00000000
00000100
00000010
00001000
00000100
,
00001000
00000000
00000100
00000000
00000010
00001000
00010000
00000000
,
00001000
00000010
00000001
00001000
00000100
00000001
00000100
00000000
,
00000110
00000000
00000110
00000000
00001001
00000000
00000001
00000010
,
00000011
00000000
00000011
00000000
00001001
00000000
00001000
00000100
,
00010000
00000000
00011000
00000000
00001000
00001000
00010000
00010000
,
00100000
00000000
10000000
00000000
01000000
00000000
00100000
00000000
00010000
00000000
01000000
00000000
00010000
00100000
00010000
00000000
,
00110000
00000000
10010000
00000000
00110000
00000000
00010000
00100000
,
00001000
00000000
00010000
00000000
00000100
00000000
00000010
00000010
,
00000100
00000000
00000011
00000000
00000001
00000100
00001000
00000000
,
00010000
00001000
00100000
00010000
10000000
01000000
00010000
00000000
,
00002000
00000000
00023000
00000000
00031000
00000000
01000000
01000000
,
00100000
00000000
00010000
00000000
00001000
00000000
00000010
00000010
,
00000001
00001000
00000001
00000000
00000100
00000000
00001000
00000100
,
00000010
00010000
00001000
00010000
00100000
01000000
00010000
00010000
,
01010000
00000000
00000000
10010000
00000000
00000000
00110000
00000000
,
00000000
11000000
00000000
00000000
10010000
00000000
00010000
00000000
,
10000000
00000000
00000000
01000000
00000000
00100000
00010000
00000000
00000000
01000000
00000000
00001000
,
00010000
00000000
00010000
00001000
00000000
00001000
00010000
00000000
00000000
00010100
00000000
00000000
,
00000110
00000000
00000010
00000001
00000000
00001000
00000100
00000000
00000000
00000010
00000000
00000000
,
00000001
00001000
00000001
00001000
00000000
00000001
00000000
00000000
00000000
00000000
00000000
00000000
,
00000101
00001001
00001010
00010010
,
00010000
00000000
00001000
00010000
00001000
00010000
01000000
00000000
10000000
01000000
10000000
01000000
,
00100000
01100000
11000000
01100000
,
00120000
00000000
00000000
20030000
00000000
00000000
31000000
00100000
01000000
00100000
00000000
00000000
,
00101000
00000000
00000000
00001000
00000000
00001000
00010000
00000000
00000000
00010000
00000000
00010000
,
00000100
00000000
00000100
00001000
00000000
00001000
00000001
00000000
00000000
00001001
00000000
00000000
,
00000001
00000000
00000100
00000010
00000000
00000000
00000110
00000000
00000000
00001001
00000000
00000000
,
00000001
00000010
00000001
00000010
00000000
00000010
00000100
00000000
00000000
00001000
00000100
00001000
,
00000100
00000000
00000000
00010000
00000000
00000000
00001000
00000000
00010000
00001000
00000000
00001000
,
00010000
00000000
00000000
01000000
00000000
01000000
00100000
00000000
00100000
00010000
00000000
00100000
,
00010000
00100000
00010000
00100000
00000000
01000000
10000000
01000000
10000000
01000000
00000000
00000000
,
10000000
01000000
00100000
00010000
10000000
01000000
00010000
10000000
00100000
00010000
01000000
00010000
,
00200000
00000000
00000000
00000000
,
00000000
00000000
00000000
00000000
,
00310000
10000000
00020000
00000000
10030000
10000000
01000000
00200000
00000000
00010000
00000000
00001000
00000000
00310000
00100000
01000000
,
10000000
00010000
20000000
00000000
30100000
00100000
00010000
00002000
00000000
00000100
00000000
00010000
00000000
00003100
00000010
00001000
,
00000100
00000010
00000200
00000000
00001300
00001000
00000010
00000100
00000000
00000110
00000000
00001001
00000000
00000001
00000100
00001000
,
00000100
00000001
00000010
00000000
00000010
00000000
00000010
00000100
00001000
00000010
00000100
00000001
00000010
00001000
00010000
00001000
,
00100000
00010000
01000000
00001000
00010000
01000000
00100000
01000000
,
10000000
00100000
00010000
10000000
01000000
00010000
00001000
00000010
,
00000001
00000010
00000100
00000001
00000010
00001000
00010000
00000000
,
01100000
00000000
01100000
00000000
10000000
10000000
00010000
00010000
,
10000000
10000000
10000000
00000000
00010000
00010000
00010000
00100000
00000000
00100000
00000000
00100000
00000000
01000000
00010000
00001000
,
00010000
00000000
00000100
00000010
00001000
00000010
00000100
00000000
00000110
00000000
00000110
00000000
00002002
00000000
00003003
00000000
,
00000001
00000001
00000010
00000010
00000001
00000001
00000010
00000010
,
00000001
00000100
00001000
00000100
00001000
00010000
00001000
00000000
,
00010000
00001000
00010000
00000000
00001000
00010000
00001000
00000000
00100000
00010000
00100000
00000000
00010000
00100000
00010000
00000000
,
10000000
00010000
10000000
00010000
10000000
00000000
00010000
00000000
00100000
00000000
00010000
00000000
01010000
00000000
00000000
00000000
,
00010000
01000000
10000000
00000000
01000000
00010000
00100000
00001000
,
00000000
00010100
00000000
00001010
00000000
00000001
00001000
00000100
,
00001000
00000100
00000001
00000000
00000100
00000100
00000010
00000010
,
00000000
00000011
00000000
00001100
00000000
00001000
00000100
00010000
,
00000010
00001000
00000100
00000000
00010000
00010000
00001000
00001000
,
00000000
00101000
00000000
01010000
00000000
00010000
00100000
10000000
,
00100000
01000000
00010000
00000000
01000000
00000000
10000000
00100000
,
00010000
00001000
00000100
00000001
00000100
00001000
00010000
00100000
,
01000000
00000000
01100000
00000000
,
10010000
10010000
10010000
00000000
,
10000000
01000000
10000000
01000000
10000000
00000000
00010000
00000000
00100000
00010000
00100000
00010000
00100000
00000000
00001000
00000000
,
00011000
00000000
00000000
00000000
,
00001000
00000000
00010000
00100000
00010000
00100000
01000000
00000000
,
01000000
00000000
00010000
00100000
00001000
00000000
00010000
00000000
00001000
00000000
00010000
00000000
00000100
00000000
00000010
00000100
,
00000010
00000100
00000010
00000001
00001000
00000100
00001000
00000001
,
00000100
00001000
00010000
00001000
00010000
00100000
00010000
00001000
,
00010000
00010000
00010000
00001000
00000000
00020020
00030030
00000010
,
00000100
00000010
00000000
00000202
00000303
00000001
00000001
00000000
,
00000001
00000010
00001000
00010000
00100000
00010000
00001000
00000010
,
00000100
00000010
00001000
00010000
00100000
00100000
01000000
01000000
,
01100000
00000000
00100000
00000000
01000000
00000000
00000000
00001000
00000000
00010000
00000000
00001000
00000000
00010000
00001000
00000100
,
00000010
00000000
00001000
00000000
00010000
00000000
00000000
01100000
00000000
10010000
00000000
11000000
00000000
00000000
00000000
00000000
,
10000000
01000000
00100000
00000000
00010000
00000000
00001000
00000000
00000100
00000000
00000000
00000000
00000001
00000100
00000010
00000000
,
00001000
00010000
01000000
00000000
10000000
10000000
00010000
00010000
,
11000000
00000000
00000000
10010000
00000000
00000000
01100000
00000000
,
10010000
00000000
00000000
00000000
,
00000000
00000000
00000000
00000000
;
#NOTES:
     dance-double:
     :
     Challenge:
     18:
     :
00000000
00000000
00000000
00000000
,
00000000
00000000
00000000
00000000
,
00000000
00000000
00000000
00000000
,
00000000
00000000
00000000
00000000
,
00000000
00000000
00000000
00000000
,
00000000
00000000
00000000
00000000
,
00010000
00100000
00010000
00001000
00000010
00001000
00010000
01000000
,
00010000
00001000
00000100
00001000
00010000
00000100
00001000
00000010
,
00000001
00000010
00001000
00000010
00000100
00001000
00000100
00000010
,
00000110
00000000
00000110
00000000
00000000
00000000
00001001
00000000
00000000
00000000
00000001
00000010
00000001
00000000
00001000
00000000
,
00000001
00000100
00001000
00000000
00012000
00000000
00000100
00000100
00000000
00023000
00000000
00030200
00000000
00000310
00002000
00000000
,
00013000
01000000
00100000
00000000
00021000
00000000
01000000
01000000
00000000
00032000
00000000
00203000
00000000
01300000
20000000
00000000
,
30100000
00010000
00002000
00000000
00000010
00000000
00010000
00010000
00000000
00000010
00000000
00010000
00000000
00000010
00003010
00000000
,
00000011
00000000
00000000
00000000
00000001
00000000
00000010
00000000
00000001
00000010
00000001
00000000
00001000
00000000
00000100
00000000
00010000
00000000
00001000
00010000
00001000
00000000
00010000
00001000
00010000
00000000
00001000
00000000
01000000
00000000
00000000
00000000
,
00100000
10000000
00100000
10000000
00010000
01000000
00010000
01000000
,
00001000
00010000
00100000
01000000
00010000
00010000
00010000
00010000
,
10000000
00000000
10000000
00000000
01000000
00000000
01000000
00000000
00100000
00010000
00100000
00010000
00100000
00010000
00100000
00010000
,
00100000
00000000
00000000
00000000
00000000
00000000
01000000
00100000
01000000
00000000
10000000
00000000
00010000
10000000
00010000
10000000
,
00010000
00010000
10000000
10000000
10000000
00000000
01000000
01000000
,
00100000
00100000
00100000
00000000
00001000
00001000
00010000
00010000
,
00010000
00000000
00001100
00000000
00000001
00000001
00000001
00000000
,
00000010
00000001
00000100
00000010
00001000
00000100
00010000
00000000
,
00011000
00000000
00101000
00000000
00110000
00000000
00010000
01000000
,
01010000
00000000
01100000
00000000
10100000
00000000
10000000
01000000
,
11000000
00000000
00000000
00000000
00110000
00000000
00000000
00000000
00100000
00001000
00100000
00000000
00001000
00010000
00001000
00000000
,
00010000
00000000
00000100
00000000
00010000
00000000
00000010
00000000
00000100
00000000
00000010
00000000
00001000
00000001
00000000
00000001
,
00001000
00000000
00000100
00000000
00000110
00000000
00000001
00000100
,
00000010
00000000
00001000
00000000
00010100
00000000
00010000
00010000
,
00011000
00000000
00101000
00000000
00100000
00100000
00100000
00000000
,
00001000
00010000
00100000
00010000
00001000
00000010
00000100
00000000
,
00000020
00000000
00000130
00000000
00001001
00000000
00000011
00000001
,
00000100
00000000
00001000
00000000
00010000
00000000
00100000
01000000
,
00100000
01000000
00100000
00000000
10000000
00000000
01000000
01000000
,
00100000
00000000
00010000
00000000
01000000
00000000
00001000
00000000
00010000
00000000
00001000
00000000
00010000
00001000
00010000
00000000
,
00011000
00000000
00000000
00010100
00000000
00000000
00011000
00000000
,
00000000
00101000
00000000
00000000
00011000
00000000
00001000
00000000
,
00000010
00000000
00000000
00000001
00000000
00001000
00000100
00000000
00000000
00010000
00000000
00001000
,
00010000
00000000
00100000
00010000
00001000
00010000
00000100
00010000
00001000
00000100
00000010
00000100
,
00000010
00000000
00000100
00000010
00000000
00001000
00000001
00000000
00000000
00000100
00000000
00000000
,
00000010
00001000
00000010
00001000
00000000
00001010
00000000
00000000
00000000
00000000
00000000
00000000
,
00001010
00010100
00101000
01010000
,
00010000
00000000
00100000
01000000
10000000
01000000
00100000
00010000
01000000
00100000
00010000
00001000
,
00010000
00011000
00010100
00000110
,
00000012
00000000
00000000
00002003
00000000
00000000
00003100
00000010
00000100
00000010
00000000
00000000
,
00000011
00000000
00000000
00000010
00000000
00000010
00000001
00000000
00000000
00000001
00000000
00001000
,
00000010
00000000
00000010
00000100
00001000
00010000
00001000
00010000
00100000
00010000
00001000
00000100
,
00000010
00000000
00000010
00000100
00000000
00000000
00000110
00000000
00000000
00001001
00000000
00000000
,
00000001
00000010
00000001
00000010
00000000
00000100
00000010
00000000
00000000
00000100
00001000
00000100
,
00001000
00000000
00000000
00000010
00000000
00000000
00010000
00000000
00001000
00010000
00000000
00100000
,
01000000
00000000
00000000
10000000
00000000
00000000
01000000
00100000
00010000
00001000
00100000
00010000
,
01000000
00100000
01000000
00100000
00000000
10000000
00010000
10000000
00010000
10000000
00000000
01000000
,
00010000
00001000
00010000
00001000
00000010
00000100
00000010
00000001
00000100
00000001
00000010
00000100
,
00002000
00000000
00000000
00000000
,
00000000
00000000
00000000
00000000
,
00003001
00000000
00001000
00000000
00000002
00000000
00000000
00000000
00000103
00000000
00000010
00000100
00000010
00000000
00001010
00000000
00000000
00000000
00010100
00000000
00000000
00000000
00011000
00000000
00000000
00000000
00001000
00010000
00001000
00010000
00001000
00000000
,
00010000
00000000
01000000
00000000
00200000
00000000
00000000
00000000
01300000
00000000
10000000
01000000
10000000
00000000
11000000
00000000
00000000
00000000
00101000
00000000
00000000
00000000
00011000
00000000
00000000
00000000
00010000
00001000
00010000
00001000
00010000
00000000
,
00001000
00000000
00000010
00000000
00000200
00000000
00000000
00000000
00000310
00000000
00000001
00000010
00000001
00000000
00001001
00000000
00000000
00000000
00001010
00000000
00000000
00000000
00010100
00000000
00000000
00000000
00010000
00000100
00001000
00000100
00010000
00000000
,
00001000
00000000
00010000
00000000
02000000
00000000
00000000
00000000
13000000
00000000
00000000
00000000
00010000
00000000
00100000
00000000
00010000
00100000
00010000
00000000
00100000
00010000
00100000
00000000
00001000
00010000
00001000
00000000
00010000
00001000
00010000
00000000
,
00001000
00000000
00000100
00000010
00000100
00000000
00000001
00000000
00000100
00000010
00000100
00000000
00001000
00000000
00010000
00000000
,
00001000
00000000
00000100
00000010
00000100
00000000
00001000
00000000
00010000
00100000
00010000
00000000
00001000
00000000
01000000
00000000
,
00100000
00000000
10000000
00100000
10000000
00000000
01000000
00000000
00100000
01000000
00100000
00000000
00001000
00000000
00010000
00000000
,
00011000
00000000
00011000
00000000
00001000
00001000
00010000
00010000
,
00001000
00100000
00001000
00000000
00010000
00000100
00010000
00000010
00000000
00000010
00000000
00000010
00000000
00001000
00000100
00000010
,
00000001
00000000
00000000
00000000
00000001
00000000
00000100
00000000
00000001
00000000
00000100
00000010
00001000
00000000
00000100
00000000
00001100
00000000
00000000
00000000
00010100
00000000
00000000
00000000
00022000
00000000
00000000
00000000
00033000
00000000
00000000
00000000
,
00010000
00001000
00100000
01000000
00010000
00001000
00000010
00000100
,
00010000
00001000
01000000
00100000
00010000
00001000
00000100
00000010
,
00000100
00000010
00000100
00000010
00000100
00000010
00000100
00000010
00000100
00000010
00000100
00000010
00000100
00000010
00000100
00000010
,
00000100
00000010
00000100
00000010
00000100
00000010
00000100
00000010
00000100
00000000
00000001
00001000
00000001
00000000
00000000
00000000
,
00000011
00000010
00001000
00000000
00010000
00000100
00001000
00001100
,
00000000
00000000
00001001
00000000
00000000
00000000
00001010
00000000
00000000
00000000
00000010
00001000
00000010
00000000
00010000
00000000
,
00001000
00000000
00100000
00000000
01000000
00000000
00000000
00000000
10000000
00000000
01000000
00100000
01000000
00000000
01100000
00000000
,
00000000
00000000
11000000
00000000
00000000
00000000
00110000
00000000
00000000
00000000
00100000
00000000
00001000
00010000
00001000
00000000
,
00010000
00000000
00000100
00000000
00000010
00000000
00000000
00000000
00000001
00000000
00000010
00000100
00000010
00000000
00000110
00000000
,
00000000
00000000
00001001
00000000
00000000
00000000
00000101
00000000
00000000
00000000
00000100
00000010
00001000
00000000
00000100
00000000
,
00010000
00000000
00001000
00000000
00000010
00000000
00000000
00000000
00001000
00000000
00010000
00000000
00010000
00001000
00010000
00000000
,
00011000
00000000
00001000
00010000
01000000
00010000
00001000
00000000
,
00011000
00010000
00011000
00001000
,
00011000
00011000
00011000
00000000
,
00010000
00001000
00010000
00001000
00010000
00001000
00010000
00001000
00010000
00001000
00010000
00001000
00010000
00001000
00010000
00001000
,
00000000
00000000
00000000
00000000
,
00100000
00000000
00000000
00000000
00010000
00000000
10000000
00000000
00010000
00000000
10000000
01000000
10000000
01000000
00100000
00000000
,
00001000
00000000
00010000
00001000
00010000
00000000
00001000
00000000
00000100
00000000
00000010
00000000
00000100
00000000
00001000
00010000
,
00001000
00000000
00100000
00000000
01000000
00000000
10000000
00000000
00100000
00000000
01000000
00010000
01000000
00010000
01000000
00000000
,
00001000
00000000
00010000
00001000
00010000
00000000
00000100
00000010
00000100
00000010
00000100
00000010
00000100
00000000
00000000
00000000
,
00000010
00000010
00000010
00000001
00000000
00002002
00003003
00001000
,
00001000
00001000
00000000
00000202
00000303
00000101
00000101
00000000
,
00000101
00000000
00000100
00000000
00001000
00000000
00010000
00001000
00010000
00000000
00100000
00000000
01000000
00000000
00010000
10000000
,
00010000
10000000
20020000
30030000
10000000
01000000
00010000
01000000
,
01100000
00000000
00000000
00000000
,
00000000
00000000
00000000
00000000
,
10000000
01000000
00100000
01000000
10000000
00000000
01000000
00000000
00010000
00000000
00001000
00000000
00000010
00000100
00000001
00000100
,
00000010
00001000
00010000
01000000
10000000
10000000
00010000
00010000
,
00100000
00010000
00100000
00010000
00000000
00000000
00100000
00000000
00000000
00001000
00010000
00001000
00010000
00000000
00000000
00001000
00000000
00000000
00000100
00000000
00000000
00000010
00000000
00000000
,
00001001
00000000
00000000
00000000
,
00000000
00000000
00000000
00000000
;
