
//----- song ID: tsba -----//
#TITLE:罪と罰;
#ARTIST:Xceon feat. Mayumi Morinaga;
#TITLETRANSLIT:Tsumi to batsu;
#BANNER:Tsumi to batsu.png;
#BACKGROUND:Tsumi to batsu-bg.png;
#CDTITLE:./CDTitles/bm IIDX 21 SPADA.png;
#MUSIC:Tsumi to batsu.ogg;
#SAMPLESTART:14.512;
#SAMPLELENGTH:15;
#BPMS:0=144;
#NOTES:
     dance-single:
     :
     Beginner:
     2:
     :
0000
0000
0000
0000
,
0000
0000
0000
0000
,
0000
0000
0000
0000
,
0000
0000
0000
0000
,
0000
0000
0000
0000
,
0001
0000
1000
0000
,
0010
0000
0000
0000
,
1000
0000
0001
0000
,
0010
0000
0010
0000
,
0001
0000
0100
0000
,
0001
0000
0000
0000
,
1000
0000
0100
0000
,
1000
0000
0000
0000
,
0010
0000
0100
0000
,
0010
0000
0000
0000
,
2000
0000
3000
0000
,
0002
0000
0003
0000
,
0020
0000
0000
0000
,
0000
0000
0000
0000
,
0030
0000
0000
0000
,
0001
0000
0010
0000
,
0001
0000
0000
0000
,
1000
0000
0010
0000
,
1000
0000
0000
0000
,
0010
0000
0100
0000
,
0010
0000
0000
0000
,
1000
0000
0000
0000
,
0001
0000
0000
0000
,
0100
0000
0100
0000
,
0100
0000
0000
0000
,
0001
0000
0001
0000
,
0001
0000
0000
0000
,
1000
0000
0000
0000
,
1001
0000
0000
0000
,
1000
0000
0100
0000
,
0010
0000
0000
0000
,
0110
0000
0000
0000
,
0100
0000
0010
0000
,
0100
0000
0000
0000
,
0010
0000
0001
0000
,
0010
0000
0000
0000
,
0001
0000
1000
0000
,
0001
0000
0000
0000
,
0200
0000
0300
0000
,
0020
0000
0030
0000
,
2000
0000
0000
0000
,
0000
0000
0000
0000
,
3000
0000
0000
0000
,
0000
0000
0000
0000
,
0001
0000
0000
0000
,
0001
0000
0000
0000
,
0010
0000
0000
0000
,
0010
0000
0000
0000
,
0100
0000
0010
0000
,
0100
0000
0010
0000
,
0001
0000
1000
0000
,
0001
0000
1000
0000
,
0200
0000
0000
0000
,
0300
0000
1000
0000
,
0010
0000
1000
0000
,
0000
0000
0010
0000
,
0100
0000
0010
0000
,
0000
0000
0100
0000
,
0001
0000
0100
0000
,
0000
0000
0020
0000
,
0030
0000
2000
0000
,
3000
0000
0001
0000
,
0100
0000
0001
0000
,
0000
0000
1000
0000
,
0100
0000
0010
0000
,
0001
0000
1000
0000
,
0000
0000
0000
0000
;
#NOTES:
     dance-single:
     :
     Easy:
     5:
     :
0000
0000
0000
0000
,
0000
0000
0000
0000
,
0000
0000
0000
0000
,
0000
0000
0000
0000
,
0000
0000
0000
0000
,
1000
0100
1000
0000
,
0001
1000
0010
0000
,
0100
0010
0100
0010
,
1000
0001
1001
0000
,
1000
0010
1000
0100
,
0010
0001
1000
0000
,
0010
1000
0001
0010
,
0001
1000
0010
0000
,
1000
0001
1000
0100
,
1000
0100
0010
0000
,
0002
0000
2003
0000
,
3020
0000
0230
0000
,
0302
0000
0000
0000
,
0000
0000
0000
0000
,
0003
0000
0000
0000
,
1000
0000
1000
0000
,
0010
0100
0010
0100
,
0001
0000
0001
0000
,
0010
0100
0010
0100
,
1000
0000
1000
0000
,
0001
0010
0001
0010
,
0100
0100
1000
1000
,
0001
1000
0010
0000
,
0100
0001
1000
0010
,
1000
0000
0001
1000
,
0001
0010
0100
1000
,
0001
1000
0001
0000
,
1000
0000
1000
0000
,
0010
0100
0110
0000
,
1000
1000
0001
0001
,
0010
0100
1000
0000
,
1001
0000
0110
0000
,
1000
0001
0010
0100
,
1000
0001
1000
0010
,
0100
0001
1000
0100
,
1000
0100
0010
0001
,
1000
0001
0100
0001
,
0010
0100
1000
0000
,
0002
0000
2003
0000
,
3020
0000
0230
0000
,
0302
0000
0000
0000
,
0000
0000
0000
0000
,
0003
0000
0000
0000
,
0000
0000
0000
0000
,
0000
0100
0000
0100
,
0000
0100
0000
0100
,
0000
0010
0000
0010
,
0000
0010
0000
0010
,
1000
0001
1000
0001
,
0010
0100
0010
0100
,
1000
0001
0100
0010
,
1000
0001
1000
0000
,
0020
0000
0000
0000
,
0030
1000
0010
1000
,
0100
0010
0001
1000
,
0001
0100
0010
1000
,
0001
0010
0001
0100
,
0010
1000
0100
1000
,
0001
0010
0100
1000
,
0001
0000
0200
0000
,
0320
0000
2030
0000
,
3002
0000
1003
0010
,
1000
0100
0010
0001
,
0010
0001
1000
0010
,
1000
0010
0100
0001
,
1000
0100
0010
0000
,
0000
0000
0000
0000
;
#NOTES:
     dance-single:
     :
     Medium:
     9:
     :
0000
0000
0000
0000
,
0000
0000
0000
0000
,
0000
0000
0000
0000
,
0000
0000
0000
0000
,
0000
0000
0000
0000
,
0001
0100
0010
0100
,
0001
0000
1000
0000
0100
0010
0100
0000
,
1000
0001
1000
0000
0010
0100
0010
0000
,
1000
0100
0010
0000
0110
0000
0001
0010
,
0001
0000
1000
0010
1000
0000
0001
0000
,
0100
0010
0100
0000
0110
0000
1000
0100
,
1000
0000
0001
0010
0001
0000
1000
0000
,
0010
0100
0010
0000
0110
0000
1000
0100
,
1000
0000
0001
0100
0001
0000
1000
0000
,
0100
0010
0001
0000
1001
0000
0000
0000
,
2000
0000
3002
0000
,
0203
0010
0320
0100
,
0230
0000
0000
0000
,
0000
0000
0000
0000
,
0300
0000
0000
0000
,
0001
1000
0100
1000
,
0001
0000
0100
0000
0010
0100
0010
0000
,
1000
0001
0010
0001
,
1000
0000
0100
0000
0010
0100
0010
0000
,
0001
0100
0010
1000
,
0001
0000
0010
0000
0100
1000
0100
0000
,
1000
0010
1000
0000
0001
0000
0010
0100
,
0010
0000
0001
1000
0100
0000
0000
0000
,
1000
0000
0010
0200
0000
0320
0000
2030
,
0000
3001
0010
0100
,
1000
0000
0001
0020
0000
0230
0000
0320
,
0000
0031
1000
0010
,
1000
0000
0000
1000
0000
0000
1000
0000
0000
0000
0010
0000
0100
0000
0000
0000
,
0001
0000
0000
0100
0000
0000
0010
0000
0100
0000
0000
0000
0000
0000
0000
0000
,
0001
0000
0000
0001
0000
0000
0001
0000
0010
0000
0000
0010
0000
0000
0010
0000
,
0100
0000
0000
1000
0000
0000
0100
0000
0010
0000
0000
0000
0000
0000
0000
0000
,
0001
0000
0000
0001
0000
0000
1000
0000
0001
0000
0000
0000
0100
0000
0010
0000
,
0100
0000
0001
1000
0001
0000
0010
0000
,
0100
1000
0100
0000
1001
0000
0001
0010
,
0001
0000
1000
0100
1000
0000
0001
0000
,
0100
0010
0100
0000
0110
0000
0001
1000
,
0001
0000
0010
0100
0010
0000
0001
0000
,
0100
0010
1000
0000
1001
0000
0000
0000
,
0002
0000
2003
0000
,
3020
0100
0230
0010
,
0320
0000
0000
0000
,
0000
0000
0000
0000
,
0030
0000
0000
0000
,
0000
0000
0000
0000
,
0000
0110
0000
0110
,
0000
0110
0000
0110
,
0000
1001
0000
1001
,
0000
0101
0000
1100
,
0001
0100
0001
0100
,
0010
1000
0010
1000
,
0001
0010
0001
0000
1000
0010
1000
0000
,
0010
0100
0010
0100
0010
0000
1000
0000
,
0002
0000
0000
0000
,
0003
0000
1000
0100
1000
0000
0001
0100
,
0001
0000
1000
0000
0001
0010
0100
0000
,
1001
0000
0001
0010
0001
0000
1000
0100
,
1000
0000
0001
0000
1000
0010
0100
0000
,
1001
0000
0001
0100
0001
0000
1000
0010
,
1000
0000
0001
0000
0100
0010
1000
0000
,
1001
0000
0002
0000
,
0023
0000
0230
1000
,
2300
0001
3001
0100
,
0010
1000
0001
0010
,
0100
0010
0100
0000
1000
0100
1000
0000
,
0001
0100
0001
0000
0010
0001
0010
0000
,
0001
1000
0001
1000
0010
0000
0000
0000
,
0000
0000
0000
0000
;
#NOTES:
     dance-single:
     :
     Hard:
     11:
     :
0000
0000
0000
0000
,
0000
0000
0000
0000
,
0000
0000
0000
0000
,
0000
0000
0000
0000
,
0000
0000
0000
0000
,
1000
0010
0100
0010
1000
0100
0010
0100
,
1000
0001
0010
0001
0100
0010
0100
0010
,
1000
0100
1000
0100
0010
0001
0010
0001
,
1000
0010
0100
0001
1000
0100
0010
0001
,
1000
0000
0000
0000
0010
0000
0100
0010
0000
0000
0000
0000
1000
0000
0001
0000
,
0010
0000
0001
0000
0100
0000
0010
1000
0000
0000
0000
0000
0001
0000
0010
0000
,
0100
0000
0000
0000
0010
0000
0001
0010
0000
0000
0100
0000
1000
0000
0001
0000
,
0100
0010
1000
0001
1000
0000
0100
0010
,
0001
0000
0000
0000
1000
0000
0010
1000
0000
0000
0000
0000
0001
0000
0100
0000
,
0001
0000
0010
0000
0100
0000
1000
0001
0000
0000
0000
0000
0000
0000
0100
0000
,
0002
0000
0000
0000
0000
0000
1003
0000
0200
0000
0000
0320
0000
0000
0031
0000
,
2000
0000
0000
3020
0000
0000
0130
0000
0002
0000
0000
2003
0000
0000
3100
0000
,
0020
0000
0000
0000
,
0000
0000
0000
0000
,
0030
0000
0000
0000
,
0000
0001
0010
0001
0000
1000
0010
0100
,
0000
0010
1000
0010
1000
0100
0010
0001
,
0000
1000
0010
1000
0000
0001
0100
0010
,
0000
1000
0100
1000
0001
0010
0100
1000
,
0000
0001
0100
0001
0000
1000
0100
0010
,
0000
0001
1000
0010
1000
0001
0010
0100
,
0000
1000
0010
1000
0100
0000
1000
0001
,
0010
0000
0001
0010
0100
0000
0000
0000
,
1000
0000
0001
0200
0000
0320
0000
2030
,
0000
0000
3000
0001
0010
0001
0100
0010
,
1000
0000
0001
0020
0000
0230
0000
2300
,
0000
3010
0100
0010
1000
0100
0010
0000
,
0002
0000
0000
0200
0003
0000
2300
0000
0000
0000
3100
0000
0010
0000
1000
0000
,
0002
0000
0000
2003
0000
0000
3100
0000
0001
0000
0000
0000
0000
0000
0100
0000
,
0020
0000
0000
0032
0000
0000
1003
0000
0020
0000
0000
0032
0000
0000
0013
0000
,
2000
0000
0000
3200
0000
0000
0301
0000
0100
0000
0000
0000
0000
0000
0000
0000
,
1000
0000
0000
0001
0000
0000
1000
0000
0110
0000
0000
0000
0001
0000
0010
0000
,
0100
0000
0000
0000
1000
0000
0001
0100
0000
0000
0000
0000
0001
0000
1000
0000
,
0001
0000
0010
0000
0100
0000
1000
0100
0000
0000
0000
0000
1000
0000
0010
0000
,
0100
0000
0000
0000
0001
0000
0100
0010
0000
0000
1000
0000
0100
0000
0010
0000
,
0001
0100
0010
0100
0001
0000
1000
0100
,
0010
0000
0000
0000
0001
0000
1000
0010
0000
0000
0000
0000
0100
0000
0010
0000
,
1000
0000
0100
0000
0010
0000
0001
0010
0000
0000
0000
0000
0000
0000
0100
0000
,
0020
0000
0000
0000
0000
0000
0031
0000
2000
0000
0000
3020
0000
0000
0130
0000
,
0002
0000
0000
0023
0000
0000
0130
0000
2000
0000
0000
3020
0000
0000
0130
0000
,
0002
0000
0000
0000
,
0000
0000
0000
0000
,
0003
0000
0000
0000
,
0000
0000
0000
0000
,
0000
1000
0100
1000
0000
0001
0100
0001
,
0000
0100
0010
0100
0001
0010
0100
1000
,
0000
0001
0100
0001
0000
1000
0010
1000
,
0000
0001
0010
0001
1000
0100
0010
0001
,
1000
0001
0010
0100
1000
0010
1000
0100
,
1000
0010
0100
0001
1000
0100
0010
0001
,
1000
0010
1000
0001
0100
0010
1000
0001
,
0010
0100
1000
0010
0100
0001
1000
0100
,
0020
0000
0000
0000
,
0030
0000
0000
0000
0100
0000
1000
0000
0001
0000
0000
0000
0100
0000
0010
0100
,
0000
0000
0000
0000
0001
0000
1000
0000
0100
0000
1000
0000
0010
0000
0100
0001
,
0000
0000
0000
0000
1000
0000
0100
0000
0010
0000
0000
0000
0100
0000
1000
0100
,
0000
0010
0001
1000
0010
0100
0001
1000
,
0100
0000
0000
0000
0010
0000
0001
0000
1000
0000
0000
0000
0010
0000
0100
0001
,
0000
0000
0000
0000
1000
0000
0001
0000
1000
0000
0100
0000
0010
0000
0001
1000
,
0000
0000
0000
0010
0200
0000
0000
0301
,
0020
0000
0000
2030
0000
0000
3010
0000
0002
0000
0000
0203
0000
0000
0310
0000
,
2000
0000
0000
3200
0000
0000
0310
0000
0001
0000
0100
0000
0010
0000
0100
0000
,
0001
0010
0100
0010
0001
1000
0100
1000
,
0010
0100
0010
0100
0001
0010
0001
0010
,
0100
1000
0100
1000
0001
0100
0010
1000
,
0001
0010
0100
1000
0001
0000
0000
0000
,
0000
0000
0000
0000
;
#NOTES:
     dance-double:
     :
     Easy:
     5:
     :
00000000
00000000
00000000
00000000
,
00000000
00000000
00000000
00000000
,
00000000
00000000
00000000
00000000
,
00000000
00000000
00000000
00000000
,
00000000
00000000
00000000
00000000
,
00010000
00001000
00010000
00000000
,
00000100
00001000
00000100
00000000
,
00001000
00000001
00001000
00000010
,
00010000
00001000
00011000
00000000
,
00001000
00100000
00010000
10000000
,
01000000
10000000
00010000
00000000
,
01000000
00001000
00010000
00000100
,
00001000
00000100
00000010
00000000
,
00000001
00000100
00000001
00001000
,
00000100
00010000
00001000
00000000
,
02000000
00000000
03020000
00000000
,
20030000
00000000
32000000
00000000
,
03200000
00000000
00000000
00000000
,
00000000
00000000
00000000
00000000
,
00300000
00000000
00000000
00000000
,
00010000
00000000
00010000
00000000
,
00100000
00001000
00100000
00001000
,
00010000
00000000
00010000
00000000
,
00000010
00001000
00000010
00001000
,
00000001
00000000
00000001
00000000
,
00000010
00000100
00000010
00000100
,
00001000
00001000
00000001
00000001
,
00000100
00001000
00010000
00000000
,
00001000
00100000
00010000
00100000
,
01000000
00000000
10000000
00010000
,
10000000
01000000
00100000
00010000
,
00001000
00000100
00000010
00000000
,
00000001
00000000
00000001
00000000
,
00001000
00000100
00010000
00000000
,
00001000
00001000
00100000
00100000
,
00010000
01000000
00100000
00000000
,
01100000
00000000
10010000
00000000
,
00010000
01000000
00010000
01000000
,
00001000
00010000
00001000
00000000
,
00010000
00000010
00001000
00000010
,
00001000
00000001
00000100
00000000
,
00000010
00001000
00000010
00010000
,
00001000
00010000
00001000
00000000
,
02000000
00000000
03020000
00000000
,
20030000
00000000
30200000
00000000
,
02300000
00000000
00000000
00000000
,
00000000
00000000
00000000
00000000
,
03000000
00000000
00000000
00000000
,
00000000
00000000
00000000
00000000
,
00000000
00001000
00000000
00001000
,
00000000
00001000
00000000
00001000
,
00000000
00010000
00000000
00010000
,
00000000
00010000
00000000
00010000
,
00000100
00001000
00000001
00001000
,
00000001
00000100
00000001
00000100
,
00000001
00000010
00001000
00010000
,
01000000
10000000
00010000
00000000
,
02000000
00000000
00000000
00000000
,
03000000
00000000
00010000
00100000
,
00001000
00010000
00000010
00001000
,
00000001
00000000
00001000
00000100
,
00010000
00001000
01000000
00010000
,
01000000
00000000
00100000
10000000
,
00100000
00010000
00001000
00000100
,
00000001
00000000
00002000
00000000
,
00003020
00000000
00020030
00000000
,
00032000
00000000
00103000
00010000
,
00100000
00010000
10000000
00100000
,
10000000
00100000
01000000
00010000
,
01000000
00001000
00010000
00000100
,
00001000
00000100
00000010
00000000
,
00000000
00000000
00000000
00000000
;
#NOTES:
     dance-double:
     :
     Medium:
     9:
     :
00000000
00000000
00000000
00000000
,
00000000
00000000
00000000
00000000
,
00000000
00000000
00000000
00000000
,
00000000
00000000
00000000
00000000
,
00000000
00000000
00000000
00000000
,
10000000
01000000
00100000
00010000
,
00100000
00000000
00001000
00000000
00010000
00001000
00010000
00000000
,
00000100
00001000
00000001
00000010
,
00000100
00001000
00000100
00000000
00001001
00000000
00001000
00000100
,
00001000
00000000
00000100
00010000
00000100
00000000
00010000
00000000
,
00001000
00000000
01000000
00000000
01010000
00000000
00010000
00100000
,
00010000
00000000
10000000
00100000
10000000
00000000
00010000
00000000
,
00100000
00000000
00001000
00000000
00011000
00000000
00010000
00000010
,
00010000
00000000
00000010
00001000
00000010
00000000
00001000
00000000
,
00000100
00000010
00000110
00000000
,
00000002
00000000
00002003
00000000
,
00003200
00010000
00020300
00001000
,
00032000
00000000
00000000
00000000
,
00000000
00000000
00000000
00000000
,
00003000
00000000
00000000
00000000
,
01000000
00010000
10000000
00010000
,
01000000
00000000
00100000
00000000
10000000
00100000
10000000
00000000
,
00010000
00100000
00001000
00010000
,
00000100
00000000
00001000
00000000
00000001
00001000
00000001
00000000
,
00000010
00000100
00001000
00000100
,
00010000
00000000
00001000
00000000
00100000
00001000
00100000
00000000
,
00010000
10000000
00010000
00000000
01000000
00000000
00100000
01000000
,
00100000
00000000
10000000
01000000
00100000
00000000
00000000
00000000
,
00010000
00000000
01000000
00002000
00000000
00023000
00000000
00030200
,
00000000
00001300
00000001
00000010
,
00000100
00000000
00001000
00000200
00000000
00020300
00000000
00032000
,
00000000
00103000
00010000
10000000
,
01000000
00000000
00000000
01000000
00000000
00000000
01000000
00000000
00000000
00000000
00010000
00000000
00001000
00000000
00000000
00000000
,
00010000
00000000
00000000
00000010
00000000
00000000
00001000
00000000
00000010
00000000
00000000
00000000
00000000
00000000
00000000
00000000
,
00000100
00000000
00000000
00000100
00000000
00000000
00000100
00000000
00000001
00000000
00000000
00000001
00000000
00000000
00000001
00000000
,
00000010
00000000
00000000
00000100
00000000
00000000
00010000
00000000
00001000
00000000
00000000
00000000
00000000
00000000
00000000
00000000
,
01000000
00000000
00000000
01000000
00000000
00000000
00100000
00000000
01000000
00000000
00000000
00000000
00010000
00000000
00100000
00000000
,
00010000
00000000
10000000
00100000
10000000
00000000
00010000
00000000
,
00100000
00001000
00010000
00000000
00011000
00000000
00010000
00000010
,
00010000
00000000
00000010
00001000
00000010
00000000
00000100
00000000
,
00000001
00001000
00000001
00000000
00001001
00000000
00001000
00000100
,
00001000
00000000
00000001
00000100
00000001
00000000
00001000
00000000
,
00000100
00010000
00001000
00000000
00011000
00000000
00000000
00000000
,
00002000
00000000
00203000
00000000
,
00320000
10000000
20030000
01000000
,
32000000
00000000
00000000
00000000
,
00000000
00000000
00000000
00000000
,
03000000
00000000
00000000
00000000
,
00000000
00000000
00000000
00000000
,
00000000
11000000
00000000
11000000
,
00000000
01010000
00000000
00011000
,
00000000
00001100
00000000
00001100
,
00000000
00000101
00000000
00001001
,
00000001
00000100
00000001
00000100
,
00000010
00001000
00000010
00010000
,
00001000
00100000
00001000
00000000
00100000
00010000
00100000
00000000
,
01000000
10000000
01000000
10000000
01000000
00000000
00100000
00000000
,
00020000
00000000
00000000
00000000
,
00030000
00000000
10000000
00100000
10000000
00000000
00010000
00100000
,
00010000
00000000
01000000
00000000
00001000
00010000
00000100
00000000
,
00001100
00000000
00001000
00000010
00001000
00000000
00000001
00000010
,
00000001
00000000
00001000
00000000
00000010
00010000
00001000
00000000
,
00011000
00000000
00001000
01000000
00001000
00000000
01000000
00010000
,
01000000
00000000
00100000
00000000
10000000
00010000
01000000
00000000
,
01001000
00000000
00002000
00000000
,
00023000
00000000
00030020
00001000
,
00002030
00000001
00003001
00000010
,
00001000
00010000
01000000
10000000
,
00010000
00000000
10000000
00000000
01000000
00100000
01000000
00000000
,
00100000
00010000
00100000
00000000
00001000
00010000
00001000
00000000
,
00010000
00000010
00001000
00000010
00000100
00000000
00000000
00000000
,
00000000
00000000
00000000
00000000
;
#NOTES:
     dance-double:
     :
     Hard:
     11:
     :
00000000
00000000
00000000
00000000
,
00000000
00000000
00000000
00000000
,
00000000
00000000
00000000
00000000
,
00000000
00000000
00000000
00000000
,
00000000
00000000
00000000
00000000
,
00000001
00001000
00000100
00001000
00000010
00010000
00001000
00100000
,
00010000
10000000
01000000
00100000
01000000
00010000
01000000
10000000
,
00010000
00100000
00010000
01000000
00001000
00010000
00000100
00001000
,
00000001
00000100
00001000
00000100
00000010
00001000
00000100
00010000
,
00001000
00000000
00000000
00000000
00100000
00000000
00010000
00100000
00000000
00000000
00000000
00000000
01000000
00000000
10000000
00000000
,
00010000
00000000
00100000
00000000
00001000
00000000
00010000
00001000
00000000
00000000
00000000
00000000
00010000
00000000
00001000
00000000
,
00000010
00000000
00000000
00000000
00000001
00000000
00000010
00000001
00000000
00000000
00001000
00000000
00000001
00000000
00000100
00000000
,
00001000
00010000
00100000
10000000
00010000
00000000
10000000
01000000
,
00010000
00000000
00000000
00000000
00001000
00000000
00010000
00001000
00000000
00000000
00000000
00000000
00010000
00000000
00000010
00000000
,
00001000
00000000
00000010
00000000
00000100
00000000
00000001
00001000
00000000
00000000
00000000
00000000
00000000
00000000
00000100
00000000
,
00020000
00000000
00000000
00000000
00000000
00000000
00031000
00000000
00200000
00000000
00000000
00320000
00000000
00000000
10030000
00000000
,
02000000
00000000
00000000
03020000
00000000
00000000
00031000
00000000
00020000
00000000
00000000
00032000
00000000
00000000
00003010
00000000
,
00000002
00000000
00000000
00000000
,
00000000
00000000
00000000
00000000
,
00000003
00000000
00000000
00000000
,
00000000
00001000
00000100
00001000
00000000
00000100
00010000
00000100
,
00000000
00010000
00001000
00010000
00001000
01000000
00010000
10000000
,
00000000
00010000
00100000
00010000
00000000
00100000
00001000
00100000
,
00000000
00001000
00010000
00001000
00010000
00000010
00001000
00000001
,
00000000
00001000
00000010
00001000
00000000
00000010
00010000
00000010
,
00000000
00010000
00001000
00010000
00001000
01000000
00010000
10000000
,
00000000
01000000
00100000
00010000
00100000
00000000
00001000
00010000
,
00001000
00000000
00000100
00000001
00001000
00000000
00000000
00000000
,
00000001
00000000
00000010
00002000
00000000
00023000
00000000
02030000
,
00000000
00000000
03000000
10000000
00010000
10000000
01000000
00100000
,
01000000
00000000
10000000
00200000
00000000
00320000
00000000
00032000
,
00000000
00003010
00000100
00000010
00000000
00000000
00000000
00000000
,
00000200
00000000
00000000
00002300
00000000
00000000
00003020
00000000
00000000
00000000
00000130
00000000
00001000
00000000
00010000
00000000
,
00200000
00000000
00000000
20300000
00000000
00000000
31000000
00000000
00100000
00000000
00000000
00000000
00000000
00000000
00010000
00000000
,
02000000
00000000
00000000
03200000
00000000
00000000
00310000
00000000
00002000
00000000
00000000
00003200
00000000
00000000
00000301
00000000
,
00002000
00000000
00000000
00003200
00000000
00000000
00000301
00000000
00000100
00000000
00000000
00000000
00000000
00000000
00000000
00000000
,
00001000
00000000
00000000
00000100
00000000
00000000
00010000
00000000
00001000
00000000
00000000
00000000
00100000
00000000
00001000
00000000
,
00010000
00000000
00000000
00000000
00000100
00000000
00001000
00000100
00000000
00000000
00000000
00000000
00000010
00000000
00000001
00000000
,
00001000
00000000
00000100
00000000
00010000
00000000
00001000
00010000
00000000
00000000
00000000
00000000
00001000
00000000
00010000
00000000
,
01000000
00000000
00000000
00000000
10000000
00000000
01000000
10000000
00000000
00000000
00010000
00000000
10000000
00000000
00100000
00000000
,
00010000
00001000
00000100
00000001
00001000
00000000
00000001
00000010
,
00001000
00000000
00000000
00000000
00010000
00000000
00001000
00010000
00000000
00000000
00000000
00000000
00001000
00000000
01000000
00000000
,
00010000
00000000
01000000
00000000
00100000
00000000
10000000
00010000
00000000
00000000
00000000
00000000
00000000
00000000
00100000
00000000
,
00002000
00000000
00000000
00000000
00000000
00000000
00013000
00000000
00000200
00000000
00000000
00002300
00000000
00000000
00003001
00000000
,
00000020
00000000
00000000
00002030
00000000
00000000
00013000
00000000
00002000
00000000
00000000
00023000
00000000
00000000
01030000
00000000
,
20000000
00000000
00000000
00000000
,
00000000
00000000
00000000
00000000
,
30000000
00000000
00000000
00000000
,
00000000
00000000
00000000
00000000
,
00000000
00100000
01000000
00100000
00000000
01000000
00001000
01000000
,
00000000
00001000
00010000
00001000
00010000
00000010
00001000
00000100
,
00000000
00000010
00000100
00000010
00000000
00000100
00010000
00000100
,
00000000
00010000
00001000
00010000
00001000
00100000
00010000
01000000
,
00100000
10000000
00100000
01000000
00100000
10000000
00010000
01000000
,
00001000
00010000
00001000
00000100
00000010
00000100
00000001
00001000
,
00000010
00001000
00000001
00000010
00000100
00001000
00000100
00010000
,
00001000
01000000
00010000
10000000
01000000
00100000
00010000
00000000
,
20020000
00000000
00000000
00000000
,
30030000
00000000
00000000
00000000
00010000
00000000
01000000
00000000
00001000
00000000
00000000
00000000
00100000
00000000
00001000
00010000
,
00000000
00000000
00000000
00000000
00001000
00000000
00010000
00000000
00000010
00000000
00001000
00000000
00000010
00000000
00000100
00000001
,
00000000
00000000
00000000
00000000
00000010
00000000
00000100
00000000
00001000
00000000
00000000
00000000
00000100
00000000
00010000
00001000
,
00000000
01000000
00010000
10000000
01000000
00100000
00010000
10000000
,
00010000
00000000
00000000
00000000
01000000
00000000
00100000
00000000
10000000
00000000
00000000
00000000
01000000
00000000
00100000
00010000
,
00000000
00000000
00000000
00000000
01000000
00000000
00001000
00000000
00010000
00000000
00001000
00000000
00000100
00000000
00000010
00000100
,
00000000
00000000
00000000
00000001
00000020
00000000
00000000
00001030
,
00020000
00000000
00000000
00032000
00000000
00000000
00013000
00000000
02000000
00000000
00000000
23000000
00000000
00000000
30010000
00000000
,
02000000
00000000
00000000
03002000
00000000
00000000
00103000
00000000
00010000
00000000
10000000
00000000
00100000
00000000
10000000
00000000
,
01000000
00100000
01000000
10000000
00010000
00100000
00001000
00010000
,
00001000
00000100
00000010
00000100
00000001
00000010
00000100
00001000
,
00000100
00010000
00001000
00010000
01000000
00100000
01000000
10000000
,
00100000
00010000
00001000
00000100
00000001
00000000
00000000
00000000
,
00000000
00000000
00000000
00000000
;
