
//----- song ID: tumu -----//
#TITLE:月に叢雲華に風;
#ARTIST:幽閉サテライト feat. senya;
#TITLETRANSLIT:Tsuki ni murakumo hana ni kaze;
#ARTISTTRANSLIT:Yuuhei Satellite feat. senya;
#BANNER:Tsuki ni murakumo hana ni kaze.png;
#BACKGROUND:Tsuki ni murakumo hana ni kaze-bg.png;
#CDTITLE:./CDTitles/SOUND VOLTEX BOOTH.png;
#MUSIC:Tsuki ni murakumo hana ni kaze.ogg;
#SAMPLESTART:63.713;
#SAMPLELENGTH:15;
#DISPLAYBPM:160;
#BPMS:0=161.5,4=160;
#NOTES:
     dance-single:
     :
     Beginner:
     3:
     :
0000
0000
0000
0000
,
0000
0000
0000
0000
,
0000
0000
0000
0000
,
0000
0000
0000
0000
,
0000
0000
0000
0000
,
0000
0000
0000
0000
,
1000
0000
0000
0000
,
0001
0000
0000
0000
,
1000
0000
0000
0000
,
0000
0000
0000
0000
,
0002
0000
0003
0000
,
0200
0000
0300
0000
,
0001
0000
1000
0000
,
0001
0000
0000
0000
,
0020
0000
0000
0000
,
0030
0000
0000
0000
,
0100
0000
0000
0000
,
0010
0000
0000
0000
,
0002
0000
0003
0000
,
2000
0000
3000
0000
,
0002
0000
0003
0000
,
0200
0000
0300
0000
,
0002
0000
0003
0000
,
0010
0000
0100
0000
,
0010
0000
0000
0000
,
0001
0000
0000
0000
,
1000
0000
0100
0000
,
1000
0000
0000
0000
,
0100
0000
0010
0000
,
0100
0000
0000
0000
,
0010
0000
0000
0000
,
0001
0000
1000
0000
,
1001
0000
0000
0000
,
0000
0000
0000
0000
,
1000
0000
0000
0000
,
0000
0000
1000
0000
,
0100
0000
0000
0000
,
0000
0000
0100
0000
,
0010
0000
0000
0000
,
0000
0000
0010
0000
,
0001
0000
1000
0000
,
0002
0000
0000
0000
,
0003
0000
0000
0000
,
1000
0000
0010
0000
,
1000
0000
0000
0000
,
0001
0000
0010
0000
,
0001
0000
0000
0000
,
0010
0000
0100
0000
,
0010
0000
0000
0000
,
0100
0000
0000
0000
,
1000
0000
1000
0000
,
0001
0000
0100
0000
,
0001
0000
0000
0000
,
1000
0000
0100
0000
,
1000
0000
0000
0000
,
0100
0000
0010
0000
,
0100
0000
0000
0000
,
1000
0000
1000
0000
,
0001
0000
0001
0000
,
0100
0000
0000
0000
,
0010
0000
0000
0000
,
0100
0000
0000
0000
,
0001
0000
0000
0000
,
1000
0000
0000
0000
,
0100
0000
0000
0000
,
0010
0000
0000
0000
,
0000
0000
0000
0000
;
#NOTES:
     dance-single:
     :
     Easy:
     5:
     :
0000
0000
0000
0000
,
0000
0000
0000
0000
,
0000
0000
0000
0000
,
0000
0000
0000
0000
,
0000
0000
0000
0000
,
0000
0000
0000
0000
,
0002
0000
0000
0000
,
2003
0000
0000
0000
,
3002
0000
0000
0000
,
0000
0000
0000
0000
0000
0003
0000
0000
,
0200
0000
0320
0000
,
0230
0000
0300
0000
,
0001
0100
0001
1000
,
0100
0000
1000
0010
,
2000
0000
0000
0000
,
3000
0000
0100
0010
,
0001
0000
1000
0000
,
0010
0100
0010
0100
,
0002
0000
0023
0000
,
0230
0000
0300
0000
,
2000
0000
3002
0000
,
2003
0000
3000
0000
,
0020
0000
0230
0000
,
0302
0023
0230
2300
,
3002
0000
0000
0003
,
0100
0010
0100
0010
,
1000
0001
1000
0000
,
0001
0010
0001
0000
,
1000
0100
0010
0100
,
1000
0001
1000
0000
,
0010
0100
0110
0000
,
0001
0001
1000
1000
,
1001
0000
0000
0000
,
0000
0000
0000
0000
,
0001
0000
0000
0100
0000
0000
0001
0000
,
0000
0000
1000
0010
,
1000
0000
0000
0100
0000
0000
1000
0000
,
0000
0000
0001
0100
,
0001
0000
0000
1000
0000
0000
0001
0000
,
0000
0000
0010
0100
,
0010
0000
0001
0000
,
2000
0000
0000
0000
,
3000
0000
0000
0000
,
0001
0100
0001
0100
,
0010
1000
0010
0000
,
1000
0100
1000
0100
,
0010
0001
0100
0000
,
0110
0000
1000
0000
,
1001
0000
0000
0000
,
0001
0010
0001
1000
,
0100
0010
0001
0000
,
1000
0010
1000
0010
,
0100
0001
0100
0000
,
0001
0010
0001
0010
,
0100
1000
0010
0000
,
0110
0000
0001
0000
,
1001
0000
0000
0000
,
1000
0100
1000
0001
,
0010
0100
1000
0001
,
0100
0000
0010
0000
,
0100
0010
0100
0000
,
0001
0000
1000
0000
,
0001
1000
0001
0000
,
0010
0000
0100
0000
,
1000
0000
0000
0010
,
0100
0000
0000
0000
,
0000
0000
0000
0000
;
#NOTES:
     dance-single:
     :
     Medium:
     9:
     :
0000
0000
0000
0000
,
0000
0000
0000
0000
,
0000
0000
0000
0000
,
0000
0000
0000
0000
,
0000
0000
0000
0000
,
0000
0000
0000
0000
,
2000
0000
0000
0000
,
3002
0000
0000
0000
,
0203
0000
0000
0000
,
0000
0000
0000
0000
0000
0300
0000
0000
,
0020
0000
0000
2030
0000
0000
3100
0020
,
0000
0000
0000
0000
0000
0000
0000
0032
,
0000
0000
0103
0000
0010
0000
0000
0000
1000
0000
0000
0100
0000
0000
2000
0000
,
0000
0000
0000
3001
0010
0000
0100
0000
,
2000
0000
0000
3002
0000
0000
0000
0000
,
0000
0000
0000
0203
0000
0310
0100
0000
,
0001
0010
0100
1000
,
0001
0100
0001
0000
0100
0010
0100
0000
,
0020
0000
2030
0000
,
3002
0000
0000
0000
0000
0000
0013
0100
,
0020
0000
0031
2000
0000
0000
3020
0000
,
0230
0000
0000
0000
0300
0000
0001
0010
,
0002
0000
0000
0203
0000
0000
0310
0000
,
2000
3200
0320
0032
,
2003
0000
0000
3000
,
1000
0001
1001
0110
,
1000
0100
1000
0001
,
0100
0000
0010
0000
0100
0002
0000
0013
,
0100
1000
0010
0100
,
0110
0000
1010
0000
1001
0000
1000
0100
,
1000
0000
0001
0000
1000
0000
0000
0200
,
0000
0310
0100
0000
1000
0000
0100
0000
,
0010
0000
0001
0100
0000
0010
0100
0000
,
0001
0000
0010
0000
0100
0010
0100
0000
,
0010
0000
0000
0011
0000
0000
1000
1000
,
0000
0000
0000
0001
0000
0100
0010
0100
,
0010
0000
0000
1010
0000
0000
0001
0001
,
0000
0000
0000
1000
0000
0010
0100
0010
,
0100
0000
0000
0101
0000
0000
1000
1000
,
0000
0000
0000
0001
0000
0010
0100
0010
,
0001
0000
0000
0100
0000
0000
0001
0000
1000
0000
0000
0100
0000
0000
1000
0000
,
0002
0000
0000
0000
,
1003
0000
0000
0000
,
0001
0100
0010
1000
,
0010
0000
0000
0100
0000
0000
0020
0000
0000
0000
0000
0000
0030
0000
0000
0000
,
1000
0000
0000
0000
0100
0000
0000
0000
0010
0000
0000
0001
0000
0000
1000
0000
,
0001
0000
0000
0100
0000
0000
0002
0000
0000
0000
0000
0000
0013
0000
0000
0000
,
0100
0000
1000
0010
0000
0100
0010
0000
,
1000
0100
1000
0000
0000
0001
0010
0001
,
0010
0000
0001
0000
0100
0000
0010
0100
,
0000
0010
1000
0000
0100
0010
0100
0000
,
1000
0010
0100
0001
,
0100
0000
0000
0010
0000
0000
0200
0000
0000
0000
0000
0000
0300
0000
0000
0000
,
0001
0000
0000
0000
0010
0000
0000
0000
0100
0000
0000
1000
0000
0000
0001
0000
,
1000
0000
0000
0010
0000
0000
2000
0000
0000
0000
0000
0000
3100
0000
0000
0000
,
0010
0000
0001
0100
0000
0010
0100
0000
,
0001
0010
0001
0000
0000
1000
0100
1000
,
0100
1000
0010
0100
,
0001
0100
0001
0000
1000
0010
1000
0000
,
0001
0000
1000
0100
,
0010
0000
0000
0001
0000
0000
0010
0000
0000
0000
0000
0000
0000
0000
0000
0000
,
0001
0000
0000
0000
0000
0000
0000
0000
1000
0000
0000
0100
0000
0000
1000
0000
,
0001
0000
0000
0100
0000
0000
0001
0000
0000
0000
0000
0000
0010
0000
0000
0000
,
0100
0000
0000
1000
0000
0001
0100
0000
,
0001
0010
0001
0000
0000
1000
0100
0010
,
0001
0000
0000
0000
,
0000
0000
0000
0000
;
#NOTES:
     dance-single:
     :
     Hard:
     12:
     :
0000
0000
0000
0000
,
0000
0000
0000
0000
,
0000
0000
0000
0000
,
0000
0000
0000
0000
,
0000
0000
0000
0000
,
0000
0000
0000
0000
,
0002
0000
0000
0000
,
2003
0000
0000
0000
,
3200
0000
0000
0000
,
0000
0000
0000
0000
0000
1300
0001
0100
,
0002
0000
0000
0023
0000
0000
0130
2000
,
0000
0010
0000
0001
0000
0100
0000
3002
,
0000
0000
0013
0000
0100
0000
1000
0000
0010
0000
0000
0100
0000
0000
0002
0000
,
0000
0000
0000
1003
0100
0010
0001
1000
,
0020
0000
0000
0230
0000
1000
0000
0010
,
0000
0001
0000
0320
0000
1030
0100
0010
,
0001
0100
0001
0100
0010
1000
0001
0000
,
1000
0100
1000
0100
0010
0001
1000
0100
,
2000
3000
0200
0300
,
0020
0000
0031
0100
0010
0000
1000
0100
,
0002
0000
0103
0020
0000
0130
2000
0000
,
3002
0000
0103
1000
0100
0000
0001
0010
,
2000
0000
3010
0200
0000
0310
0001
0000
,
2000
3200
0320
0032
,
0103
0010
1000
0100
0000
1000
0001
0000
,
0101
1100
0110
1001
,
0001
0010
0001
0100
0010
1000
0100
0000
,
1000
0010
0100
0001
0010
0002
0000
1003
,
0100
0001
0100
1000
0010
0100
0010
0000
,
0110
0000
0101
0000
1001
0000
1000
0100
,
0010
0001
0010
0100
1000
0000
0000
0002
,
0000
0103
1000
0100
0001
1000
0010
0100
,
0001
0010
0001
1000
0000
0001
0010
0100
,
1000
0010
1000
0010
0100
0001
1000
0000
,
0101
0000
0000
1010
0000
0000
1000
1001
,
0000
0100
0000
1001
0000
1000
0100
0010
,
0011
0000
0000
1100
0000
0000
0001
1001
,
0000
0100
0000
1001
0000
0001
0100
0010
,
1010
0000
0000
0101
0000
0000
1000
1001
,
0000
0100
0000
1001
0000
1000
0010
0100
,
0001
0000
0000
0010
0000
0000
1000
0000
0010
0000
0000
0001
0000
0000
1000
0000
,
0020
0000
0000
0000
,
0130
0000
0000
0000
,
0001
0100
0010
1000
0001
0010
0100
1000
,
0001
0000
0000
0010
0000
0000
1000
0000
0010
0000
0100
0000
0010
0000
0001
0000
,
1000
0100
0010
0001
1000
0010
0100
0001
,
1000
0000
0000
0100
0000
0000
0001
0000
0100
0000
0010
0000
0100
0000
0010
0000
,
0001
0100
0010
1000
0000
0001
0100
0001
,
1000
0010
1000
0000
0000
0001
0010
0001
,
1000
0010
0100
0001
1000
0100
1000
0001
,
0010
0100
1000
0001
1000
0010
0100
0001
,
1000
0010
0100
0001
1000
0100
0010
0001
,
1000
0000
0000
0100
0000
0000
0001
0000
0100
0000
0010
0000
0100
0000
1000
0000
,
0001
0010
0100
1000
0001
0100
0010
1000
,
0001
0000
0000
0010
0000
0000
1000
0000
0010
0000
0100
0000
0010
0000
0100
0000
,
1000
0010
0100
0001
0000
1000
0010
1000
,
0001
0100
0001
0000
0000
1000
0100
1000
,
0001
0100
0010
0100
0001
0010
0100
1000
,
0010
0100
0010
0001
0010
0100
0010
1000
,
0100
0000
1000
0001
,
0010
0000
0000
0100
0000
0000
1000
0000
0000
0000
0000
0000
0000
0000
0000
0000
,
0001
0000
0000
0000
0000
0000
0000
0000
0100
0000
0000
0010
0000
0000
0100
0000
,
0001
0000
0000
0010
0000
0000
0100
0000
0000
0000
0000
0000
1000
0000
0000
0000
,
0100
0000
0000
0001
0000
0100
0010
0100
,
1000
0001
0100
0000
0000
0001
0010
0100
,
1000
0000
0000
0000
,
0000
0000
0000
0000
;
#NOTES:
     dance-single:
     :
     Challenge:
     15:
     :
0000
0000
0000
0000
,
0000
0000
0000
0000
,
0000
0000
0000
0000
,
0000
0000
0000
0000
,
0000
0000
0000
0000
,
0000
0000
0000
1000
,
0001
0000
0000
0010
0000
0001
0100
0001
,
1000
0100
0010
0000
0000
0001
0100
0010
,
2000
0000
0000
0000
,
0000
0000
0000
0000
0000
3100
0010
0001
,
2000
0000
3010
0002
0000
0000
0013
0100
,
0001
0010
0001
0010
0100
1000
0010
0200
,
0001
0000
0301
0000
1000
0000
0010
0000
0100
0000
0001
0010
0001
0000
1000
0000
,
0100
1000
0001
0010
0100
1000
0010
0100
,
0002
0000
0103
2000
0000
3100
0010
0100
,
0001
0010
0100
2000
0010
3010
1000
0001
,
0010
0000
0100
0010
0100
0000
1000
0000
0000
0000
0001
0000
1000
0000
0010
0000
,
0100
0001
1000
0000
0100
1000
0001
0000
0010
0001
0010
0100
1000
0001
0100
0000
,
0010
1000
0010
0100
0001
0010
0100
0010
,
1001
0000
1000
0100
0010
0000
0100
1000
,
0001
0100
0010
0100
0001
0010
0100
1000
,
1001
0000
0001
0010
0100
0000
0010
0001
,
1000
0100
0010
0001
0100
0000
0110
0000
,
1010
0000
1000
0001
0011
0000
1100
0000
,
1000
0001
0010
0100
0000
0010
0001
0000
,
0011
0000
0000
0000
0101
0000
0000
0000
0110
0000
0100
0010
1000
0010
0100
0000
,
0101
1000
0100
0010
1001
0100
0010
0100
,
1100
0001
0010
0100
0010
0002
1000
1003
,
0001
0010
1000
0010
0001
0100
0010
0000
,
1010
1000
1001
0001
0101
0000
1000
0010
,
0001
1000
0100
0001
2000
0100
3100
1000
,
0001
0100
1000
0001
0010
0100
0010
1000
,
0100
0000
0010
0001
1000
0000
0100
0000
0000
0000
1000
0010
0100
0000
0001
0000
,
1000
0100
0010
0100
1000
0100
0010
0000
0001
0100
0010
0100
0001
0100
0010
0000
,
0110
0000
1000
1010
0000
0001
0010
0011
,
0000
0110
0000
1001
0001
0010
0100
1000
,
1100
0000
0001
0101
0000
0100
0010
0110
,
0000
1010
0000
1001
0001
0010
0100
1000
,
1001
0000
0010
0110
0000
1000
0001
1001
,
0000
0100
0000
1001
1000
0010
0100
0001
,
1000
0000
0001
0010
0100
0000
0010
0000
0001
0000
0010
0100
1000
0000
0010
0000
,
0100
0001
0100
0001
1000
0010
1000
0010
0100
0001
0100
0000
0001
0000
1000
0000
,
0100
0010
0100
0010
0001
1000
0100
0000
0020
0000
0000
0000
0032
0000
0000
0000
,
1003
0100
0010
0001
1000
0010
0100
0001
,
0010
0000
0100
0010
0100
0000
1000
0000
0001
0100
0001
0100
0010
0000
1000
0000
,
0001
0000
0010
0000
0100
0000
1000
0000
0010
0000
0100
0001
0100
0000
0010
0000
,
1000
0000
0001
0010
0001
0000
1000
0000
0100
0010
0100
0010
0001
0000
0100
0000
,
0010
1000
0100
1000
0001
0100
0010
0100
,
0001
1000
0100
0010
0001
0000
1000
0000
0010
0000
0100
0001
0100
0000
0001
0000
,
0010
0100
0010
0000
0100
1000
0100
0000
1000
0001
0100
0000
0001
0010
0100
0000
,
1000
0010
0100
0010
1000
0001
0010
0001
1000
0100
0010
0001
1000
0100
0010
0000
,
0001
0100
0010
1000
0001
0010
0100
1000
,
0010
0000
0100
0010
0100
0000
0001
0000
1000
0100
1000
0100
0010
0000
0001
0000
,
1000
0000
0010
0000
0100
0000
0001
0000
0010
0000
0100
1000
0100
0000
0010
0000
,
0001
0000
1000
0010
1000
0000
0001
0000
0100
0010
0100
0010
1000
0000
0100
0000
,
0010
0001
0100
0001
1000
0100
0010
0100
,
1000
0001
0100
0010
1000
0000
0001
0000
0010
0000
0100
1000
0100
0000
1000
0000
,
0010
0100
0010
0000
0100
0001
0100
0000
0001
1000
0100
0000
1000
0010
0100
0000
,
0001
0010
0100
0010
0001
1000
0010
1000
0001
0100
0010
1000
0001
0100
0010
0000
,
1000
0100
0010
0001
1000
0000
0010
0000
,
0101
0000
0001
1000
0100
0000
1000
0000
0001
0000
0010
0000
0100
0000
0000
0000
,
1000
0000
0001
0000
0010
0000
0100
0000
1000
0000
0000
0010
0000
0000
0100
0000
,
0110
0000
0010
1000
0100
0000
1000
0000
0001
0000
0010
0000
1000
0000
0010
0000
,
0110
0100
1000
1001
0000
0001
0100
1000
,
0001
0010
0100
0010
0000
1000
0100
0010
,
0110
0000
0000
0000
,
0000
0000
0000
0000
;
#NOTES:
     dance-double:
     :
     Easy:
     5:
     :
00000000
00000000
00000000
00000000
,
00000000
00000000
00000000
00000000
,
00000000
00000000
00000000
00000000
,
00000000
00000000
00000000
00000000
,
00000000
00000000
00000000
00000000
,
00000000
00000000
00000000
00000000
,
00020000
00000000
00000000
00000000
,
00032000
00000000
00000000
00000000
,
02003000
00000000
00000000
00000000
,
00000000
00000000
00000000
00000000
00000000
03000000
00000000
00000000
,
00020000
00000000
20030000
00000000
,
30020000
00000000
00030000
00000000
,
00100000
00001000
00010000
00001000
,
00010000
00000000
00000100
00001000
,
00000200
00000000
00000000
00000000
,
00000300
00000000
00001000
00000001
,
00001000
00000000
00000100
00000000
,
00010000
00001000
00010000
00001000
,
00200000
00000000
00320000
00000000
,
20030000
00000000
30000000
00000000
,
02000000
00000000
03020000
00000000
,
00032000
00000000
00003000
00000000
,
00020000
00000000
00030020
00000000
,
00002030
00003200
00000320
00000032
,
00002003
00000000
00000000
00003000
,
00000100
00010000
00001000
01000000
,
00010000
10000000
00010000
00000000
,
01000000
00001000
00010000
00000000
,
00001000
00000100
00000001
00001000
,
00000100
00010000
00001000
00000000
,
01000000
00100000
01100000
00000000
,
10000000
00100000
00010000
00001000
,
00011000
00000000
00000000
00000000
,
00000000
00000000
00000000
00000000
,
00010000
00000000
00000000
00000010
00000000
00000000
00001000
00000000
,
00000000
00000000
00000001
00001000
,
00000100
00000000
00000000
00010000
00000000
00000000
00001000
00000000
,
00000000
00000000
01000000
00010000
,
10000000
00000000
00000000
00100000
00000000
00000000
01000000
00000000
,
00000000
00000000
00001000
00010000
,
00000010
00000000
00001000
00000000
,
00000002
00000000
00000000
00000000
,
00000003
00000000
00000000
00000000
,
00001000
00000100
00010000
00001000
,
00100000
00010000
10000000
00000000
,
00010000
01000000
00001000
00010000
,
00000010
00001000
00000001
00000000
,
00001100
00000000
00000100
00000000
,
00010100
00000000
00000000
00000000
,
00010000
00001000
01000000
00010000
,
10000000
01000000
00100000
00000000
,
00001000
00010000
00000010
00001000
,
00000001
00000100
00001000
00000000
,
00010000
00001000
01000000
00010000
,
10000000
00100000
00010000
00000000
,
00011000
00000000
00001000
00000000
,
00000110
00000000
00000000
00000000
,
00000001
00000100
00000001
00001000
,
00000100
00010000
00001000
01000000
,
00010000
00000000
10000000
00000000
,
00100000
00010000
00001000
00000000
,
00010000
00000000
00000010
00000000
,
00000100
00000001
00000010
00000000
,
00000001
00000000
00000100
00000000
,
00001000
00000000
00000000
00010000
,
00100000
00000000
00000000
00000000
,
00000000
00000000
00000000
00000000
;
#NOTES:
     dance-double:
     :
     Medium:
     9:
     :
00000000
00000000
00000000
00000000
,
00000000
00000000
00000000
00000000
,
00000000
00000000
00000000
00000000
,
00000000
00000000
00000000
00000000
,
00000000
00000000
00000000
00000000
,
00000000
00000000
00000000
00000000
,
00000002
00000000
00000000
00000000
,
00002003
00000000
00000000
00000000
,
00003200
00000000
00000000
00000000
,
00000000
00000000
00000000
00000000
00000000
00000300
00000000
00000000
,
00020000
00000000
00000000
00032000
00000000
00000000
01003000
00020000
,
00000000
00000000
00000000
00000000
00000000
00000000
00000000
20030000
,
00000000
00000000
31000000
00000000
10000000
00000000
00000000
00000000
01000000
00000000
00000000
00010000
00000000
00000000
00002000
00000000
,
00000000
00000000
00000000
00013000
00000010
00000000
00001000
00000000
,
00000002
00000000
00000000
00002003
00000000
00000000
00000000
00000000
,
00000000
00000000
00000000
00003200
00000000
00000310
00000100
00000000
,
00010000
00001000
00100000
00010000
,
10000000
01000000
00100000
00010000
,
20000000
00000000
30200000
00000000
,
00320000
00000000
00000000
00000000
00000000
00000000
00031000
00010000
,
00002000
00000000
00003100
00000020
00000000
00000000
00002030
00000000
,
00003002
00000000
00000000
00000000
00000003
00000000
00001000
00000100
,
00020000
00000000
00000000
00032000
00000000
00000000
00103000
00000000
,
00020000
02030000
03200000
20300000
,
30020000
00000000
00000000
00030000
,
10000000
00100000
00010000
00001000
,
00010000
00000100
00001000
00000010
,
00000100
00000000
00000001
00000000
00001000
00000200
00000000
00010300
,
00001000
00010000
01000000
10000000
,
10010000
00000000
01010000
00000000
01001000
00000000
00001000
00010000
,
00001000
00000000
00010000
00000000
00000010
00000000
00000000
00002000
,
00000000
00003100
00001000
00000000
00000001
00000000
00000010
00000000
,
00000001
00000000
00000100
00001000
00000000
00010000
00100000
00000000
,
10000000
00000000
00010000
00000000
00100000
00001000
00100000
00000000
,
00001000
00000000
00000000
00011000
00000000
00000000
00010000
00010000
,
00000000
00000000
00000000
00000100
00000000
00001000
00000010
00001000
,
00000010
00000000
00000000
00000110
00000000
00000000
00000001
00000001
,
00000000
00000000
00000000
00001000
00000000
00000100
00010000
00000100
,
00010000
00000000
00000000
00011000
00000000
00000000
00001000
00001000
,
00000000
00000000
00000000
01000000
00000000
00010000
00100000
01000000
,
10000000
00000000
00000000
00100000
00000000
00000000
00010000
00000000
00001000
00000000
00000000
00000100
00000000
00000000
00000001
00000000
,
00002000
00000000
00000000
00000000
,
00003001
00000000
00000000
00000000
,
00000001
00000010
00000100
00001000
,
00010000
00000000
00000000
00100000
00000000
00000000
00010000
00000000
00000000
00000000
00000000
00000000
00000000
00000000
00000000
00000000
,
10000000
00000000
00000000
00000000
01000000
00000000
00000000
00000000
00100000
00000000
00000000
00010000
00000000
00000000
00001000
00000000
,
00000100
00000000
00000000
00000010
00000000
00000000
00000100
00000000
00000000
00000000
00000000
00000000
00001000
00000000
00000000
00000000
,
00000001
00000000
00000010
00001000
00000000
00010000
01000000
00000000
,
10000000
00010000
10000000
00000000
00000000
00010000
00100000
00010000
,
00100000
00000000
00001000
00000000
00010000
00000000
00001000
00000100
,
00000000
00000001
00000100
00000000
00000010
00001000
00000010
00000000
,
00010000
00001000
01000000
00010000
,
10000000
00000000
00000000
01000000
00000000
00000000
10000000
00000000
00000000
00000000
00000000
00000000
00000000
00000000
00000000
00000000
,
00010000
00000000
00000000
00000000
00100000
00000000
00000000
00000000
00001000
00000000
00000000
00010000
00000000
00000000
00000100
00000000
,
00001000
00000000
00000000
00000001
00000000
00000000
00001000
00000000
00000000
00000000
00000000
00000000
00000100
00000000
00000000
00000000
,
00010000
00000000
01000000
00100000
00000000
01000000
00010000
00000000
,
00001000
00010000
00001000
00000000
00000000
00000010
00000100
00000010
,
00000100
00001000
00000100
00000010
,
00000001
00000100
00000001
00000000
00001000
00000100
00001000
00000000
,
00000010
00000000
00010000
00001000
,
01000000
00000000
00000000
00010000
00000000
00000000
01000000
00000000
00000000
00000000
00000000
00000000
00000000
00000000
00000000
00000000
,
00100000
00000000
00000000
00000000
00000000
00000000
00000000
00000000
10000000
00000000
00000000
00010000
00000000
00000000
01000000
00000000
,
00001000
00000000
00000000
00010000
00000000
00000000
00001000
00000000
00000000
00000000
00000000
00000000
00000010
00000000
00000000
00000000
,
00000100
00000000
00000000
00001000
00000000
00000001
00000100
00000000
,
00001000
00010000
00001000
00000000
00000000
01000000
00010000
01000000
,
00010000
00000000
00000000
00000000
,
00000000
00000000
00000000
00000000
;
#NOTES:
     dance-double:
     :
     Hard:
     12:
     :
00000000
00000000
00000000
00000000
,
00000000
00000000
00000000
00000000
,
00000000
00000000
00000000
00000000
,
00000000
00000000
00000000
00000000
,
00000000
00000000
00000000
00000000
,
00000000
00000000
00000000
00000000
,
20000000
00000000
00000000
00000000
,
30020000
00000000
00000000
00000000
,
02030000
00000000
00000000
00000000
,
00000000
00000000
00000000
00000000
00000000
03001000
00010000
00001000
,
00000200
00000000
00000000
00000302
00000000
00000000
00001003
00000200
,
00000000
00000001
00000000
00000010
00000000
00001000
00000000
00020300
,
00000000
00000000
00031000
00000000
01000000
00000000
00010000
00000000
10000000
00000000
00000000
01000000
00000000
00000000
00020000
00000000
,
00000000
00000000
00000000
00031000
00010000
00001000
00010000
00100000
,
20000000
00000000
00000000
32000000
00000000
00010000
00000000
00100000
,
00000000
10000000
00000000
03200000
00000000
00301000
00010000
00000100
,
00001000
00000100
00000010
00000001
00001000
00000100
00010000
00000000
,
00001000
00100000
00010000
10000000
01000000
00100000
00010000
00000000
,
20000000
30000000
02000000
03000000
,
00020000
00000000
00031000
00000010
00000001
00000000
00000100
00000010
,
00000200
00000000
00000301
00000020
00000000
00001030
00020000
00000000
,
00032000
00000000
01003000
00100000
01000000
00000000
00010000
00100000
,
20000000
00000000
30100000
00020000
00000000
01030000
00001000
00000000
,
00020000
00032000
00003200
00000302
,
00001003
00000010
00010000
00001000
00000000
00010000
01000000
00000000
,
01100000
11000000
10010000
01010000
,
01000000
00001000
00010000
00000100
00001000
00000001
00000010
00000000
,
00000001
00000100
00000010
00001000
00000100
00020000
00000000
00031000
,
00010000
01000000
10000000
01000000
00100000
00010000
00100000
00000000
,
00101000
00000000
00011000
00000000
00010010
00000000
00000010
00001000
,
00000100
00000010
00000001
00001000
00000001
00000000
00000000
00000200
,
00000000
00001300
00010000
00100000
01000000
00100000
10000000
00010000
,
00100000
00001000
00010000
00001000
00000000
00010000
00000100
00001000
,
00000001
00000010
00000001
00000010
00000100
00001000
00000100
00000000
,
00010100
00000000
00000000
00011000
00000000
00000000
00001000
00001000
,
00000000
00100000
00000000
00110000
00000000
00010000
01000000
00100000
,
01100000
00000000
00000000
10100000
00000000
00000000
10000000
10000000
,
00000000
00010000
00000000
01010000
00000000
01000000
00001000
00010000
,
00011000
00000000
00000000
00010100
00000000
00000000
00000100
00000100
,
00000000
00001000
00000000
00001001
00000000
00000001
00000010
00000100
,
00001000
00000000
00000000
00000100
00000000
00000000
00010000
00000000
00001000
00000000
00000000
01000000
00000000
00000000
00010000
00000000
,
20000000
00000000
00000000
00000000
,
30010000
00000000
00000000
00000000
,
10000000
01000000
00100000
00010000
00100000
00001000
00010000
00000100
,
00001000
00000000
00000000
00000100
00000000
00000000
00000001
00000000
00000100
00000000
00000010
00000000
00000100
00000000
00000000
00000000
,
00000010
00000001
00001000
00000100
00010000
00001000
01000000
00010000
,
10000000
00000000
00000000
01000000
00000000
00000000
00010000
00000000
01000000
00000000
00100000
00000000
01000000
00000000
00000000
00000000
,
10000000
01000000
00010000
00001000
00000000
00010000
00000100
00001000
,
00000001
00000100
00000001
00000000
00000000
00001000
00000100
00001000
,
00000010
00010000
00001000
00100000
00010000
00100000
00001000
00010000
,
00000100
00001000
00000100
00000010
00000001
00001000
00000001
00000000
,
00000001
00000010
00000100
00001000
00000100
00010000
00001000
00100000
,
00010000
00000000
00000000
00100000
00000000
00000000
10000000
00000000
00100000
00000000
01000000
00000000
00100000
00000000
00000000
00000000
,
01000000
10000000
00010000
00100000
00001000
00010000
00000100
00001000
,
00000001
00000000
00000000
00000100
00000000
00000000
00001000
00000000
00000100
00000000
00000010
00000000
00000100
00000000
00000000
00000000
,
00000001
00000010
00001000
00010000
00000000
00001000
00100000
00010000
,
10000000
00100000
10000000
00000000
00000000
00010000
00100000
00010000
,
01000000
00001000
00010000
00000100
00001000
00000001
00000010
00000100
,
00000010
00001000
00000010
00000001
00000100
00001000
00010000
00001000
,
00010000
00000000
00001000
01000000
,
00010000
00000000
00000000
00100000
00000000
00000000
01000000
00000000
00000000
00000000
00000000
00000000
00000000
00000000
00000000
00000000
,
10000000
00000000
00000000
00000000
00000000
00000000
00000000
00000000
00010000
00000000
00000000
00100000
00000000
00000000
00001000
00000000
,
00010000
00000000
00000000
00000100
00000000
00000000
00001000
00000000
00000000
00000000
00000000
00000000
00000001
00000000
00000000
00000000
,
00000010
00000000
00000000
00000100
00000000
00001000
00000100
00010000
,
00001000
01000000
00010000
00000000
00000000
10000000
01000000
00100000
,
00010000
00000000
00000000
00000000
,
00000000
00000000
00000000
00000000
;
#NOTES:
     dance-double:
     :
     Challenge:
     15:
     :
00000000
00000000
00000000
00000000
,
00000000
00000000
00000000
00000000
,
00000000
00000000
00000000
00000000
,
00000000
00000000
00000000
00000000
,
00000000
00000000
00000000
00000000
,
00000000
00000000
00000000
00001000
,
00010000
00000000
00000000
00001000
00000000
01000000
00010000
01000000
,
00100000
10000000
01000000
00000000
00000000
10000000
01000000
00010000
,
00002000
00000000
00000000
00000000
,
00000000
00000000
00000000
00000000
00000000
00013000
00000010
00001000
,
00000002
00000000
00000103
00002000
00000000
00000000
00013000
00001000
,
00100000
01000000
00100000
01000000
10000000
00100000
00010000
00002000
,
00010000
00000000
00013000
00000000
00000100
00000000
00000010
00000000
00000001
00000000
00001000
00000100
00001000
00000000
00000100
00000000
,
00010000
00001000
00010000
01000000
00100000
00010000
10000000
01000000
,
00020000
00000000
00031000
00000020
00000000
00000130
00000010
00000001
,
00001000
00000010
00010000
00002000
01000000
01003000
00001000
00010000
,
01000000
00000000
10000000
01000000
10000000
00000000
00010000
00000000
00000000
00000000
00100000
00000000
00001000
00000000
00010000
00000000
,
00000100
00001000
00000100
00000000
00000010
00000001
00000010
00000000
00000001
00000100
00000010
00001000
00000100
00000000
00010000
00000000
,
00001000
00100000
00010000
01000000
00100000
10000000
01000000
00100000
,
10010000
00000000
10000000
00100000
00010000
00000000
00001000
00010000
,
00001000
00000100
00000001
00001000
00000100
00010000
00001000
00010000
,
00011000
00000000
00001000
00010000
01000000
00000000
10000000
00010000
,
10000000
00100000
00010000
00001000
00000100
00000000
00000101
00000000
,
00001001
00000000
00000001
00001000
00001100
00000000
00010100
00000000
,
00010000
00001000
01000000
00010000
00000000
10000000
01000000
00000000
,
01100000
00000000
00000000
00000000
00110000
00000000
00000000
00000000
00101000
00000000
00001000
00010000
00001000
00000000
00010000
00000000
,
00010100
00000100
00001000
00000100
00000110
00000010
00000001
00001000
,
00001100
00000100
00010000
00001000
00100000
00020000
10000000
10030000
,
00010000
01000000
10000000
01000000
00010000
00100000
00001000
00000000
,
00011000
00010000
00010010
00000010
00001010
00000000
00001000
00000010
,
00000001
00001000
00000100
00000010
00020000
00001000
00031000
00010000
,
00100000
01000000
10000000
01000000
00010000
00100000
00001000
00010000
,
00000100
00000000
00010000
00000100
00001000
00000000
00000100
00000000
00000000
00000000
00000010
00000001
00001000
00000000
00000100
00000000
,
00010000
00000100
00001000
00000100
00010000
00000000
00001000
00000000
00100000
00010000
10000000
00010000
00100000
00000000
01000000
00000000
,
11000000
00000000
00010000
00110000
00000000
00100000
00001000
00011000
,
00000000
00010010
00000000
00000110
00000010
00001000
00000100
00000010
,
00000011
00000000
00000001
00001001
00000000
00001000
00000100
00010100
,
00000000
00011000
00000000
00001000
01000000
00010000
10000000
00100000
,
10100000
00000000
00010000
01010000
00000000
01000000
00001000
00011000
,
00000000
00000010
00000000
00000110
00000000
00000001
00000010
00000001
,
00000100
00000000
00001000
00010000
00001000
00000000
00010000
00000000
00100000
00000000
10000000
00100000
10000000
00000000
00010000
00000000
,
01000000
00001000
00010000
00001000
00010000
00000000
00000100
00000000
00001000
00000001
00001000
00000001
00000010
00000000
00000100
00000000
,
00001000
00000000
00000002
00000203
,
00001300
00010000
00100000
01000000
00010000
00100000
00001000
00010000
,
00000100
00000000
00000010
00000100
00000010
00000000
00000001
00000000
00001000
00000010
00001000
00000000
00000100
00000000
00010000
00000000
,
00001000
00000000
00000100
00000000
00000001
00000000
00001000
00000000
00000100
00000000
00010000
00000100
00010000
00000000
00001000
00000000
,
01000000
00000000
00100000
01000000
00100000
00000000
10000000
00000000
00010000
01000000
00010000
00000000
10000000
00000000
00010000
00000000
,
10000000
00100000
00010000
00001000
00010000
00001000
00000100
00000001
,
00001000
00000010
00001000
00000000
00000001
00000000
00000010
00000000
00000100
00000000
00001000
00000100
00010000
00000000
00001000
00000000
,
01000000
00010000
01000000
00000000
00010000
00100000
00010000
00000000
10000000
00100000
10000000
00000000
00010000
01000000
00010000
00000000
,
00100000
00001000
00010000
00001000
00100000
00000000
00010000
00000000
10000000
01000000
00100000
00010000
00100000
00000000
00001000
00000000
,
00010000
00001000
00000100
00000010
00001000
00000100
00010000
00001000
,
00100000
00000000
01000000
00100000
01000000
00000000
10000000
00000000
00010000
01000000
00010000
00000000
00100000
00000000
00001000
00000000
,
00010000
00000000
00100000
00000000
10000000
00000000
00010000
00000000
00100000
00000000
00001000
00100000
00001000
00000000
00010000
00000000
,
00000010
00000000
00000100
00000010
00000100
00000000
00000001
00000000
00001000
00000010
00001000
00000000
00000001
00000000
00001000
00000000
,
00000001
00000100
00001000
00010000
00001000
00010000
00100000
10000000
,
00010000
01000000
00010000
00000000
10000000
00000000
01000000
00000000
00100000
00000000
00010000
00100000
00001000
00000000
00010000
00000000
,
00000010
00001000
00000010
00000000
00001000
00000100
00001000
00000000
00000001
00000100
00000001
00000000
00001000
00000010
00001000
00000000
,
00000100
00010000
00001000
00010000
00000100
00010000
00001000
00000000
00100000
00010000
10000000
00010000
00100000
01000000
10000000
00000000
,
00100000
01000000
00010000
00100000
00001000
00000000
00010000
00000000
,
00010100
00000000
00000100
00001000
00000010
00000000
00000100
00000000
00000001
00000000
00000010
00000000
00000100
00000000
00000000
00000000
,
00000010
00000000
00000001
00000000
00001000
00000000
00000100
00000000
00010000
00000000
00000000
00001000
00000000
00000000
00100000
00000000
,
01100000
00000000
01000000
10000000
00100000
00000000
01000000
00000000
00010000
00000000
10000000
00000000
01000000
00000000
00000000
00000000
,
11000000
10000000
01000000
00010000
00000000
00001000
00000010
00000001
,
00001000
00000100
00010000
00001000
00000000
00010000
01000000
00100000
,
01100000
00000000
00000000
00000000
,
00000000
00000000
00000000
00000000
;
