
//----- song ID: tosu -----//
#TITLE:トラウマ催眠少女さとり!;
#ARTIST:Covered by TOCORO十;
#TITLETRANSLIT:Trauma saimin shoujo Satori!;
#BANNER:Trauma saimin shoujo Satori!.png;
#BACKGROUND:Trauma saimin shoujo Satori!-bg.png;
#CDTITLE:./CDTitles/DDR WORLD.png;
#MUSIC:Trauma saimin shoujo Satori!.ogg;
#SAMPLESTART:68.529;
#SAMPLELENGTH:15;
#BPMS:0=210;
#NOTES:
     dance-single:
     :
     Beginner:
     5:
     :
0000
0000
0000
0000
,
0000
0000
0000
0000
,
0000
0000
0000
0000
,
1000
0000
0000
0000
,
0001
0000
0000
0000
,
1000
0000
0000
0000
,
0001
0000
0000
0000
,
1000
0000
0000
0000
,
0001
0000
0000
0000
,
1000
0000
0000
0000
,
0001
0000
0000
0000
,
0100
0000
0010
0000
,
0100
0000
0000
0000
,
0001
0000
1000
0000
,
0001
0000
0000
0000
,
0010
0000
0100
0000
,
0010
0000
0000
0000
,
0001
0000
1000
0000
,
0001
0000
0000
0000
,
1000
0000
1000
0000
,
0100
0000
0100
0000
,
0010
0000
0010
0000
,
0001
0000
0000
0000
,
0010
0000
0010
0000
,
0001
0000
0001
0000
,
1000
0000
1000
0000
,
0010
0000
0000
0000
,
0100
0000
0010
0000
,
0100
0000
0010
0000
,
1000
0000
0001
0000
,
1000
0000
0001
0000
,
0010
0000
0100
0000
,
0010
0000
0100
0000
,
1000
0000
0001
0000
,
1000
0000
0000
0000
,
0001
0000
0100
0000
,
0001
0000
0000
0000
,
1000
0000
0100
0000
,
1000
0000
0000
0000
,
0001
0000
0010
0000
,
0001
0000
0000
0000
,
1000
0000
0010
0000
,
1000
0000
0000
0000
,
0010
0000
0100
0000
,
0010
0000
0000
0000
,
1000
0000
0001
0000
,
1000
0000
0000
0000
,
0100
0000
0010
0000
,
0100
0000
0000
0000
,
1000
0000
0001
0000
,
0100
0000
0010
0000
,
0200
0000
0000
0000
,
0000
0000
0300
0000
,
0002
0000
0000
0000
,
0000
0000
0003
0000
,
1000
0000
1000
0000
,
0001
0000
0001
0000
,
0010
0000
0010
0000
,
0100
0000
0100
0000
,
0110
0000
0000
0000
,
0010
0000
0000
0000
,
0100
0000
0000
0000
,
1000
0000
0001
0000
,
1000
0000
0000
0000
,
0001
0000
0001
0000
,
0100
0000
0100
0000
,
0010
0000
1000
0000
,
0001
0000
0000
0000
,
1000
0000
0000
0000
,
0100
0000
0000
0000
,
0010
0000
0100
0000
,
0010
0000
0000
0000
,
0001
0000
0001
0000
,
1000
0000
1000
0000
,
0010
0000
0100
0000
,
0001
0000
1000
0000
,
1001
0000
0000
0000
,
1001
0000
0000
0000
,
1000
0000
0100
0000
,
1000
0000
0000
0000
,
0001
0000
0100
0000
,
0001
0000
0000
0000
,
1000
0000
0010
0000
,
1000
0000
0000
0000
,
0001
0000
0010
0000
,
0001
0000
0000
0000
,
0010
0000
0100
0000
,
0010
0000
0100
0000
,
1000
0000
0001
0000
,
1000
0000
0001
0000
,
0100
0000
0010
0000
,
0100
0000
0010
0000
,
1000
0000
0001
0000
,
1001
0000
0000
0000
,
0000
0000
0000
0000
;
#NOTES:
     dance-single:
     :
     Easy:
     9:
     :
0000
0000
0000
0000
,
0000
0000
0000
0000
,
0000
0000
0000
0000
,
1000
0000
0001
0000
,
0100
0010
0100
0000
,
0001
0000
1000
0000
,
0100
0010
0100
0000
,
1000
0000
0001
0000
,
0010
0100
0010
0000
,
0001
0000
1000
0000
,
0010
0100
0010
0000
,
1000
0001
0010
0000
,
0001
0010
0100
0000
,
1000
0010
0100
0000
,
0001
1000
0100
0000
,
1000
0001
0010
0000
,
0100
1000
0001
0000
,
0100
0010
0100
0000
,
0001
1000
0001
0000
,
1000
0000
1000
0000
,
0001
0010
0100
1000
,
0001
0000
0001
0000
,
1000
0010
0100
0001
,
1000
0000
1000
0000
,
0001
0100
0010
1000
,
0001
0000
0001
0000
,
1000
0100
0010
0001
,
1000
0000
1000
0000
,
0100
0010
0001
1000
,
0010
0000
0010
0000
,
0100
0001
0010
0100
,
1000
0000
1000
0000
,
0010
0100
0001
0010
,
0100
0000
1000
0000
,
1001
0000
0000
0000
,
1001
0000
1001
0000
,
1000
0100
1000
0100
,
0110
0000
0110
0000
,
0001
0100
0001
0100
,
0110
0000
0110
0000
,
1000
0001
1000
0001
,
1001
0000
1001
0000
,
1000
0010
0100
0001
,
0101
0000
1100
0000
,
1000
0001
0010
0001
,
0011
0000
1010
0000
,
0001
1000
0100
1000
,
1100
0000
0101
0000
,
1000
0001
0010
0001
,
0011
0000
1010
0000
,
0001
0100
0010
1000
,
0002
0000
0000
0000
,
0000
0000
0000
0003
,
2000
0000
0000
0000
,
0000
0000
0000
3000
,
0001
0100
0001
0000
,
1000
0010
1000
0000
,
0010
0100
0010
0100
,
0010
1000
0001
0000
,
1001
0000
0000
0000
,
0002
0000
0103
0010
,
0200
0000
0300
0000
,
0002
0000
0023
0000
,
0230
0000
2300
0000
,
3001
0100
0010
0000
,
1000
0010
0100
0000
,
0001
0010
0001
0010
,
0100
0000
0110
0000
,
0200
0000
2300
0000
,
3002
0000
0003
0000
,
0200
0000
0320
0000
,
2030
0000
3002
0000
,
1003
0010
0100
0000
,
0001
0010
0100
0000
,
1000
0001
0100
0000
,
0001
0000
1000
0000
,
1001
0000
0000
0000
,
0001
0100
0010
0000
,
1000
0000
0001
0000
,
1000
0100
0010
0001
,
0100
0000
0010
0000
,
1000
0001
0010
0100
,
1000
0000
0001
0000
,
1000
0010
0100
0001
,
0010
0000
0100
0000
,
1000
0001
0100
0010
,
1000
0001
1000
0100
,
1000
0010
0100
0001
,
1000
0010
1000
0001
,
0010
0100
1000
0001
,
0100
0010
0100
0001
,
1000
0100
0010
0001
,
0100
0100
0001
1000
,
0010
0100
0010
0100
,
0000
0000
0000
0000
;
#NOTES:
     dance-single:
     :
     Medium:
     12:
     :
0000
0000
0000
0000
,
0000
0000
0000
0000
,
0000
0000
0000
0000
,
0001
0100
0000
0000
1000
0100
0000
0000
,
0001
0000
1000
0000
0100
0010
0100
0000
,
1000
0010
0000
0000
0001
0010
0000
0000
,
1000
0000
0001
0000
0100
0010
0100
0000
,
0001
0010
0000
0000
1000
0010
0000
0000
,
0001
0000
1000
0000
0010
0100
0010
0000
,
1000
0100
0000
0000
0001
0100
0000
0000
,
1000
0000
0001
0000
0100
0010
0100
0000
,
0001
0010
0100
0010
,
0011
0100
1010
0100
,
1000
0100
0010
0100
,
1100
0010
0101
0010
,
1000
0010
0100
0010
,
1010
0100
0011
0100
,
0001
0100
0010
0100
,
0101
0011
1010
1001
,
1000
1000
0100
0100
,
0010
0000
0001
0000
1000
0010
1000
0000
,
0001
0001
0100
0100
,
0010
0000
1000
0000
0100
0010
0100
0000
,
1000
1000
0010
0010
,
0100
0000
0001
0000
1000
0100
1000
0000
,
0001
0001
0010
0010
,
0100
0000
1000
0000
0001
0100
0001
0100
,
0010
1000
0001
0100
,
0010
0000
0100
0000
0001
1000
0001
0000
,
0010
0100
1000
0001
,
0100
0000
0010
0000
1000
0001
1000
0000
,
0100
1000
0001
0010
,
0100
0000
1000
0000
0010
0100
0010
0000
,
1000
0001
0010
0110
,
0000
0000
0000
0000
,
0001
0001
1000
0010
,
0100
0001
0100
0000
0001
0010
0001
0000
,
1000
1000
0100
0010
,
0100
0010
0100
0000
1000
0001
0100
0000
,
0010
0010
1000
0001
,
0010
0100
0010
0000
0100
1000
0100
0000
,
1000
1000
0010
0100
,
0001
1000
0001
1000
0010
0000
0100
0000
,
0101
1000
0101
1000
,
0010
0100
1010
0101
,
1100
0001
1100
0001
,
1000
0100
0101
1010
,
0011
1000
0011
1000
,
0001
0010
1010
0011
,
0110
1000
0110
0001
,
1000
0001
1001
0110
,
2000
0000
0000
0000
,
0000
0000
0000
3100
,
2000
0000
0000
0000
,
0000
0000
0000
3001
,
1000
0010
1000
0010
,
1000
0010
1000
0001
,
0010
0001
0010
0001
,
0010
0000
0001
0000
0100
0010
0100
0000
,
0010
0000
1000
0100
1000
0000
0001
0000
,
2000
3100
0200
1300
,
0002
0010
1003
0001
,
0010
0001
0100
0010
,
2000
0000
3100
0000
0200
0000
0310
0001
,
0100
0000
0001
1000
0000
0010
1000
0000
,
0001
0000
0010
0100
0000
1000
0100
0000
,
0010
0000
0001
1000
0000
0010
0100
0000
,
0001
0000
0000
1000
0000
0000
0001
0000
1001
0000
0000
0000
0000
0000
0000
0000
,
0002
0013
0020
0031
,
2000
0100
3001
1000
,
0100
1000
0010
0100
,
0002
0000
0013
0000
0020
0000
0130
1000
,
0010
0000
1000
0100
0000
0001
0100
0000
,
1000
0000
0001
0010
0000
1000
0010
0000
,
0100
0000
1000
0010
0000
0100
0001
0000
,
0010
0100
1000
0000
0001
0100
0010
0000
,
0100
0000
0000
0000
,
0001
0000
1000
0001
1000
0000
1001
0000
,
0001
0010
0100
1000
,
0001
0000
0100
0000
0010
0100
0010
0000
,
1000
0100
0010
0001
,
1000
0000
0010
0000
0100
0010
0100
0000
,
0001
0010
0100
1000
,
0001
0000
0100
0000
0010
0100
0010
0000
,
1000
0100
0010
0001
,
1000
0000
0010
0000
0100
0010
0100
0000
,
0001
0010
0001
0000
1000
0010
1000
0000
,
0001
0010
0100
0000
1000
0001
0100
0000
,
0001
1000
0001
0000
0100
0010
0100
0000
,
0001
0010
0100
0000
1000
0010
0100
0000
,
0001
0010
0001
0000
1000
0010
1000
0000
,
0001
0100
0010
0000
1000
0100
0010
0000
,
0100
0000
1001
0000
1000
0001
0100
0000
,
0010
0000
1010
0000
0001
0010
0100
0000
,
0000
0000
0000
0000
;
#NOTES:
     dance-single:
     :
     Hard:
     14:
     :
0000
0000
0000
0000
,
0000
0000
0000
0000
,
0000
0000
0000
0000
,
1100
1100
0000
0000
0101
0101
0000
0000
,
1000
0010
1000
0010
0100
0001
0100
0000
,
0011
0011
0000
0000
1010
1010
0000
0000
,
0001
0100
0001
0100
0010
1000
0010
0000
,
1001
1001
0000
0000
0110
0110
0000
0000
,
1000
0001
1000
0001
0100
0010
0100
0000
,
0110
0110
0000
0000
1001
1001
0000
0000
,
0001
0100
0010
1000
0001
0010
0100
0000
,
1000
0100
1000
0000
0001
0100
0001
0000
,
0101
0011
1010
1100
,
1000
0010
1000
0000
0001
0010
0001
0000
,
0011
1010
1100
0101
,
1000
0100
1000
0000
0001
0010
0001
0000
,
0101
1100
1010
0011
,
0001
0010
0001
0000
1000
0100
1000
0000
,
1100
0101
0011
1010
,
1000
0001
0100
0000
0001
0100
0010
0000
,
1000
0100
0010
0000
0001
1000
0100
1000
,
0001
0010
0100
0000
0010
0100
1000
0000
,
0001
0100
0010
0000
0100
0001
0010
0001
,
1000
0010
0100
0000
0010
0100
0001
0000
,
0010
0001
0100
0000
0010
1000
0100
1000
,
0010
0100
0001
0000
0010
0100
1000
0000
,
0010
0000
0100
0000
0010
0000
0100
0000
0001
0000
1000
0100
1000
0000
0100
0000
,
1000
0100
0001
0000
0001
0100
1000
0000
,
0001
0010
1000
0000
1000
0010
0100
0010
,
0001
0100
1000
0000
1000
0100
0001
0000
,
1000
0010
0001
0000
0001
0010
0100
0100
,
0010
1000
0100
0000
0100
1000
0010
0000
,
0100
0001
0010
0000
0010
0001
0100
0010
,
0100
0001
0010
0000
0010
0001
1001
0000
,
0000
0000
0000
0000
,
1000
0100
1000
0100
0010
0001
0010
0001
,
1000
0010
1000
0010
0100
0001
0100
0001
,
0010
0100
0010
0100
1000
0001
1000
0001
,
0100
0010
0100
0010
1000
0001
0010
0100
,
1000
0010
1000
0010
0100
0001
0100
0001
,
1000
0100
1000
0100
0010
0001
0010
0001
,
0100
0010
0100
0010
1000
0001
1000
0001
,
0010
0000
0100
0000
1000
0000
0001
1000
0001
0000
1000
0000
0010
0000
0000
0000
,
0100
0001
0101
0000
1000
0100
1100
0000
,
0011
0000
0110
0000
1000
0001
1001
0000
,
0001
0010
0011
0000
0100
1000
1100
0000
,
1010
0000
0110
0000
0001
1000
1001
0000
,
0001
0100
0101
0000
1000
0010
1010
0000
,
0011
0000
1100
0000
0001
1000
1001
0000
,
1000
0010
1010
0000
0001
0100
0101
0000
,
1100
0000
0011
0000
1000
0010
0110
0000
,
2000
0100
0000
0100
,
0000
0100
0000
3001
,
0020
0100
0000
0100
,
0000
0100
0000
0031
,
1000
0010
1000
0010
1000
0010
1000
0010
,
1000
0010
1000
0010
1000
0010
0100
0001
,
1000
0001
1000
0001
1000
0001
1000
0001
,
0010
0001
1000
0001
0100
0010
1000
0001
,
0100
0000
0000
0000
0010
0000
0100
0010
0100
0000
0000
0000
0010
0000
0000
0000
,
1002
0103
0210
0301
,
1002
0000
0010
0000
0103
0000
0001
0010
,
0100
0000
1000
0001
0100
0000
0010
0000
,
2100
0000
3001
0000
0021
0000
0130
1000
,
0100
0000
1000
0010
0100
0001
1000
0000
,
0010
0000
0100
0010
1000
0001
0010
0000
,
0001
0000
0100
0010
1000
0100
0010
0000
,
0001
0000
0000
0001
0000
0000
0001
0000
1000
0000
0001
0000
1000
0000
0001
0000
,
2001
3010
0120
1030
,
2001
0000
0100
0000
3010
0000
1000
0100
,
0010
0000
0001
1000
0010
0000
0100
0000
,
0012
0000
1003
0000
1200
0000
0310
0001
,
0010
0000
0001
0100
0010
1000
0001
0000
,
0100
0000
0010
0100
0001
1000
0100
0000
,
1000
0000
0100
0010
0001
0100
0010
0000
,
1000
0000
0100
0000
1000
0000
0100
0000
0010
0100
0010
0000
0001
0010
0001
0000
,
1000
0000
0000
0000
,
0001
0000
0000
0000
0100
0000
0010
0100
0010
0000
0000
0000
1000
0000
0000
0000
,
0001
0010
0100
1000
0001
0010
0100
1000
,
0001
0100
0010
1000
0001
0100
0010
1000
,
0001
0010
0100
1000
0001
0010
0100
1000
,
0001
0100
0010
1000
0001
1000
0100
0100
,
1000
0100
0010
0001
1000
0100
0010
0001
,
1000
0010
0100
0001
1000
0010
0100
0001
,
1000
0100
0010
0001
1000
0100
0010
0001
,
1000
0000
0010
0000
0100
0000
0010
0100
0010
0000
1000
0000
0001
0000
0000
0000
,
1000
0001
0100
0010
1000
0001
0100
0010
,
1000
0001
0010
0100
1000
0001
0010
0100
,
1000
0001
0100
0010
1000
0001
0100
0010
,
1000
0001
0010
0100
1000
0001
0100
0100
,
0001
0010
0100
1000
0001
0010
0100
1000
,
0001
0100
0010
1000
0001
0100
0010
1000
,
0100
0000
0110
0000
1000
0001
0101
0000
,
0100
0000
0010
0000
1000
0000
0001
1000
0001
0000
0100
0000
0110
0000
0000
0000
,
0000
0000
0000
0000
;
#NOTES:
     dance-double:
     :
     Easy:
     9:
     :
00000000
00000000
00000000
00000000
,
00000000
00000000
00000000
00000000
,
00000000
00000000
00000000
00000000
,
00000001
00000000
00001000
00000000
,
00000100
00010000
00000100
00000000
,
00010000
00000000
00001000
00000000
,
01000000
00010000
01000000
00000000
,
00010000
00000000
10000000
00000000
,
01000000
00100000
01000000
00000000
,
10000000
00000000
00010000
00000000
,
00100000
00001000
00010000
00000000
,
00001000
00010000
00000100
00000000
,
00001000
00000001
00001000
00000000
,
00000001
00000100
00000010
00000000
,
00001000
00000010
00010000
00000000
,
00001000
00100000
00010000
00000000
,
10000000
00010000
10000000
00000000
,
01000000
00100000
00010000
00000000
,
00100000
00001000
00010000
00000000
,
00001000
00000000
00001000
00000000
,
00010000
00000010
00001000
00000001
,
00000100
00000000
00000100
00000000
,
00000001
00000100
00001000
00010000
,
00001000
00000000
00001000
00000000
,
00100000
00010000
10000000
00010000
,
00100000
00000000
00100000
00000000
,
00010000
10000000
00100000
00010000
,
00001000
00000000
00001000
00000000
,
00010000
00000100
00001000
00000010
,
00000100
00000000
00000100
00000000
,
00000001
00000010
00001000
00010000
,
00001000
00000000
00001000
00000000
,
00010000
00100000
10000000
00100000
,
00010000
00000000
00001000
00000000
,
00011000
00000000
00000000
00000000
,
00011000
00000000
00011000
00000000
,
00001000
00010000
00000010
00001000
,
00001001
00000000
00001001
00000000
,
00001000
00000100
00010000
00001000
,
00011000
00000000
00011000
00000000
,
00010000
00001000
01000000
00010000
,
10010000
00000000
10010000
00000000
,
00010000
00100000
00001000
00010000
,
00011000
00000000
00001010
00000000
,
00000001
00000010
00000100
00000010
,
00000011
00000000
00001100
00000000
,
00000100
00010000
00001000
00010000
,
00011000
00000000
01010000
00000000
,
10000000
01000000
00100000
01000000
,
11000000
00000000
00110000
00000000
,
00100000
00010000
00001000
00000100
,
00000020
00000000
00000000
00000000
,
00000000
00000000
00000000
00000030
,
00000002
00000000
00000000
00000000
,
00000000
00000000
00000000
00000003
,
00001000
00000010
00010000
00000000
,
00001000
00100000
00010000
00000000
,
10000000
00010000
10000000
00010000
,
01000000
00001000
00010000
00000000
,
00011000
00000000
00000000
00000000
,
00020000
00000000
00031000
00000100
,
00000002
00000000
00000003
00000000
,
00002000
00000000
00003200
00000000
,
00020300
00000000
00032000
00000000
,
00013000
00100000
10000000
00000000
,
01000000
00010000
00001000
00000000
,
00010000
00000010
00001000
00000010
,
00000100
00000000
00001001
00000000
,
00000002
00000000
00000023
00000000
,
00002030
00000000
00003000
00000000
,
00020000
00000000
00032000
00000000
,
02003000
00000000
03020000
00000000
,
10030000
00100000
00010000
00000000
,
00001000
00000100
00000001
00000000
,
00000010
00001000
00010000
00000000
,
01000000
00000000
10000000
00000000
,
10010000
00000000
00000000
00000000
,
00010000
01000000
00001000
00000000
,
00010000
00000000
00000010
00000000
,
00001000
00000001
00001000
00000001
,
00000100
00000000
00000010
00000000
,
00001000
00000100
00010000
00001000
,
01000000
00000000
00010000
00000000
,
10000000
01000000
10000000
01000000
,
00100000
00000000
00010000
00000000
,
00100000
00001000
00010000
00000010
,
00001000
00000001
00001000
00000000
,
00000100
00010000
00001000
00000000
,
01000000
00010000
01000000
00000000
,
00100000
10000000
00010000
00000000
,
01000000
00001000
01000000
00000000
,
00001000
00010000
00000100
00000000
,
00001000
00000001
00000100
00000100
,
00000001
00000010
00001000
00010000
,
00000000
00000000
00000000
00000000
;
#NOTES:
     dance-double:
     :
     Medium:
     11:
     :
00000000
00000000
00000000
00000000
,
00000000
00000000
00000000
00000000
,
00000000
00000000
00000000
00000000
,
10000000
01000000
00000000
00000000
00100000
00010000
00000000
00000000
,
01000000
00001000
00010000
00000100
,
00001000
00000010
00000000
00000100
00000001
00000000
00000000
00000000
,
00001000
00000100
00010000
00001000
,
00100000
00010000
00000000
00000000
10000000
01000000
00000000
00000000
,
00010000
00001000
00000010
00000001
,
00001000
00000010
00000000
00000000
00000100
00000001
00000000
00000000
,
00000010
00001000
00010000
01000000
,
10000000
00010000
01000000
00010000
,
01001000
00001000
00011000
00010000
,
00000100
00001000
00000001
00001000
,
00000011
00000001
00001001
00001000
,
00000001
00001000
00000010
00001000
,
00010010
00010000
00011000
00001000
,
00100000
00010000
10000000
00010000
,
11000000
01010000
00011000
00001100
,
00000001
00000001
00000010
00000010
,
00000100
00000000
00001000
00000000
00000100
00010000
00001000
00000000
,
00100000
00100000
00010000
00010000
,
10000000
00000000
00100000
00000000
01000000
00010000
10000000
00000000
,
00010000
00010000
00100000
00100000
,
00001000
00000000
00010000
00000000
00000010
00001000
00000001
00000000
,
00000100
00000100
00000010
00000010
,
00001000
00000000
00000100
00000000
00010000
00001000
00010000
00000000
,
00001000
00010000
01000000
00100000
,
00010000
00000000
10000000
00000000
00010000
01000000
00001000
00000000
,
00010000
00001000
00000100
00000010
,
00001000
00000000
00000001
00000000
00001000
00000100
00010000
00000000
,
00001000
00010000
00100000
01000000
,
00010000
00000000
10000000
00000000
00010000
00100000
00001000
00000000
,
00010000
00001000
00000010
00000001
,
00001001
00000000
00000000
00000000
,
00001000
00001000
00000100
00010000
,
00001000
00000000
01000000
00000000
00010000
10000000
00010000
00000000
,
00100000
00100000
00001000
00010000
,
00000010
00000000
00001000
00000000
00000001
00001000
00000001
00000000
,
00000100
00000100
00000010
00001000
,
00000100
00000000
00010000
00000000
00001000
00100000
00001000
00000000
,
00010000
00010000
00001000
01000000
,
00100000
10000000
00100000
10000000
00010000
00000000
01000000
00000000
,
01010000
00001000
01010000
00001000
,
00010000
00001000
00011000
00010100
,
00001100
00010000
00001100
00010000
,
00001000
00010000
00011000
00101000
,
00110000
10000000
00110000
00001000
,
00010000
00001000
00011000
00010010
,
00001010
00000001
00001010
00010000
,
00001000
01000000
00010000
10010000
,
20000000
00000000
00000000
00000000
,
00000000
00000000
00000000
31000000
,
00020000
00000000
00000000
00000000
,
00000000
00000000
00000000
00031000
,
00000100
00000010
00000100
00000010
,
00000100
00000001
00001000
00000100
,
00010000
00001000
00010000
00001000
,
01000000
00010000
10000000
00100000
,
01000000
00000000
00010000
01000000
00010000
00000000
10000000
00000000
,
00200000
01300000
00200000
00310000
,
00002000
00010000
00103000
00001000
,
00010000
00001000
00000010
00000001
,
00002000
00000000
00003010
00000000
00002000
00000000
00003100
00001000
,
00000100
00000000
00010000
00001000
00000000
00001000
00100000
00000000
,
00010000
00000000
01000000
00100000
00000000
00100000
10000000
00000000
,
01000000
00000000
00010000
00001000
00000000
00001000
00000010
00000000
,
00000001
00000000
00000000
00000100
00000000
00000000
00000010
00000000
00000100
00000000
00000000
00000000
00000000
00000000
00000000
00000000
,
00000200
00000310
00000200
00001300
,
00020000
00001000
00030100
00010000
,
00001000
00010000
01000000
10000000
,
00020000
00000000
01030000
00000000
00020000
00000000
00130000
00010000
,
00100000
00000000
00001000
00010000
00000000
00010000
00000100
00000000
,
00001000
00000000
00000010
00000100
00000000
00000100
00000001
00000000
,
00000010
00000000
00001000
00010000
00000000
00010000
01000000
00000000
,
10000000
00010000
01000000
00001000
,
00010000
00000000
00000000
00000000
,
00000010
00000000
00001000
00000001
00001000
00000000
00001001
00000000
,
00000001
00000010
00000100
00001000
,
00000100
00000000
00010000
00000000
00001000
00010000
00001000
00000000
,
01000000
00010000
10000000
00100000
,
01000000
00000000
00010000
00000000
00100000
00001000
00100000
00000000
,
00010000
00100000
01000000
10000000
,
00010000
00000000
01000000
00000000
00001000
00010000
00001000
00000000
,
00010000
00000010
00001000
00000100
,
00000010
00000000
00000001
00000000
00001000
00000001
00001000
00000000
,
00000100
00010000
00000100
00000000
00010000
00001000
00010000
00000000
,
00001000
01000000
00010000
00000000
00100000
00010000
01000000
00000000
,
00100000
10000000
00100000
00000000
01000000
00010000
01000000
00000000
,
00001000
00010000
00000100
00000000
00001000
00000010
00000100
00000000
,
00000001
00000010
00000001
00000000
00001000
00000100
00001000
00000000
,
00000010
00010000
00001000
00000000
00100000
00010000
10000000
00000000
,
00100000
00000000
01100000
00000000
01000000
00001000
00010000
00000000
,
00000010
00000000
00001000
00000000
00000001
00000010
00000100
00000000
,
00000000
00000000
00000000
00000000
;
#NOTES:
     dance-double:
     :
     Hard:
     15:
     :
00000000
00000000
00000000
00000000
,
00000000
00000000
00000000
00000000
,
00000000
00000000
00000000
00000000
,
00000110
00000110
00000000
00000000
00001001
00001001
00000000
00000000
,
00000001
00001000
00000001
00001000
00000100
00010000
00001000
00000000
,
00011000
00011000
00000000
00000000
00101000
00101000
00000000
00000000
,
00100000
00010000
00100000
00010000
10000000
00100000
01000000
00000000
,
01100000
01100000
00000000
00000000
10010000
10010000
00000000
00000000
,
10000000
00010000
10000000
00010000
00100000
00001000
00010000
00000000
,
00011000
00011000
00000000
00000000
00010010
00010010
00000000
00000000
,
00000010
00001000
00000010
00001000
00000001
00000010
00000100
00000000
,
00001000
00000100
00010000
00000000
00001000
01000000
00010000
00000000
,
01010000
00110000
10100000
11000000
,
00010000
00100000
00001000
00000000
00010000
00000010
00001000
00000000
,
00001010
00001100
00000101
00000011
,
00001000
00000100
00010000
00000000
00001000
00100000
00010000
00000000
,
01010000
11000000
10100000
00110000
,
10000000
01000000
00010000
00000000
00001000
00000010
00000001
00000000
,
00001001
00001100
00011000
01010000
,
10000000
01000000
00100000
00000000
01000000
00100000
00010000
00000000
,
00100000
00001000
00010000
00000000
00000010
00001000
00000010
00001000
,
00000001
00000010
00000100
00000000
00000010
00000100
00001000
00000000
,
00000100
00010000
00001000
00000000
01000000
00010000
01000000
00010000
,
10000000
00010000
00100000
00000000
00001000
00010000
00000010
00000000
,
00001000
00000001
00000100
00000000
00000010
00001000
00000100
00001000
,
00000001
00001000
00000010
00000000
00010000
00001000
00100000
00000000
,
00010000
10000000
01000000
00000000
00100000
00010000
01000000
00010000
,
10000000
00100000
00010000
00000000
00100000
00010000
00001000
00000000
,
00010000
00001000
00000100
00000000
00000010
00000100
00000010
00000100
,
00000001
00000010
00001000
00000000
00000010
00001000
00010000
00000000
,
00001000
00010000
01000000
00000000
00100000
01000000
00100000
01000000
,
00010000
00001000
00000010
00000000
00000100
00001000
00000010
00000000
,
00000100
00001000
00010000
00000000
00100000
01000000
00010000
10000000
,
00100000
00010000
00001000
00000000
00000100
00000001
00001000
00000000
,
00000000
00000000
00000000
00000000
,
00000001
00000010
00000001
00000010
00000100
00001000
00000100
00001000
,
00000001
00000010
00000100
00001000
00010000
00100000
01000000
10000000
,
00100000
10000000
00100000
10000000
00010000
01000000
00010000
01000000
,
00100000
10000000
01000000
00100000
00010000
00001000
00000100
00000010
,
00000001
00000100
00000001
00000100
00000010
00001000
00000010
00001000
,
00000001
00000100
00000010
00001000
00010000
01000000
00100000
10000000
,
01000000
00100000
01000000
00010000
00001000
00000010
00000100
00000010
,
00000001
00000100
00000010
00000100
00001000
00010000
00100000
00000000
,
01000000
00010000
01010000
00000000
10000000
01000000
11000000
00000000
,
00110000
00000000
00101000
00000000
00001000
00010000
00011000
00000000
,
00000100
00001000
00001100
00000000
00000001
00000010
00000011
00000000
,
00001100
00000000
00010100
00000000
00010000
00001000
00011000
00000000
,
00100000
00010000
00110000
00000000
10000000
00100000
10100000
00000000
,
01010000
00000000
01001000
00000000
00001000
00010000
00011000
00000000
,
00000010
00001000
00001010
00000000
00000001
00000100
00000101
00000000
,
00001010
00000000
00011000
00000000
00110000
10000000
11000000
00000000
,
00020000
00100000
00000000
00100000
,
00000000
00100000
00000000
01030000
,
00002000
00010000
00000000
00010000
,
00000000
00010000
00000000
00003100
,
00000001
00000100
00000001
00000100
00000010
00001000
00000010
00001000
,
00000100
00010000
00000100
00010000
00001000
00100000
00010000
10000000
,
01000000
00100000
01000000
00100000
00010000
10000000
01000000
00100000
,
00010000
00100000
00001000
00010000
00000100
00001000
00000001
00000010
,
00000001
00000000
00001000
00000001
00001000
00000000
00000010
00000000
,
00001020
00010030
00020100
00031000
,
00010000
00000000
01000000
00000000
10000000
00000000
00010000
00100000
,
01000000
00000000
00100000
00010000
01000000
00000000
00001000
00000000
,
00021000
00000000
00030010
00000000
00001020
00000000
00000130
00000001
,
00000100
00000000
00000001
00001000
00000100
00010000
00001000
00000000
,
01000000
00000000
00010000
00100000
01000000
10000000
00010000
00000000
,
00100000
00000000
00001000
00010000
00000100
00001000
00000001
00000000
,
00000100
00000000
00000000
00001000
00000000
00000000
00010000
00000000
00100000
00000000
01000000
00000000
00100000
00000000
01000000
00000000
,
02010000
03001000
00102000
00013000
,
00001000
00000000
00000010
00000000
00000001
00000000
00001000
00000100
,
00000010
00000000
00000100
00001000
00000010
00000000
00010000
00000000
,
00012000
00000000
01003000
00000000
02010000
00000000
03100000
10000000
,
00100000
00000000
10000000
00010000
00100000
00001000
00010000
00000000
,
00000010
00000000
00001000
00000100
00000010
00000001
00001000
00000000
,
00000100
00000000
00010000
00001000
00100000
00010000
10000000
00000000
,
00010000
00000000
01000000
00000000
00001000
00000000
00010000
00000000
00000100
00001000
00000100
00000000
00001000
00000001
00001000
00000000
,
00000100
00000000
00000000
00000000
,
00010000
00000000
00000000
00000000
00001000
00000000
00100000
00010000
00100000
00000000
00000000
00000000
00010000
00000000
00000000
00000000
,
10000000
01000000
00100000
00010000
01000000
00001000
00010000
00000100
,
00001000
00000001
00000010
00000100
00001000
00000001
00000010
00000001
,
00000100
00000010
00001000
00000100
00010000
00001000
00100000
00010000
,
10000000
00100000
01000000
00010000
10000000
00010000
00100000
00100000
,
00001000
00010000
00100000
01000000
00010000
00100000
01000000
00010000
,
00001000
00000010
00000100
00001000
00000010
00000100
00001000
00010000
,
00001000
00000100
00000010
00001000
00000100
00000010
00001000
00010000
,
01000000
00100000
00010000
01000000
00100000
00010000
00001000
00000000
,
00010000
00100000
10000000
00100000
01000000
00010000
10000000
01000000
,
00010000
00001000
00000010
00000001
00000100
00000010
00001000
00000001
,
00000100
00001000
00010000
00100000
01000000
00010000
10000000
01000000
,
00100000
00010000
10000000
00010000
01000000
00001000
00010000
00010000
,
00001000
00000100
00000001
00000100
00000010
00001000
00000001
00000010
,
00001000
00010000
01000000
10000000
00100000
01000000
00010000
10000000
,
01000000
00000000
01100000
00000000
01000000
00010000
00001000
00000000
,
00010000
00000000
00000100
00000000
00001000
00000000
00000001
00001000
00000001
00000000
00000010
00000000
00000110
00000000
00000000
00000000
,
00000000
00000000
00000000
00000000
;
