
//----- song ID: toul -----//
#TITLE:東方妖々夢 ULTIMATE MEDLEY;
#ARTIST:uma vs. モリモリあつし;
#TITLETRANSLIT:Touhouyouyoumu ULTIMATE MEDLEY;
#ARTISTTRANSLIT:uma vs. Atsushi Morimori;
#BANNER:Touhouyouyoumu ULTIMATE MEDLEY.png;
#BACKGROUND:Touhouyouyoumu ULTIMATE MEDLEY-bg.png;
#CDTITLE:./CDTitles/SDVX III GRAVITY WARS.png;
#MUSIC:Touhouyouyoumu ULTIMATE MEDLEY.ogg;
#SAMPLESTART:80.501;
#SAMPLELENGTH:15;
#DISPLAYBPM:110:220;
#BPMS:0=220,192=110,200=220,224=110,228=220,404=198.675,405=179.104,406=159.151,407=143.885,408=133.929,409=123.967,410=109.091,411=89.021,412=129;
#BGSTAGE:30;
#NOTES:
     dance-single:
     :
     Beginner:
     5:
     :
0000
0000
0000
0000
,
0000
0000
0000
0000
,
0000
0000
0000
0000
,
0000
0000
1001
0000
,
0000
0000
0000
0000
,
0010
0000
0000
0010
,
0000
0000
1001
0000
,
0000
0000
0000
0000
,
0001
0000
0000
0000
,
1000
0000
0000
0000
,
0001
0000
0000
0000
,
1000
0000
0000
0000
,
0010
0000
0000
0000
,
0010
0000
0000
0000
,
0010
0000
0000
0000
,
0010
0000
0000
0000
,
1000
0000
0000
0000
,
0001
0000
0000
0000
,
0100
0000
0000
0000
,
0010
0000
0010
0000
,
0010
0000
0000
0000
,
1000
0000
0000
0000
,
1001
0000
0000
0000
,
0000
0000
0000
0000
,
0001
0000
0001
0000
,
1000
0000
1000
0000
,
0010
0000
0010
0000
,
0100
0000
0100
0000
,
0001
0000
0001
0000
,
0010
0000
0010
0000
,
0100
0000
0100
0000
,
1000
0000
1000
0000
,
0010
0000
0000
0000
,
0010
0000
0000
0000
,
0100
0000
0000
0000
,
0100
0000
0000
0000
,
0001
0000
0000
0000
,
1000
0000
0000
0000
,
0010
0000
0000
0000
,
0200
0000
0300
0000
,
0001
0000
0001
0000
,
0001
0000
0000
0000
,
1000
0000
1000
0000
,
1000
0000
0000
0000
,
0100
0000
0100
0000
,
0100
0000
0000
0000
,
1000
0000
1000
0000
,
1000
0000
0000
0000
,
0020
0000
0030
0000
,
0200
0000
0300
0000
,
0001
0000
0000
0000
,
1000
0000
0000
0000
,
0100
0000
0100
0000
,
0100
0000
0000
0000
,
1000
0000
0000
0000
,
0001
0000
0000
0000
,
2002
0000
3003
0000
,
1000
0000
0000
0000
,
0010
0000
0000
0000
,
1000
0000
0000
0000
,
0001
0000
0000
0000
,
0100
0000
0000
0000
,
0010
0000
0010
0000
,
1001
0000
0000
0000
,
0110
0000
0000
0000
,
1001
0000
0000
0000
,
0110
0000
0000
0000
,
0001
0000
0001
0000
,
0001
0000
0001
0000
,
1000
0000
1000
0000
,
0010
0000
0000
0000
,
1000
0000
1000
0000
,
1000
0000
0000
0000
,
0010
0000
0010
0000
,
0010
0000
0000
0000
,
0100
0000
0100
0000
,
0100
0000
0000
0000
,
0001
0000
0001
0000
,
0001
0000
0000
0000
,
1000
0000
1000
0000
,
0001
0000
0000
0000
,
0100
0000
0100
0000
,
0010
0000
0000
0000
,
1000
0000
1000
0000
,
0100
0000
0000
0000
,
0010
0000
0010
0000
,
0001
0000
0000
0000
,
1000
0000
0000
0000
,
0010
0000
0000
0000
,
0100
0000
0000
0000
,
0001
0000
0000
0000
,
1000
0000
0000
0000
,
0100
0000
0000
0000
,
1000
0000
0000
0000
,
0001
0000
0000
0000
,
1000
0000
0001
0000
,
1000
0000
0000
0000
,
0010
0000
0100
0000
,
0010
0000
0000
0000
,
1000
0000
0100
0000
,
0010
0000
0001
0000
,
0200
0000
0000
0000
,
0000
0000
0000
0000
,
0300
0000
0000
0000
,
0000
0000
0000
0000
;
#NOTES:
     dance-single:
     :
     Easy:
     10:
     :
0000
0000
0000
0000
,
0000
0000
0000
0000
,
0000
0000
0000
0000
,
0000
0000
2002
0000
,
0000
3003
0000
0000
,
0001
1000
0010
0220
,
0000
0330
0001
0001
,
0001
1000
1000
1000
,
0010
0000
0100
0000
,
0001
0000
1000
0000
,
0001
0000
0010
0000
,
0100
0000
1000
0000
,
0001
0001
0010
0000
,
0001
0001
0100
0000
,
0001
0001
1000
0000
,
0010
0000
0000
0010
0000
0000
0010
0000
0000
0000
0000
0000
0000
0000
0000
0000
,
1000
0001
0100
0000
,
0001
1000
0100
0000
,
1000
0001
0100
0010
,
1000
0100
0001
0000
,
0100
1000
0001
0100
,
0010
0000
0000
1000
0000
0000
0001
0000
,
0100
0000
0000
0100
0000
0000
0100
0000
,
0000
0100
0000
0001
1000
0000
0000
0000
,
0001
0010
0100
1000
,
0100
1000
0001
0010
,
0001
1000
0010
0100
,
0001
1000
0100
0010
,
0002
0023
0230
2300
,
3002
0203
0320
0230
,
0302
0023
0230
2300
,
3020
0230
0302
2003
,
3100
0000
0000
0100
0000
0000
0000
0000
,
1000
0000
0000
1000
0000
0000
0000
0000
,
0001
0000
0000
0001
0000
0000
0000
0000
,
0100
0000
0000
0100
0000
0000
0000
0000
,
0001
0000
0000
0001
0000
0000
1000
0000
,
0010
0000
0000
0010
0000
0000
1000
0000
,
0100
0000
0000
0100
0000
0000
1000
0000
,
2002
0000
3003
0000
,
1000
0001
0100
0010
,
0100
0000
0001
0000
0000
1000
0000
1000
,
0100
0100
1000
1000
,
0010
0010
0100
0100
,
0010
0000
1001
0000
0000
0001
0000
0001
,
0000
0100
0000
0100
0000
0010
0000
0010
,
0000
1000
0000
1000
0000
0001
0000
0001
,
0000
0100
0000
0100
0000
0010
0000
0000
,
2000
0100
0010
3100
,
0002
0010
0100
0013
,
0001
1000
0100
0010
,
0100
1000
0001
0100
,
0010
0010
1000
1000
,
1001
0010
1001
0010
,
2001
0000
0000
3000
,
0200
0300
0020
0030
,
2002
0000
0000
3003
,
1000
1000
0010
0010
,
0100
0100
0001
0001
,
1000
0000
0000
0100
0000
0000
1000
0000
,
0001
0000
0000
0100
0000
0000
0001
0000
,
1000
1000
0001
0001
,
1100
0001
0101
0000
,
1000
0000
0000
1000
0000
0000
0000
0000
,
0001
0000
0000
0001
0000
0000
0000
0000
,
0100
0000
0000
0100
0000
0000
0000
0010
,
0000
0010
0010
0010
,
1000
1100
0001
0101
,
1000
1100
0001
0101
,
1001
1001
0110
0110
,
2002
0000
0000
3003
,
1000
0001
0100
0010
,
0100
0001
0010
0100
,
2000
0010
0001
3100
,
0001
0010
0100
1000
,
0001
1000
0010
0100
,
0010
1000
0100
0010
,
0002
0100
1000
0013
,
1000
0100
0020
0030
,
0001
0000
0000
0100
0000
0000
0001
0000
,
1000
0000
0000
0100
0000
0000
1000
0000
,
0001
0011
1000
1100
,
0220
0000
0000
0330
,
0001
0000
0000
1000
0000
0000
0001
0000
,
0100
0000
0000
0010
0000
0000
0100
0000
,
0001
0011
1000
1010
,
0220
0000
0000
0330
,
0001
0000
1000
0000
0010
0000
0100
0001
,
0000
0010
0100
1000
,
0001
0000
0100
0000
0010
0000
1000
0001
,
0000
1000
0010
0100
,
0001
0000
0010
0000
0100
0000
1000
0010
,
0000
1000
0001
0100
,
0010
0000
0010
0000
1000
0000
0001
0100
,
0000
0010
0010
0010
,
0100
0001
1000
0100
,
1100
0000
0000
0110
0000
0000
0000
0000
,
0010
0001
1000
0010
,
0110
0000
0000
0101
0000
0000
0000
0000
,
0001
0000
0010
0000
0100
1000
0000
1000
,
0010
0000
0100
0000
0001
0000
1000
0020
,
0000
0000
0000
0000
,
0000
0000
0000
0000
,
0030
0000
0000
0000
,
0000
0000
0000
0000
;
#NOTES:
     dance-single:
     :
     Medium:
     12:
     :
0000
0000
0000
0000
,
0000
0000
0000
0000
,
0000
0000
0000
0000
,
0000
0000
0011
0100
,
1000
0001
0100
0010
,
1010
1000
0100
0110
,
1001
0110
0001
1000
,
0010
0100
0010
0000
1000
0000
0001
0000
,
0020
0000
0000
0000
,
0000
0000
0000
0030
,
0000
0000
0000
0000
,
0000
0000
0000
0000
,
0001
0000
0001
1000
0001
0000
0001
0000
,
0100
0000
0100
0010
0100
0000
0100
0000
,
0001
0010
0001
0010
0000
0100
1000
0010
,
0100
0000
0000
0010
0000
0000
1000
0000
0001
0000
0000
0000
0000
0000
0000
0000
,
1000
0000
0010
0100
0000
0100
0001
0000
,
0010
0000
0001
1000
0000
1000
0100
0000
,
0010
0000
0001
0100
0000
0100
0010
0000
,
1010
0100
1001
0000
,
0011
0000
0100
1000
0000
0001
0100
0000
,
0010
0000
1000
0100
0000
1000
0001
0000
,
0100
0000
0000
0100
0000
0000
0100
0000
,
0000
0100
0010
1000
0001
0000
0000
0000
,
2000
3200
0302
0203
,
2300
3020
0032
0023
,
0230
0302
0023
0230
,
0302
0203
2300
3020
,
1030
0001
0100
0000
0001
0100
0010
0000
,
0100
0010
1000
0000
0001
0000
0100
0000
,
0001
0010
0100
0000
0010
0100
1000
0000
,
0100
1000
0001
0000
0100
0000
0010
0000
,
1000
0000
0001
0010
0000
0001
0010
0000
,
0100
0000
1000
0010
0000
1000
0010
0000
,
0100
0000
0001
1000
0000
0001
1000
0000
,
0100
0000
0000
0010
0000
0001
0011
0000
,
1000
0000
0010
0100
0000
0010
1000
0000
,
0001
0000
0100
0010
0000
0100
0001
0000
,
1000
0000
0001
0010
0000
0001
0100
0000
,
0020
2030
3002
0003
,
1000
0001
0000
0100
0000
0001
0000
1000
,
0000
0100
0000
0010
0000
0001
1000
0001
,
0000
0100
0000
0010
0000
1000
0000
0001
,
0000
0010
0000
0100
0000
1000
0100
1000
,
0000
0001
0000
0100
0000
0010
0000
1000
,
0000
0001
0000
0010
0000
0100
0010
0100
,
0000
1000
0000
0001
0000
0100
0000
0001
,
0000
1000
0000
0010
0100
0010
0010
0000
,
2000
0000
3002
0000
0103
0010
1000
0000
,
0010
0100
0001
0010
0200
0000
0000
0000
,
1300
0000
0000
0001
0000
0000
0100
0000
0020
0000
0000
0000
0030
0000
0000
0000
,
0100
0000
0000
0001
0000
0000
0010
0000
0002
0000
0000
0000
0003
0000
0000
0000
,
1000
0000
0000
0100
0000
0000
1000
0000
0001
0000
0000
0100
0000
0000
0001
0000
,
0010
0000
0000
0001
0000
1000
0001
0000
0000
1000
0000
0000
,
0002
0000
0000
0000
0000
0000
0003
0100
,
0020
0000
2030
0000
,
3001
0000
0000
0000
0100
0000
0000
0000
0000
0001
0010
0000
0100
1000
0000
0000
,
0002
0000
0000
0203
0000
0000
0320
0000
,
2030
0000
0000
3200
0000
0000
2300
0000
,
3020
0000
0000
0032
0000
0000
0023
0000
,
0230
0000
0000
0302
0000
0000
2003
0000
,
3010
0000
0000
0100
0000
0000
0001
0000
0010
0000
0000
0001
0000
0000
1000
0000
,
0002
0203
0320
0030
,
1000
0000
0000
1000
0001
0010
0100
1000
,
0001
0000
0000
0001
1000
0100
0010
0001
,
1000
0000
0000
1000
0001
0010
0100
1000
,
0000
0000
0001
0000
1000
0100
0010
0001
,
1000
1010
0010
0110
,
0100
0101
0001
0011
,
0010
0100
0010
0100
1000
0001
1000
0001
,
0200
0000
0000
0000
0300
0000
0001
0010
,
0100
0000
1000
0010
0000
0100
0001
0000
,
0010
0000
0001
0100
0000
0010
1000
0000
,
0001
0000
0010
0100
1000
0000
0010
0000
,
0100
0000
0001
0000
1000
0000
1000
0010
,
0100
0000
0001
0010
0000
0100
1000
0000
,
0010
0000
1000
0100
0000
0010
0001
0000
,
1000
0000
0010
0100
0001
0000
0010
0000
,
0100
1100
2002
3003
,
0001
0000
0100
0001
0100
0001
0010
0000
,
0100
0000
1000
0001
1000
0001
0100
0000
,
1010
1010
1001
1001
,
0001
0010
0001
1000
0100
1000
,
0001
0000
0100
0100
0000
0000
0001
0000
,
1000
0000
0010
0010
0000
0000
0100
0000
,
0001
1000
0001
1000
0001
1000
0001
1000
,
0020
0000
0000
0030
,
0100
0000
0001
0000
1000
0100
0000
0001
,
0100
1000
0010
0100
,
0001
0000
1000
0000
0001
0010
0000
1000
,
0010
0000
0001
0000
0100
0000
0010
1000
,
0001
0000
0010
0000
0100
0000
1000
0001
,
0100
0000
0010
0000
0100
0000
0001
1000
,
0100
0000
1000
0000
0010
0000
0100
0001
,
1000
0100
0010
0001
,
1000
0000
0001
0000
0100
0010
1000
0000
,
1100
0000
0000
1001
0000
0000
0000
0000
,
0001
0000
1000
0000
0001
0100
0010
0000
,
1010
0000
0000
1001
0000
0000
0000
0000
,
0001
0010
0001
0000
1000
0100
1000
0000
,
0010
0100
0001
0000
1000
0100
0010
0000
,
2002
0000
0000
0000
,
0000
0000
0000
3003
,
0020
0000
0000
0000
,
0030
0000
0000
0000
,
0000
0000
0000
0000
;
#NOTES:
     dance-single:
     :
     Hard:
     16:
     :
0000
0000
0000
0000
,
0000
0000
0000
0000
,
0000
0000
0000
0000
,
0000
0000
1010
0010
,
0100
0001
1000
0000
0010
0000
1000
0000
,
1100
0000
0101
0000
1000
0100
0020
0000
,
0000
0000
0031
0010
0100
0000
1000
0010
,
1000
0000
0001
0000
0010
0000
0100
0000
1000
0100
1000
0000
0001
0000
0100
0000
,
0010
0000
1000
0000
0001
0000
0100
0010
,
1000
0000
0100
1000
0100
0010
0001
0000
,
1000
0000
0010
0000
0100
0000
0001
0010
,
0200
0000
0000
0300
0000
1000
0100
1000
,
0010
0000
0010
0000
0100
0000
0100
0001
,
1000
0000
1000
0000
0010
0000
0010
0100
,
0001
0000
0010
0000
0001
0000
0010
0000
0100
0000
1000
0000
0001
0100
0001
0100
,
0001
0000
0000
0010
0000
0000
0001
0000
1001
0000
0000
0000
1000
0100
1000
0100
,
0010
0001
1000
0010
0000
0100
0001
1000
,
0100
0010
0001
0001
0010
0100
1000
0010
,
0100
0001
1000
0100
0000
1000
0001
0100
,
0020
0001
1030
1001
,
1000
0100
0010
0001
0000
0001
1000
0010
,
0100
0000
0000
0100
0000
0000
0100
0000
,
0001
0000
0010
0001
0000
0100
0001
0000
,
0000
1000
0001
0100
0110
0000
0000
0000
,
0001
0010
0100
1000
0010
0100
0001
0010
,
0001
1000
0100
1000
0010
0100
0001
0010
,
0001
1000
0010
0100
0001
0010
0001
1000
,
0010
0100
0010
1000
0001
0010
0100
1000
,
0002
0203
0302
0023
0230
2300
3020
2030
,
3002
0023
0230
0302
0203
2300
3020
0032
,
0023
0230
0302
2003
3200
2300
3020
0230
,
0302
0023
0032
2003
3020
0230
0302
0003
,
1001
1000
0100
1000
0010
0100
0100
0001
,
0011
0010
0100
1000
0001
0100
0100
0010
,
1010
1000
0100
0010
0001
1000
1000
0010
,
0110
0000
0100
0000
0001
0000
1000
0100
1000
0000
0100
0000
0010
0000
0001
0000
,
1001
1000
0010
0110
0000
0100
0001
1000
,
1100
0000
0100
0010
0001
0001
1000
0010
,
0100
0100
0001
1000
0100
1000
0010
0010
,
1000
0000
1000
0000
0001
0100
0001
0000
1000
0000
0100
0010
0001
0000
0000
0000
,
1000
0100
1000
0010
1000
0100
1000
0010
,
1000
0100
1000
0001
0000
0100
0100
0100
,
0010
1000
0001
0010
0001
0100
0001
0010
,
0001
1000
0001
1000
0100
0000
0010
0000
0001
0000
0000
0000
1001
0000
0000
0000
,
1000
1000
1000
0000
0001
0100
0001
0010
,
0001
0000
0100
0010
0100
0000
0001
0000
1000
0000
0010
0000
0010
0000
0010
0000
,
0100
0001
1000
0100
0010
0001
1000
0010
,
0100
0001
0100
0001
0100
0001
0100
0001
0100
0000
0001
0000
0010
0000
0000
0000
,
0002
0000
0103
0010
0100
0001
0100
1000
0100
0010
0200
0000
0000
0000
0310
0000
,
0100
0000
0000
0000
0000
0000
0010
0000
0000
0100
0000
0000
0010
0000
0000
1000
0000
0000
0010
0000
0000
0001
0000
0000
0010
0000
0000
0000
0000
0000
0100
0000
0010
0000
0100
0000
0010
0000
0000
0000
0000
0000
1001
0000
0000
0000
0000
0000
,
1000
0000
0000
0010
0000
0000
0100
0000
0001
0000
1000
0000
0100
0000
0010
0000
,
0001
0000
0000
1000
0000
0000
0010
0000
0100
0000
0001
0000
1000
0000
0100
0000
,
1000
0000
0010
0000
0100
0000
0001
0000
0010
0000
0001
0000
1000
0010
0100
0001
,
0100
0000
0000
0000
0000
0000
0000
0000
0000
0000
0000
0000
0001
0000
0000
0000
0010
0000
0000
0000
0100
0000
0000
0000
1000
0000
0000
0000
0000
0000
0000
0000
0000
0000
0000
0000
0001
0000
0000
0000
0000
0000
1000
0000
0000
0010
0000
0000
,
0200
0000
0000
0000
0000
0000
0000
0000
0000
0000
0000
0000
0000
0000
0301
0010
,
0200
0000
0000
0000
2300
0000
0000
3000
,
2002
0000
0000
0000
0000
0000
0000
0000
0000
0000
0000
0000
3003
0000
0000
0000
0000
0000
0000
0000
0000
0000
0000
0000
0001
0000
0000
0000
0100
0000
0000
0000
0001
0000
0000
0000
0100
0000
0000
0000
0001
0000
0000
0000
0100
0000
0000
0000
0010
0000
0000
0000
0000
0000
1000
0000
0000
0001
0000
0000
1000
0000
0000
0000
0000
0000
0100
0000
0000
0000
0000
0000
0010
0000
0000
0000
0000
0000
0001
0000
0000
0000
0000
0000
0200
0000
0000
0000
0000
0000
0000
0000
0000
0000
0000
0000
,
0310
1000
0001
0010
0100
1000
0001
0100
,
0001
0010
0001
1000
0010
0100
0001
1000
,
0100
0000
0000
1000
0000
0000
0010
0000
,
0100
0000
0000
0001
0000
0000
0010
0000
,
0100
0000
0000
1000
0000
0000
0010
0000
0100
0000
0000
0001
0000
0000
0010
0000
,
0100
1100
2002
3003
,
0001
0010
0001
0100
0001
1000
0010
0100
,
0001
0010
0001
0100
0001
1000
0010
0100
,
0001
0010
0001
0100
0001
1000
0010
0100
,
0000
0001
0010
0001
1000
0001
0100
0010
,
1000
1001
0100
0011
,
0100
1010
0100
0011
,
1000
0000
0010
0000
1000
0000
0001
0000
0010
0000
0100
0000
1000
0001
1000
0001
,
0100
0000
0000
0000
0000
0000
0001
0010
,
0100
0000
1000
0000
0001
0000
0100
0000
0010
0000
1000
0001
1000
0000
0100
0000
,
0010
0000
0001
0000
1000
0000
0010
0000
0100
0000
0001
1000
0001
0000
0010
0000
,
0100
0000
1000
0000
0010
0000
0100
0000
0001
0000
1000
0100
1000
0000
0010
0000
,
0100
0001
1000
1010
,
0010
0000
0100
0000
0001
0000
1000
0000
0100
0000
0010
0001
0010
0000
0100
0000
,
1000
0000
0010
0000
1000
0000
0001
0000
0100
0000
0010
1000
0010
0000
0100
0000
,
0001
0000
1000
0000
0100
0000
0010
0000
0001
0000
0100
0010
0100
0000
0001
0000
,
1000
0000
1100
0000
1001
0000
0001
0100
,
0010
0000
0100
0000
0001
0000
1000
0000
0100
0000
1000
0100
0010
0000
0000
0000
,
0010
0000
0001
0000
1000
0000
0001
0000
0100
0000
0001
0100
0010
0000
0000
0000
,
0010
0000
1000
0000
0001
0000
0010
0000
0100
0000
0010
0100
1000
0000
0000
0000
,
1000
0100
1000
0010
0100
0001
,
0010
0000
0000
0000
0001
0000
1000
0000
0000
0000
0010
0100
0010
0000
0000
0000
,
1000
0000
0000
0000
0001
0000
0100
0000
0000
0000
0001
0010
0100
0000
0000
0000
,
1000
0010
0100
0001
0010
0001
1000
0010
,
0200
0000
0000
0300
,
0001
0000
0100
0000
0010
0000
1000
0000
0001
0010
0001
0000
1000
0000
0010
0100
,
0010
0000
1000
0000
0001
0000
1000
0000
0100
0000
0010
0000
0001
0010
0100
0000
,
1000
0000
0001
0000
0010
0001
0010
0000
0100
0000
1000
0000
0010
0000
0100
0001
,
0100
0000
0010
0000
1000
0100
1000
0000
0001
0010
0001
0000
1000
0000
0010
0000
,
0100
0001
1000
0100
0010
0010
0100
1000
,
0001
0000
0100
0000
0010
0000
1000
0000
0001
0000
0001
0000
0100
0000
0010
0100
,
0010
1000
0001
0010
0001
1000
0010
0100
,
0001
0000
0010
0000
0100
0000
1000
0000
0001
0000
0100
0000
0010
0000
0000
1000
0000
0000
0100
0000
0000
0010
0000
0000
,
0001
0010
0001
0000
1000
0000
0010
0000
0100
0000
0001
0000
1000
0100
0010
0000
,
0011
0000
0000
1001
0000
0000
0000
0000
,
1000
0100
1000
0000
0001
0000
0100
0000
0010
0000
1000
0000
0001
0010
0100
0000
,
1100
0000
0000
1001
0000
0000
0000
0000
,
0001
0000
0100
0000
0001
0000
0100
0000
0001
0100
0001
0100
0001
0000
0000
0000
,
1000
0000
0100
0000
1000
0000
0100
0000
1000
0100
1000
0100
1000
0000
0000
0000
,
0020
0230
0302
0023
,
0230
2300
3020
0230
,
0302
0000
0000
0000
,
0003
0000
0000
0000
,
0000
0000
0000
0000
;
#NOTES:
     dance-single:
     :
     Challenge:
     18:
     :
0000
0000
0000
0000
,
0000
0000
0000
0000
,
0000
0000
0000
0000
,
0000
0000
0001
1000
0020
0000
0230
0000
,
0301
1000
0200
0000
0320
0000
0031
0000
,
0011
0000
0000
0000
1100
0000
0000
0000
0001
0000
1000
0000
0001
0100
0001
0000
,
1000
0100
1000
0000
0001
1000
0010
0000
0100
0000
0001
0000
0010
0000
0100
0000
,
1000
0000
0001
0000
1000
0010
1000
0000
0001
0010
0001
0000
1000
0001
1000
0001
,
0200
0000
0320
0000
2030
0000
3001
0010
,
0200
0000
0000
0000
0310
0000
0001
1000
0001
0000
0100
0000
0010
0000
1000
0000
,
0200
0000
0320
0000
0032
0000
1003
0010
,
0200
0000
0000
0000
0300
0001
0010
0100
,
1000
0000
0001
0100
0000
0001
0010
0001
,
0100
0000
0010
0000
1000
0100
1000
0001
,
0010
0000
0001
0000
0100
0000
0010
0000
1000
0001
0010
0001
1000
0100
1000
0001
,
0100
0000
0000
0101
0000
0000
1010
0000
1001
0000
0000
0000
0001
0010
0100
1000
,
0001
1000
0010
0200
0000
0310
0100
0001
,
1000
0100
0010
0100
1000
0001
0100
0010
,
1000
0001
0010
0200
0000
0310
0001
1000
,
0010
0110
2002
3003
,
1000
0001
0010
0200
0000
0310
0100
1000
,
0001
1000
0010
0200
0000
0310
1000
0001
,
0010
0000
0001
0101
0000
1000
1100
0000
,
0000
0011
1000
0001
1100
0000
0000
0000
,
0001
0100
0001
0000
1000
0001
0100
0000
0010
1000
0010
0000
1000
0001
0010
0000
,
0100
1000
0100
0000
0010
0001
1000
0000
0100
1000
0100
0000
1000
0001
0100
0000
,
0010
1000
0010
0000
0100
0001
1000
0000
0001
0010
0001
0000
1000
0010
0100
0000
,
0001
1000
0001
0000
1000
0100
0010
0000
0001
1000
0001
0000
1000
0010
0100
0000
,
0002
0010
1003
0020
0100
1030
0002
0100
,
1003
0000
0200
0000
0010
0000
1300
0001
0100
0000
0001
0000
0010
0000
0100
0000
,
2000
0010
3001
0020
0100
0031
2000
0100
,
3001
0200
0010
0301
1000
0010
0100
0001
,
0010
0000
0001
0000
0200
0000
0000
0000
0310
0000
1000
0001
0010
0000
0100
0000
,
0010
0000
0001
1000
0010
0000
0100
0000
0001
0000
1000
0000
1100
0000
0000
0000
,
1001
0000
1000
0000
0020
0000
0000
0000
0130
0000
0010
1000
0001
0000
0010
0000
,
0100
0000
0010
0001
1000
0000
0010
0000
0100
0000
0010
1000
0100
0000
0000
0000
,
0110
0000
0001
0000
2000
0000
0000
0000
3010
0000
1000
0001
0010
0000
0100
0000
,
0010
0000
0001
1000
0010
0000
0100
0000
0001
0000
1000
0000
1100
0000
0000
0000
,
0001
1000
0010
0000
0100
0000
0010
1000
0001
0000
0010
0000
0001
1000
0100
0000
,
0010
0001
0100
0000
0010
1000
0100
0010
0001
1000
0010
0000
0200
0000
0300
0000
,
1001
0001
1000
0100
1000
0001
1000
0010
,
1000
0100
0010
0001
0100
0001
0001
0001
,
0101
1000
0001
0100
0001
1000
0001
0010
,
0001
1000
0010
1000
0001
0010
0100
1000
0001
0000
0000
0000
1001
0000
0000
0000
,
1000
1000
1000
0100
1000
0001
1000
0010
,
1000
0100
0010
0001
0100
0001
0001
0001
,
1000
0100
0010
0000
0001
0000
1000
0010
0100
0000
0001
0000
0010
0000
0100
0000
,
1000
0001
0010
0001
1000
0010
0100
0001
1000
0000
0000
0000
0110
0000
0000
0000
,
1002
0000
0000
0000
0103
0000
0000
0000
2001
0000
0000
0000
3010
0000
0000
0000
0100
0001
0100
0001
1000
0010
1000
0010
0100
0000
0000
0000
0001
1000
0001
1000
,
0010
0000
0000
0000
0000
0000
0000
0000
0000
0000
0000
0000
0100
0000
0000
0000
0000
0000
0000
0000
0000
0000
0000
0000
0001
0000
0000
0000
0000
0000
0001
0000
0000
0000
0000
0000
1000
0000
0000
0000
0000
0000
1000
0000
0000
0000
0000
0000
0001
0000
0000
1000
0000
0000
0100
0000
0000
0010
0000
0000
0001
0000
0000
0000
1000
0000
0000
0000
0001
0000
0000
0000
1100
0000
0000
0000
0000
0000
0000
0000
0000
0000
0000
0000
0011
0000
0000
0000
0000
0000
0000
0000
0000
0000
0000
0000
,
1000
0000
0000
0001
0000
0000
0010
0000
0200
0000
1000
0000
1300
0000
0000
0000
,
0001
0000
0000
1000
0000
0000
0010
0000
0200
0000
0001
0000
0301
0000
0000
0000
,
1000
0000
0001
0000
1000
0000
0001
0000
1000
0001
1000
0001
0100
0010
1000
0001
,
0010
0001
1000
0010
0100
0000
0001
0000
0010
0000
0000
0000
0110
0000
0000
0000
,
0001
0000
0001
0000
1000
0000
1000
0000
0010
0000
0010
0000
0100
0000
0100
0001
,
1000
1000
0100
0100
0010
0010
0001
0001
,
0100
0000
1001
0000
0010
0000
1001
0000
0000
1000
0001
0000
1000
0001
1000
1000
,
0001
0100
0001
0100
0001
0100
0001
0100
0001
0000
1000
0000
0001
0000
0010
0000
,
0100
1000
0100
1000
0100
1000
0100
1000
0100
0000
1000
0000
0001
0000
0100
0000
,
0010
1000
0010
1000
0010
1000
0010
1000
0010
0000
1000
0000
0001
0000
0010
0000
,
0001
1000
0001
1000
0001
1000
0001
1000
0001
0000
0100
0000
0010
0000
1000
0000
,
0100
0000
0000
1001
0000
0000
0011
0000
0100
0000
0000
1001
0000
0000
1010
0000
,
0100
0000
0010
0000
1001
0000
0220
0330
,
1001
0001
0100
1010
1000
0100
0010
0001
,
1001
1000
0010
0101
0001
0010
0100
1000
,
1001
0001
0100
1010
1000
0001
0010
0011
,
0001
1000
1100
0001
0101
1000
1010
0001
,
1001
0000
1000
0010
0110
0000
0001
0010
,
0110
0000
1000
0010
0101
0000
0001
0010
,
1100
1010
0110
0101
,
0001
0000
0010
0000
0100
0000
1000
0000
0010
0100
0001
1000
0100
1000
0001
0100
,
0010
1000
0001
0000
0010
0000
0001
1000
0010
0000
0100
0000
0010
1000
0001
0000
,
0100
0001
1000
0000
0100
0000
1000
0001
0100
0000
0010
0000
0100
0001
1000
0000
,
0001
0010
0100
0000
1000
0000
0010
0100
0010
0000
1000
0000
0100
0010
0001
0000
,
1000
0010
1000
0100
1000
0001
0010
0100
,
0010
0001
1000
0000
0010
0000
1000
0001
0010
0000
0100
0000
0010
0001
1000
0000
,
0100
1000
0001
0000
0100
0000
0001
1000
0100
0000
0010
0000
0100
1000
0001
0000
,
1000
0010
0100
0000
0001
0000
0010
0100
0010
0000
0001
0000
0100
0010
1000
0000
,
0001
0010
0001
0100
0001
1000
0010
0000
,
1010
1001
0101
0000
0011
0000
0101
0000
,
1010
0000
1100
0000
1010
0000
0011
1001
,
1100
0011
1010
0101
,
1001
1010
0011
1001
0101
1100
,
1001
0000
0000
0000
0011
0000
1001
0000
0000
0000
1000
0000
0001
0100
0001
0100
,
0010
0000
0000
0000
1010
0000
1001
0000
0000
0000
0001
0000
1000
0100
1000
0100
,
0010
0001
1100
0001
1010
1000
0101
0000
,
2002
0000
0000
0000
0000
0000
0000
0000
3003
0000
0000
0000
0001
1000
0001
1000
,
0001
0000
1000
0000
0100
0000
1000
0000
0010
0100
0010
0000
1000
0000
0100
0000
,
0010
0001
0010
0000
0100
0000
1000
0001
1000
0000
0010
0000
0100
0001
1000
0001
,
0010
0100
1000
0001
0100
0000
0001
0000
0010
0100
0010
0000
0001
0000
0100
0010
,
0100
0001
1000
0000
0001
0010
0100
0000
1000
0010
0100
0000
0001
1000
0001
1000
,
0001
0000
0100
0000
0001
0000
0010
0000
0100
1000
0100
1000
0100
0000
0010
0000
,
0001
1000
0001
0000
0100
0000
0010
0000
1000
0100
0010
0000
0001
0100
0010
0000
,
1000
0001
1000
0001
1000
0000
0100
0000
0010
0000
0001
0000
0100
0000
0010
0000
,
1000
0100
1000
0001
0010
0001
0100
0000
0000
0010
0000
0000
,
1000
0001
0010
0000
0100
0000
0100
0000
1000
0000
1000
0000
0001
1000
0010
0100
,
0001
0000
0000
0101
0000
0000
0000
0000
,
0001
1000
0010
0000
0100
0000
0100
0000
0001
0000
0001
0000
1000
0001
0010
0100
,
1000
0000
0000
1100
0000
0000
0000
0000
,
1000
0001
0010
0100
1000
0001
1000
0010
0100
0001
1000
0100
1000
0001
0010
0001
,
1000
0010
0100
0001
1000
0100
0010
0001
0100
0001
1000
0010
0100
0001
0010
0001
,
1000
0001
0010
0100
1000
0010
1000
0001
,
0010
0100
1000
0010
1000
0100
0010
0001
,
2002
0000
0000
0000
,
3003
0000
0000
0000
,
0000
0000
0000
0000
;
#NOTES:
     dance-double:
     :
     Easy:
     10:
     :
00000000
00000000
00000000
00000000
,
00000000
00000000
00000000
00000000
,
00000000
00000000
00000000
00000000
,
00000000
00000000
00022000
00000000
,
00000000
00033000
00000000
00000000
,
00001000
01000000
00100000
02200000
,
00000000
03300000
10000000
10000000
,
10000000
00010000
00010000
00010000
,
10010000
00000000
10000000
00000000
,
01000000
00000000
00010000
00000000
,
00001000
00000000
00000100
00000000
,
00000001
00000000
00001000
00000000
,
00000010
00000010
00000100
00000000
,
00000010
00000010
00001000
00000000
,
00000010
00000010
00010000
00000000
,
00001000
00000000
00000000
00001000
00000000
00000000
00001000
00000000
00000000
00000000
00000000
00000000
00000000
00000000
00000000
00000000
,
00010000
00001000
01000000
00000000
,
00010000
00100000
01000000
00000000
,
00100000
00001000
00010000
00000000
,
00001000
00000100
00000001
00000000
,
00000001
00000010
00000100
00000000
,
00001000
00000000
00000000
00000010
00000000
00000000
00010000
00000000
,
00001000
00000000
00000000
00001000
00000000
00000000
00001000
00000000
,
00000000
00001000
00000000
00010000
00001000
00000000
00000000
00000000
,
00001000
00100000
00010000
01000000
,
00100000
10000000
00010000
00100000
,
00001000
00010000
00000100
00000010
,
00000001
00001000
00000010
00000100
,
00000002
00000023
00000230
00002300
,
00003020
00020030
00032000
00203000
,
00320000
00230000
02300000
23000000
,
30020000
02030000
03200000
20300000
,
30010000
00000000
00000000
00010000
00000000
00000000
00000000
00000000
,
00100000
00000000
00000000
00100000
00000000
00000000
00000000
00000000
,
00001000
00000000
00000000
00001000
00000000
00000000
00000000
00000000
,
00010000
00000000
00000000
00010000
00000000
00000000
00000000
00000000
,
00000100
00000000
00000000
00000100
00000000
00000000
00001000
00000000
,
00000010
00000000
00000000
00000010
00000000
00000000
00001000
00000000
,
00000001
00000000
00000000
00000001
00000000
00000000
00000100
00000000
,
00000220
00000000
00000330
00000000
,
00000001
00001000
00000010
00000100
,
00000010
00000000
00010000
00000000
00000000
00001000
00000000
00001000
,
00010000
00010000
00001000
00001000
,
01000000
01000000
00010000
00010000
,
00100000
00000000
10010000
00000000
00000000
10000000
00000000
10000000
,
00000000
01000000
00000000
01000000
00000000
00100000
00000000
00100000
,
00000000
00001000
00000000
00001000
00000000
00010000
00000000
00010000
,
00000000
00000100
00000000
00000100
00000000
00000010
00000000
00000000
,
00000002
00000100
00000010
00000103
,
00002000
00000010
00000100
00003010
,
00011000
00000000
00010000
00000000
,
00001000
00010000
00100000
00000000
,
10000000
10000000
00010000
00010000
,
10010000
01000000
10010000
01000000
,
20010000
00000000
00000000
30000000
,
02000000
03000000
00020000
00030000
,
00022000
00000000
00000000
00033000
,
00010000
00010000
00000100
00000100
,
00001000
00001000
00000001
00000001
,
00001000
00000000
00000000
00000010
00000000
00000000
00001000
00000000
,
00000001
00000000
00000000
00000100
00000000
00000000
00000001
00000000
,
00000011
00000000
00001100
00000000
,
00000100
00010000
00011000
00000000
,
00001000
00000000
00000000
00001000
00000000
00000000
00000000
00000000
,
00100000
00000000
00000000
00100000
00000000
00000000
00000000
00000000
,
00010000
00000000
00000000
00010000
00000000
00000000
00000000
01000000
,
00000000
01000000
01000000
01000000
,
00100000
00100000
10000000
10000000
,
01000000
01000000
00010000
00010000
,
00001000
00001000
00011000
00011000
,
00022000
00000000
00000000
00033000
,
00010000
00001000
00000100
00000010
,
00001000
00000100
00000010
00000001
,
00000001
00000100
00000010
00001000
,
00000100
00010000
00001000
00000000
,
00001000
00010000
00100000
01000000
,
00010000
00100000
01000000
10000000
,
10000000
00100000
01000000
00010000
,
00100000
00001000
00020000
00030000
,
00001000
00000000
00000000
01000000
00000000
00000000
00001000
00000000
,
00010000
00000000
00000000
00000010
00000000
00000000
00010000
00000000
,
00001000
00000010
00000001
00000100
,
00000220
00000000
00000000
00000330
,
00000001
00000000
00000000
00000100
00000000
00000000
00001000
00000000
,
00010000
00000000
00000000
00100000
00000000
00000000
10000000
00000000
,
01000000
00100000
00010000
01000000
,
02200000
00000000
00000000
03300000
,
00100000
00000000
10000000
00000000
00010000
00000000
00100000
01000000
,
00000000
10000000
01000000
00100000
,
00010000
00000000
00100000
00000000
00001000
00000000
00010000
00000100
,
00000000
00001000
00000010
00000100
,
00000001
00000001
00000010
00000100
,
00001000
00000000
00000010
00000000
00010000
00000000
00001000
00010000
,
00000000
00000000
00001000
00000000
01000000
00000000
00010000
00100000
,
00000000
00010000
00010000
00010000
,
10000000
01000000
00100000
00010000
,
00101000
00000000
00000000
00011000
00000000
00000000
00000000
00000000
,
00010000
00000100
00001000
00000010
,
00000110
00000000
00000000
00000101
00000000
00000000
00000000
00000000
,
00000001
00000100
00001000
00010000
,
00001000
00000000
00010000
00000000
01000000
00000000
10000000
00200000
,
00000000
00000000
00000000
00000000
,
00000000
00000000
00000000
00000000
,
00300000
00000000
00000000
00000000
,
00000000
00000000
00000000
00000000
;
#NOTES:
     dance-double:
     :
     Medium:
     12:
     :
00000000
00000000
00000000
00000000
,
00000000
00000000
00000000
00000000
,
00000000
00000000
00000000
00000000
,
00000000
00000000
00011000
00001000
,
00100000
00010000
01000000
00100000
,
10100000
10000000
01000000
00110000
,
00101000
00011000
00010000
00001000
,
00000100
00000000
00000010
00000100
00000010
00000000
00001000
00000000
,
00000002
00000000
00000000
00000000
,
00000000
00000000
00000000
00000003
,
00000000
00000000
00000000
00000000
,
00000000
00000000
00000000
00000000
,
00000001
00000100
00001000
00010000
,
00001000
00010000
01000000
10000000
,
00010000
01000000
00010000
01000000
00000000
00100000
10000000
00100000
,
10000000
00000000
00000000
01000000
00000000
00000000
00100000
00000000
00001000
00000000
00000000
00000000
00020000
00000000
00000000
00000000
,
00031000
00000000
00010000
00000100
00000000
00000100
00001000
00000000
,
00000001
00000100
00000010
00000000
00001000
00000000
00000001
00000000
,
00000010
00000000
00000100
00010000
00000000
00010000
00001000
00000000
,
00011000
01000000
01100000
00000000
,
10010000
00000000
10000000
01000000
00000000
10000000
01000000
00000000
,
00100000
00000000
00001000
00010000
00000000
00001000
00010000
00000000
,
00000010
00000000
00000000
00000010
00000000
00000000
00000010
00000000
,
00000000
00000010
00000100
00000001
00001000
00000000
00000000
00000000
,
00000002
00000203
00002300
00023000
,
00230000
00320000
00032000
00023000
,
02030000
23000000
32000000
03200000
,
00302000
00023000
00032000
00003200
,
00000310
00001000
00000001
00000000
00001000
00000001
00000100
00000000
,
00000001
00000100
00001000
00000000
00010000
00000000
00001000
00000000
,
00010000
00001000
01000000
00000000
00010000
01000000
00100000
00000000
,
01000000
00100000
10000000
00000000
00010000
00000000
00100000
00000000
,
01000000
00000000
10000000
00100000
00000000
10000000
00100000
00000000
,
00010000
00000000
00001000
00010000
00000000
00001000
00010000
00000000
,
00001000
00000000
00000010
00000001
00000000
00000010
00000001
00000000
,
00001000
00000000
00000000
00000010
00000000
00000100
00000110
00000000
,
00000001
00000000
00001000
00000100
00000000
00001000
00000010
00000000
,
00010000
00000000
00001000
00010000
00000000
00001000
00010000
00000000
,
00001000
00000000
01000000
00010000
00000000
00100000
00010000
00000000
,
20000000
30200000
00320000
00030000
,
00001000
00010000
00000000
00000100
00000000
00001000
00000000
00000001
,
00000000
00001000
00000000
00000010
00000000
00010000
00001000
00010000
,
00000000
00001000
00000000
01000000
00000000
00010000
00000000
10000000
,
00000000
00010000
00000000
00100000
00000000
00001000
00010000
00001000
,
00000000
00010000
00000000
00000100
00000000
00000010
00000000
00000001
,
00000000
00001000
00000000
00000010
00000000
00010000
00001000
00010000
,
00000000
00001000
00000000
00100000
00000000
01000000
00000000
00010000
,
00000000
00001000
00000000
00010000
00000100
00001000
00000010
00000000
,
00002000
00000000
00003002
00000000
00000013
00000100
00001000
00000000
,
00000010
00010000
00001000
00010000
00002000
00000000
00003000
00000000
,
00010000
00000000
00000000
00001000
00000000
00000000
00100000
00000000
00020000
00000000
00000000
00000000
00030000
00000000
00000000
00000000
,
10000000
00000000
00000000
00100000
00000000
00000000
01000000
00000000
00020000
00000000
00000000
00000000
00030000
00000000
00000000
00000000
,
10000000
00000000
00000000
01000000
00000000
00000000
10000000
00000000
00100000
00000000
00000000
01000000
00000000
00000000
00010000
00000000
,
00100000
00000000
00000000
00000000
00000000
00000000
00001000
00000000
00000000
00000000
00010000
00000000
00001000
00000000
00000000
00000000
00000000
00000000
00010000
00000000
00000000
00001000
00000000
00000000
,
00000200
00000000
00000000
00000000
00000000
00000000
00000300
00000010
,
00002000
00000000
00003002
00000000
,
00000103
00000000
00000000
00000000
00000010
00000000
00000000
00000000
00000000
00010000
00001000
00000000
00001000
00010000
00000000
00000000
,
00002000
00000000
00000000
00203000
00000000
00000000
00320000
00000000
,
02030000
00000000
00000000
03200000
00000000
00000000
00320000
00000000
,
00032000
00000000
00000000
00003020
00000000
00000000
00000230
00000000
,
00020300
00000000
00000000
00032000
00000000
00000000
00003200
00000000
,
00000301
00000000
00000000
00000010
00000000
00000000
00000001
00000000
00001000
00000000
00000000
00000100
00000000
00000000
00001000
00000000
,
00000020
00020030
00032000
00003000
,
00001000
00000000
00000000
00001000
00100000
00010000
01000000
00000000
,
00001000
00000000
00000000
00001000
01000000
00010000
00100000
00000000
,
00001000
00000000
00000000
00001000
00100000
00010000
01000000
00001000
,
00000000
00011000
00010000
00010100
,
00000100
00000110
00000010
00000011
,
00000001
00001001
00001000
00001010
,
00000010
00010000
00000010
00010000
00000100
00001000
00000100
00001000
,
00000020
00000000
00000000
00000000
00000030
00000000
00001000
00000001
,
00000100
00000000
00000001
00000010
00000000
00000100
00001000
00000000
,
00000010
00000000
00010000
00001000
00000000
00100000
00010000
00000000
,
01000000
00000000
00001000
00010000
00000000
00100000
01000000
00000000
,
00010000
10000000
00100000
01000000
,
00100000
00000000
10000000
01000000
00000000
00100000
00010000
00000000
,
01000000
00000000
00001000
00010000
00000000
00000100
00001000
00000000
,
00000010
00000000
00010000
00001000
00000000
00000100
00000010
00000000
,
00001000
00001100
00002002
00003003
,
00000001
00000000
00000100
00001000
00000000
00010000
00100000
00000000
,
10000000
00000000
01000000
00010000
00000000
00001000
00000010
00000000
,
00000001
00000011
00000010
00000100
,
00010000
00001000
00010000
00001000
00010000
00001000
,
00010000
00000000
00001000
00001000
00000000
00000000
00100000
00000000
,
00010000
00000000
01000000
01000000
00000000
00000000
00100000
00000000
,
10000000
00010000
10000000
00010000
10000000
00010000
10000000
00010000
,
00200000
00000000
00000000
00300000
,
01000000
00000000
10000000
00000000
00100000
00010000
00000000
00001000
,
00010000
00001000
00000010
00000001
,
00001000
00000000
00000001
00000000
00000100
00001000
00000000
00010000
,
00001000
00010000
01000000
10000000
,
10000000
00000000
01000000
00000000
00010000
00000000
00001000
00010000
,
00001000
00000000
00000100
00000000
00000001
00000000
00001000
00000100
,
00000010
00000000
00000001
00000000
00000100
00000000
00001000
00010000
,
00001000
00010000
01000000
10000000
,
00100000
00000000
01000000
00000000
00010000
00100000
00001000
00000000
,
00011000
00000000
00000000
00010100
00000000
00000000
00000000
00000000
,
00000100
00000000
00001000
00000000
00000010
00010000
00001000
00000000
,
00011000
00000000
00000000
01001000
00000000
00000000
00000000
00000000
,
01000000
00100000
01000000
00000000
00010000
10000000
01000000
00000000
,
00100000
00001000
00010000
00000000
00000100
00000010
00000001
00000000
,
00002002
00000000
00000000
00000000
,
00000000
00000000
00000000
00003003
,
00000020
00000000
00000000
00000000
,
00000030
00000000
00000000
00000000
,
00000000
00000000
00000000
00000000
;
#NOTES:
     dance-double:
     :
     Hard:
     16:
     :
00000000
00000000
00000000
00000000
,
00000000
00000000
00000000
00000000
,
00000000
00000000
00000000
00000000
,
00000000
00000000
00011000
00010000
,
00000100
00001000
00000010
00000000
00000100
00000000
00000001
00000000
,
00000011
00000000
00001100
00000000
00001000
00000010
00020000
00000000
,
00000000
00000000
00031000
00100000
00010000
10000000
00100000
01000000
,
00010000
00100000
00001000
00010000
00001000
00000100
00000010
00000000
,
00000001
00000010
00000100
00001000
,
00010000
00000000
00100000
00000000
01000000
00010000
10000000
00000000
,
00100000
00000000
10000000
00000000
01000000
00000000
00100000
00001000
,
00020000
00000000
00000000
00030000
00000000
00001000
00010000
00000010
,
00001000
00000000
00001000
00000000
00000001
00000000
00000001
00000010
,
00000100
00000000
00000100
00000000
00010000
00000000
00010000
00001000
,
00100000
00000000
00010000
00000000
00100000
00000000
00010000
00000000
10000000
00000000
00100000
00000000
01000000
00000000
00010000
10000000
,
00010000
00000000
00000000
00100000
00000000
00000000
01000000
00000000
10000000
00000000
00000000
00000000
00010000
01000000
00010000
01000000
,
00100000
10000000
00100000
00010000
00000000
00001000
00100000
00010000
,
01000000
00100000
00010000
00000000
00001000
00000000
00010000
00000000
,
01000000
10000000
01000000
00010000
00000000
00001000
01000000
00010000
,
00100000
00101000
00011000
00001000
,
00010000
00001000
00000100
00000010
00000000
00001000
00000100
00000010
,
00001000
00000000
00000000
00010000
00000000
00000000
00001000
00000000
,
00000100
00000000
00000001
00000010
00000000
00000100
00001000
00000000
,
00000000
00000010
00010000
00001000
00011000
00000000
00000000
00000000
,
00001000
00100000
00010000
01000000
00100000
10000000
01000000
00100000
,
00010000
01000000
00001000
00010000
00000100
00000010
00000001
00001000
,
00000010
00000100
00000001
00000010
00000100
00001000
00000010
00010000
,
00001000
01000000
00100000
10000000
00010000
00100000
01000000
10000000
,
00200000
02300000
03020000
00230000
00302000
00023000
00030200
00002300
,
00003020
00000230
00002300
00003200
00000302
00000023
00002030
00003020
,
00000230
00002300
00003020
00020030
00032000
02003000
03020000
00230000
,
02300000
23000000
32000000
23000000
30200000
00320000
00032000
00003000
,
00011000
00010000
00000100
00001000
00000001
00000100
00000010
00001000
,
00001001
00000001
00000010
00000100
00001000
00000010
00010010
00000000
,
00011000
00010000
00001000
00100000
01000000
10000000
00010000
01000000
,
01100000
00100000
10000000
00010000
00100000
01000000
11000000
00000000
,
00110000
00100000
00010000
01000000
00001000
00010000
00001000
00010000
,
00000010
00001000
00000100
00010000
00001000
00010000
00010100
00000000
,
00000110
00000100
00001000
00000010
00000100
00000001
00001000
00000010
,
00000100
00000010
00000100
00000000
00000010
00000100
00000010
00000000
00001000
00000000
00000001
00000000
00000010
00000000
00000000
00000000
,
00000100
00001000
00000100
00000010
00000100
00000001
00000100
00000010
,
00000100
00001000
00000100
00010000
00000000
00001000
00001000
00001000
,
00100000
00010000
00100000
01000000
00100000
00010000
00100000
00001000
,
00100000
00010000
00100000
00010000
00100000
00000000
00000000
00000000
00110000
00000000
00000000
00000000
01010000
00000000
00000000
00000000
,
01000000
00010000
01000000
00100000
01000000
10000000
01000000
00100000
,
01000000
00010000
01000000
00001000
00000000
00010000
00010000
00001000
,
00001000
00000000
00010000
00000000
00001000
00000000
00010000
00001000
00010000
00000000
00000100
00000000
00001000
00000000
00000001
00000000
,
00000100
00000001
00000100
00000001
00000100
00000001
00000100
00000001
00000100
00000000
00000001
00000000
00000010
00000000
00000000
00000000
,
00000200
00000000
00001300
00000100
00001000
00000001
00001000
00000010
00001000
00010000
00000200
00000000
00000000
00000000
00001300
00000000
,
00010000
00000000
00001000
00010000
00001000
00100000
00010000
00001000
01000000
00000000
00100000
00000000
00010000
00000000
01000000
00000000
,
00100000
00000000
00000000
10000000
00000000
00000000
00010000
00000000
01000000
00000000
00001000
00000000
00010000
00000000
00000100
00000000
,
00001000
00000000
00000000
00000010
00000000
00000000
00000100
00000000
00000001
00000000
00001000
00000000
00000010
00000000
00010000
00000000
,
00001000
00000000
00000000
01000000
00000000
00000000
00010000
00000000
00100000
00000000
01000000
00000000
10000000
00010000
10000000
00010000
,
00100000
00000000
00000000
00000000
00000000
00000000
00000000
00000000
00000000
00000000
00000000
00000000
01000000
00000000
00000000
00000000
10000000
00000000
00000000
00000000
01000000
00000000
00000000
00000000
10000000
00000000
00000000
00000000
00000000
00000000
00000000
00000000
00000000
00000000
00000000
00000000
00010000
00000000
00000000
00000000
00000000
00000000
01000000
00000000
00000000
00100000
00000000
00000000
,
02000000
00000000
00000000
00000000
00000000
00000000
00000000
00000000
00000000
00000000
00000000
00000000
03000000
00000000
00001000
00010000
,
00002000
00000000
00003020
00000000
,
00000032
00000000
00000000
00000000
00000000
00000000
00000000
00000000
00000000
00000000
00000000
00000000
00001003
00000000
00000010
00000000
00001000
00000000
00000010
00000000
00001000
00000000
00000010
00000000
00010000
00000000
00000000
00001000
00000000
00000000
00001000
00000000
00000000
00010000
00000000
00000000
01000000
00000000
00000000
00100000
00000000
00000000
00020000
00000000
00000000
00000000
00000000
00000000
,
10030000
00000000
01000000
10000000
00000000
00100000
10000000
00000000
,
00010000
00000000
00100000
00010000
00000000
01000000
00001000
00000000
,
00010000
00000000
00000000
01000000
00000000
00000000
00010000
00000000
,
00001000
00000000
00000000
00000100
00000000
00000000
00001000
00000000
,
00010000
00000000
00000000
01000000
00000000
00000000
00010000
00000000
00001000
00000000
00000000
00000100
00000000
00000000
00001000
00000000
,
00010000
00011000
02002000
03003000
,
00011000
00000000
00000000
00001000
00010000
00001000
00100000
00001000
,
00011000
00000000
00000000
00001000
00010000
00001000
00100000
00001000
,
00011000
00000000
00000000
00001000
00010000
00001000
00100000
00101000
,
00000000
00000000
00001000
00000000
00010000
00001000
00100000
00001000
,
00011000
00000000
00101000
00000000
,
00011000
00000000
00010010
00000000
,
00010000
00000000
00001000
00000000
00010000
00000000
00001000
00000000
00010000
00001000
00010000
00001000
00010000
00001000
00010000
00001000
,
00010000
00000000
00000000
00000000
00000000
00000000
00001000
00010000
,
00100000
01000000
00010000
10000000
01000000
00100000
00010000
01000000
,
00100000
00010000
00001000
00010000
00000100
00000010
00000100
00001000
,
00000001
00000100
00001000
00010000
00001000
00010000
01000000
10000000
,
00100000
00010000
00100000
10000000
01000000
00100000
00010000
01000000
,
00100000
00010000
00001000
00010000
00000100
00010000
00001000
00000010
,
00000100
00010000
00001000
00010000
01000000
10000000
00010000
10000000
,
00100000
00010000
00001000
00010000
00001000
00000010
00000001
00001000
,
00000001
00000100
00000010
00001000
00000001
00000010
00001000
00000000
,
00010000
01000000
10000000
00010000
00100000
01000000
10000000
00100000
,
01000000
00010000
10000000
01000000
00010000
00001000
00010000
00001000
,
00000010
00000001
00001000
00000100
00000010
00000001
00001000
00000001
,
00000100
00001000
00010000
01000000
10000000
00010000
,
00100000
01000000
10000000
00100000
00010000
00001000
00000100
00000010
,
00000001
00000010
00000100
00001000
00010000
01000000
10000000
00100000
,
01000000
00010000
00100000
00001000
00010000
00000100
00000010
00000001
,
00002000
00000000
00000000
00003000
,
00000001
00000000
00000010
00000000
00000100
00000000
00001000
00000000
00000100
00001000
00000100
00000000
00010000
00000000
00001000
00010000
,
00001000
01000000
00010000
10000000
01000000
00100000
00010000
00010000
,
00100000
00000000
00001000
00000000
00010000
00001000
00010000
00000000
00000010
00000000
00001000
00000000
00000001
00000000
00000010
00000001
,
00000010
00000000
00000100
00000000
00001000
00000100
00001000
00000000
00000010
00000000
00010000
00000000
00001000
00000000
01000000
00000000
,
00010000
01000000
00010000
00000000
00100000
00000000
01000000
00000000
10000000
00000000
00010000
00000000
01000000
00000000
00100000
01000000
,
00100000
00000000
10000000
00000000
00010000
00000000
00100000
00000000
00001000
00010000
00001000
00000000
00100000
00000000
00001000
00010000
,
00001000
00000000
00010000
00000000
00000100
00000000
00001000
00000000
00000010
00001000
00000010
00000000
00000100
00000000
00000001
00000000
,
00000010
00000001
00000010
00000100
00001000
00000100
00001000
00000000
00000000
00000010
00000000
00000000
,
00010000
00001000
00010000
00000000
00001000
00000000
00010000
00000000
00100000
00000000
01000000
00000000
00010000
00000000
01000000
00000000
,
01100000
00000000
00000000
01001000
00000000
00000000
00000000
00000000
,
00001000
00010000
00001000
00000000
00010000
00000000
00001000
00000000
00000100
00000000
00000010
00000000
00001000
00000000
00000010
00000000
,
00000110
00000000
00000000
00010010
00000000
00000000
00000000
00000000
,
00010000
00000000
00001000
00000000
00010000
00000000
00001000
00000000
00010000
00001000
00010000
00001000
00010000
00000000
00000000
00000000
,
00001000
00000000
01000000
00000000
00100000
00000000
01000000
00000000
00100000
01000000
00100000
01000000
00100000
00000000
00000000
00000000
,
20000000
30200000
00320000
00032000
,
00003200
00000302
00000023
00002030
,
00023000
00000000
00000000
00000000
,
00030000
00000000
00000000
00000000
,
00000000
00000000
00000000
00000000
;
#NOTES:
     dance-double:
     :
     Challenge:
     18:
     :
00000000
00000000
00000000
00000000
,
00000000
00000000
00000000
00000000
,
00000000
00000000
00000000
00000000
,
00000000
00000000
00001000
00010000
00000200
00000000
00000320
00000000
,
00001030
00010000
00000020
00000000
00000230
00000000
00001300
00000000
,
00011000
00000000
00000000
00000000
00101000
00000000
00000000
00000000
00001000
00000000
01000000
00000000
00010000
00100000
00010000
00000000
,
10000000
01000000
10000000
00000000
00010000
01000000
00100000
00000000
10000000
00000000
00100000
00000000
00010000
00000000
00001000
00000000
,
00010000
00000000
00001000
00000000
00010000
00001000
00010000
00000000
00000100
00001000
00000100
00000000
00001000
00000001
00001000
00000001
,
00000020
00000000
00000230
00000000
00002300
00000000
00003001
00000100
,
00002000
00000000
00000000
00000000
00013000
00000000
00001000
00010000
00001000
00000000
00010000
00000000
01000000
00000000
10000000
00000000
,
00200000
00000000
02300000
00000000
03020000
00000000
10030000
00100000
,
00020000
00000000
00000000
00000000
00030000
00001000
00010000
00000100
,
00000010
00000000
00000001
00000100
00000000
00000001
00000010
00000100
,
00001000
00000000
00000010
00000000
00010000
00001000
00100000
00010000
,
01000000
00000000
00100000
00000000
10000000
00000000
01000000
00000000
10000000
00010000
10000000
00010000
10000000
01000000
00100000
00010000
,
00100000
00000000
00000000
00101000
00000000
00000000
00001000
00000000
00011000
00000000
00000000
00000000
00010000
00001000
00010000
00000010
,
00001000
00000001
00000010
00000200
00000000
00010300
00001000
00000100
,
00000010
00001000
00000001
00000010
00000100
00000010
00000001
00001000
,
00000010
00010000
00001000
00000020
00000000
00000130
00010000
00001000
,
00011000
00010100
00000220
00000330
,
00000001
00001000
00000100
00000020
00000000
00000130
00000010
00000001
,
00000100
00000010
00000001
00001000
00000100
00000010
00010000
00001000
,
00000010
00000000
00000100
00000100
00000000
00010000
00010000
00000000
,
00000000
00001010
00010000
00001000
00011000
00000000
00000000
00000000
,
00001000
00010000
00001000
00000000
00100000
00010000
00100000
00000000
01000000
10000000
01000000
00000000
00100000
00010000
10000000
00000000
,
00100000
01000000
00100000
00000000
01000000
00010000
01000000
00000000
00001000
01000000
00001000
00000000
00010000
00001000
00100000
00000000
,
00001000
00010000
00001000
00000000
00010000
00000100
00010000
00000000
00000100
00001000
00000100
00000000
00001000
00000001
00000100
00000000
,
00000010
00000100
00000010
00000000
00001000
00000010
00001000
00000000
00000010
00010000
00000010
00000000
00010000
00001000
00010000
00000000
,
00002000
00023000
02030000
03002000
00023000
00230000
00302000
00023000
,
02030000
03002000
00023000
00230000
00302000
00023000
02030000
03200000
,
00320000
20030000
32000000
03020000
00032000
00003020
00000032
00002003
,
00003200
00000320
00002030
00003002
00000203
00002300
00003020
00000030
,
00010000
00000000
00001000
00000000
02000000
00000000
00000000
00000000
03010000
00000000
00100000
00001000
00010000
00000000
00001000
00000000
,
01000000
00000000
00010000
10000000
00100000
00000000
01000000
00000000
00010000
00000000
00100000
00000000
01100000
00000000
00000000
00000000
,
10010000
00000000
00010000
00000000
02000000
00000000
00000000
00000000
03001000
00000000
00010000
00001000
00010000
00000000
00001000
00000000
,
00000100
00000000
00000010
00001000
00000001
00000000
00000010
00000000
00000100
00000000
00001000
00000100
00001000
00000000
00000000
00000000
,
00010100
00000000
00010000
00000000
00002000
00000000
00000000
00000000
01003000
00000000
00010000
00100000
01000000
00000000
10000000
00000000
,
00010000
00000000
01000000
00100000
01000000
00000000
00100000
00000000
00010000
00000000
00001000
00000000
00000100
00000000
00000000
00000000
,
00000110
00000000
00000100
00000000
00000001
00000000
00000010
00000100
00001000
00000000
00000010
00000000
00010000
00001000
00010000
00000000
,
00001000
00100000
00010000
00000000
10000000
00010000
01000000
00010000
01000000
00000000
00100000
00000000
02000000
00000000
03000000
00000000
,
10010000
00010000
10000000
01000000
10000000
00010000
10000000
00100000
,
10000000
01000000
00100000
00001000
00010000
00001000
00001000
00001000
,
00101000
00100000
00001000
00010000
00001000
01000000
00001000
00010000
,
00001000
00010000
00001000
00010000
00000100
00001000
00000100
00001000
00000010
00000000
00000000
00000000
00001001
00000000
00000000
00000000
,
00001000
00001000
00001000
00000100
00001000
00000001
00001000
00000010
,
00001000
00010000
00001000
00100000
00010000
00001000
00001000
00001000
,
00010000
00001000
00100000
00000000
00010000
00000000
10000000
00100000
01000000
00000000
00010000
00000000
00100000
00000000
01000000
00000000
,
10000000
00010000
00100000
00010000
10000000
00100000
01000000
00010000
10000000
00000000
00000000
00000000
01100000
00000000
00000000
00000000
,
10020000
00000000
00000000
00000000
01030000
00000000
00000000
00000000
20010000
00000000
00000000
00000000
31000000
00000000
00000000
00000000
00100000
00010000
00100000
00010000
00100000
00001000
00100000
00001000
00010000
00000000
00000000
00000000
00001000
00010000
00001000
00010000
,
00000100
00000000
00000000
00000000
00000000
00000000
00000000
00000000
00000000
00000000
00000000
00000000
00001000
00000000
00000000
00000000
00000000
00000000
00000000
00000000
00000000
00000000
00000000
00000000
00000001
00000000
00000000
00000000
00000000
00000000
00000001
00000000
00000000
00000000
00000000
00000000
00001000
00000000
00000000
00000000
00000000
00000000
00001000
00000000
00000000
00000000
00000000
00000000
00000001
00000000
00000000
00000100
00000000
00000000
00000001
00000000
00000000
00000100
00000000
00000000
00000001
00000000
00000000
00000000
00000100
00000000
00000000
00000000
00001000
00000000
00000000
00000000
00010000
00000000
00000000
00000000
00000000
00000000
00000000
00000000
00000000
00000000
00000000
00000000
01000000
00000000
00000000
00000000
00000000
00000000
00000000
00000000
00000000
00000000
00000000
00000000
,
10000000
00000000
00000000
00100000
00000000
00000000
01000000
00000000
00020000
00000000
00100000
00000000
00130000
00000000
00000000
00000000
,
00001000
00000000
00000000
00010000
00000000
00000000
00000100
00000000
00002000
00000000
00000010
00000000
00003010
00000000
00000000
00000000
,
00010000
00000000
00001000
00000000
00010000
00000000
00001000
00000000
00010000
00001000
00010000
00001000
01000000
00010000
01000000
00100000
,
10000000
00000000
00000000
00010000
00000000
00000000
10000000
00000000
00000000
00010000
00000000
00000000
01000000
00000000
00000000
00000000
00100000
00000000
00000000
00000000
00010000
00000000
00000000
00000000
00001000
00000000
00000000
00000000
00000000
00000000
00000000
00000000
00000000
00000000
00000000
00000000
00000010
00000000
00000000
00000000
00000000
00000000
00000001
00000000
00000000
00000010
00000000
00000000
,
00000100
00000000
00000100
00000000
00001000
00000000
00001000
00000000
00000010
00000000
00000010
00000000
00010000
00000000
00010000
00001000
,
01000000
01000000
00010000
00010000
00100000
00100000
01000000
01000000
,
00100000
00000000
10010000
00000000
01000000
00000000
10010000
00000000
00000000
10000000
01000000
00000000
00010000
00001000
00010000
00010000
,
00001000
00010000
00001000
00010000
00001000
00000000
00010000
00000100
00010000
00000100
00010000
00000000
00000100
00000000
00000010
00000000
,
00000001
00000010
00000001
00000010
00000001
00000000
00001000
00000100
00001000
00000100
00001000
00000000
00000100
00000000
00010000
00000000
,
00001000
00010000
00001000
00010000
00001000
00000000
00100000
00001000
00100000
00001000
00100000
00000000
00010000
00000000
01000000
00000000
,
00010000
01000000
00010000
01000000
00010000
00000000
10000000
00100000
10000000
00100000
10000000
00000000
01000000
00000000
00100000
00000000
,
00001000
00000000
00000000
00010000
00000000
00000000
00000100
00000000
00001000
00000000
00000000
00000010
00000000
00000000
00001000
00000000
,
00000100
00000000
00000110
00000000
00001001
00000000
00000220
00000330
,
00001001
00000001
00001000
00001010
00000000
00000000
00010000
00000000
,
00011000
00001000
01000000
01010000
00000000
00000000
00001000
00000000
,
00011000
00001000
00100000
00110000
00000000
00000000
00000000
11000000
,
10000000
00100000
01100000
00000000
00110000
00000000
00011000
00000000
,
00010200
00000000
00000310
00000001
00000201
00000000
00000310
00010000
,
00021000
00000000
00130000
01000000
01200000
00000000
10300000
00010000
,
10010000
01100000
00011000
00000110
,
00001001
00000000
00000001
00000000
00000010
00000000
00000100
00000000
00001000
00000001
00000100
00000000
00000001
00000000
00001000
00000000
,
00000100
00000010
00000001
00000000
00001000
00000000
00000001
00000100
00000010
00000000
00001000
00000000
00000100
00010000
00001000
00000000
,
01000000
00100000
01000000
00000000
00010000
00000000
10000000
00010000
00100000
00000000
01000000
00000000
10000000
01000000
00100000
00000000
,
01000000
00100000
00010000
00000000
00100000
00000000
00001000
00010000
00000100
00000000
00001000
00000000
00000001
00000100
00000010
00000000
,
00000100
00000001
00001000
00000000
00000001
00000000
00000100
00000000
00001000
00000000
00010000
00000000
00100000
00000000
10000000
00000000
,
00010000
10000000
01000000
00000000
00100000
00000000
00001000
00010000
00000100
00000000
00000010
00000000
00000001
00001000
00000010
00000000
,
00000100
00000001
00001000
00000000
00000001
00000000
00000010
00000100
00001000
00000000
00000010
00000000
00010000
00001000
01000000
00000000
,
00100000
10000000
00010000
00000000
01000000
00000000
00001000
00010000
00000100
00000000
00000010
00000000
00000001
00000000
00001000
00000000
,
00000001
00000010
00001000
00010000
01000000
10000000
10100000
00000000
,
11000000
00100000
10010000
00000000
01010000
00000000
01001000
00000000
,
00011000
00000000
00010100
00000000
00001100
00000000
00001010
00000001
,
00000101
00000011
00001100
00010100
,
00010010
00001010
00000110
00000011
00000110
00001010
,
00010010
00000000
00000000
00000000
00010000
00000000
00011000
00000000
00000000
00000000
00001000
00000000
01000000
00010000
01000000
00010000
,
10000000
00000000
00000000
00000000
00010000
00000000
00110000
00000000
00000000
00000000
00100000
00000000
00001000
00010000
00001000
00010000
,
00000100
00000010
00000011
00000001
00001001
00001000
00001010
00000000
,
00002002
00000000
00000000
00000000
00000000
00000000
00000000
00000000
00003003
00000000
00000000
00000000
00000001
00001000
00000001
00001000
,
00000001
00000000
00000010
00000000
00000100
00000000
00001000
00000000
00000001
00000100
00000001
00000000
00000100
00000000
00001000
00000000
,
00010000
00001000
00010000
00000000
00100000
00000000
01000000
00100000
01000000
00000000
00010000
00000000
10000000
01000000
10000000
00000000
,
01000000
00100000
00010000
00000000
10000000
00000000
00100000
00000000
00010000
00100000
00010000
00000000
00001000
00000000
00010000
00001000
,
00010000
00000000
00000100
00000000
00001000
00000001
00000010
00000000
00000100
00001000
00000100
00000000
00010000
00000000
00001000
00000000
,
00100000
00010000
00100000
00000000
01000000
00000000
10000000
00000000
01000000
10000000
01000000
00000000
00010000
01000000
00010000
00000000
,
00001000
00010000
00001000
00000000
00010000
00000000
00001000
00000000
00000010
00000001
00000010
00000000
00000100
00001000
00000100
00000000
,
00010000
00001000
00010000
00001000
00010000
00000000
00001000
00000000
01000000
00000000
00010000
00000000
00100000
00000000
01000000
00000000
,
10000000
00100000
01000000
00010000
00100000
00001000
00010000
00000000
00000000
00001000
00000000
00000000
,
00010000
00001000
00000010
00000000
00000001
00000000
00001000
00000000
00000001
00000100
00001000
00000000
00010000
00000000
00100000
00000000
,
01100000
00000000
00000000
01001000
00000000
00000000
00000000
00000000
,
00001000
00010000
00100000
00000000
10000000
00000000
00010000
00000000
10000000
01000000
00010000
00000000
00001000
00000000
00000010
00000000
,
00000110
00000000
00000000
00010100
00000000
00000000
00000000
00000000
,
00010000
00001000
00010000
00001000
01000000
00001000
01000000
00001000
01000000
00010000
01000000
00010000
01000000
00100000
01000000
00100000
,
10000000
00100000
10000000
00100000
10000000
00010000
10000000
00010000
00100000
00010000
00100000
00010000
00100000
01000000
00100000
01000000
,
10000000
00010000
00100000
01000000
10000000
00100000
10000000
00010000
,
00100000
00001000
00010000
00001000
00000100
00000001
00000010
00000100
,
00002000
00000000
00000000
00000000
,
00003000
00000000
00000000
00000000
,
00000000
00000000
00000000
00000000
;
