
//----- song ID: tokm -----//
#TITLE:匿名M;
#ARTIST:ピノキオピー;
#TITLETRANSLIT:Tokumei M;
#ARTISTTRANSLIT:PinocchioP;
#BANNER:Tokumei M.png;
#BACKGROUND:Tokumei M-bg.png;
#CDTITLE:./CDTitles/DDR WORLD.png;
#MUSIC:Tokumei M.ogg;
#SAMPLESTART:61.267;
#SAMPLELENGTH:15;
#BPMS:0=140,235=186.335,236=140;
#STOPS:235=0.107;
#NOTES:
     dance-single:
     :
     Beginner:
     1:
     :
0000
0000
0000
0000
,
0000
0000
0000
0000
,
0000
0000
0000
0000
,
0000
0000
0000
0000
,
0000
0000
0000
0000
,
0000
0000
0000
0000
,
0001
0000
0000
0000
,
0000
0000
0000
0000
,
1000
0000
0000
0000
,
0000
0000
0000
0000
,
0000
0000
0000
0000
,
0010
0000
0000
0000
,
0000
0000
0000
0000
,
0010
0000
0000
0000
,
0000
0000
0000
0000
,
0001
0000
1000
0000
,
0000
0000
0000
0000
,
0010
0000
0000
0000
,
0000
0000
0000
0000
,
0000
0000
0010
0000
,
0000
0000
0100
0000
,
0000
0000
0010
0000
,
0000
0000
0000
0000
,
0110
0000
0000
0000
,
0000
0000
0000
0000
,
0000
0000
0000
0000
,
0001
0000
0000
0000
,
0000
0000
0000
0000
,
1000
0000
0000
0000
,
0000
0000
0000
0000
,
0100
0000
0000
0000
,
0100
0000
0000
0000
,
0010
0000
0000
0000
,
0010
0000
0000
0000
,
0000
0000
0000
0000
,
0010
0000
0000
0000
,
0001
0000
0000
0000
,
0010
0000
0000
0000
,
0001
0000
0000
0000
,
1000
0000
0000
0000
,
0002
0000
0000
0000
,
0003
0000
0000
0000
,
2000
0000
0000
0000
,
3000
0000
0000
0000
,
1000
0000
0000
0000
,
0010
0000
0000
0000
,
1000
0000
0000
0000
,
0001
0000
0000
0000
,
2000
0000
3000
0000
,
1000
0000
0000
0000
,
0002
0000
0003
0000
,
0001
0000
0000
0000
,
0001
0000
0000
0000
,
0000
0000
0000
0000
,
0000
0000
0000
0000
,
0100
0000
0000
0000
,
0100
0000
0000
0000
,
0000
0000
0000
0000
,
0002
0000
0000
0000
0000
0000
0000
0000
0000
0000
0000
0000
0003
0000
0000
0000
0000
0000
0000
0000
0000
0000
0000
0000
2000
0000
0000
0000
0000
0000
0000
0000
0000
0000
0000
0000
0000
3000
0000
0000
0000
0000
0000
0000
0000
0000
0000
0000
,
0000
0000
0000
0002
,
0000
0000
0000
0000
,
1003
0000
0000
0000
,
0000
0000
0000
0000
;
#NOTES:
     dance-single:
     :
     Easy:
     4:
     :
0000
0000
0000
0000
,
0000
0000
0000
0000
,
0000
0000
0000
0000
,
0000
0000
0000
0000
,
0000
0000
0000
0000
,
0000
0000
0000
0001
,
0002
0000
0003
0000
,
2000
0000
3000
0000
,
0020
0000
0030
0000
,
0100
0000
0110
0000
,
0001
0000
1000
0000
,
0010
0010
0010
0000
,
1000
0000
0001
0000
,
0010
0010
0010
0000
,
0001
0000
1000
0000
,
0002
0003
2000
3000
,
0100
0100
0100
0000
,
0010
0010
0010
0020
,
0030
0000
0100
0000
,
0010
0000
0001
0001
,
0001
0000
1000
0000
,
0010
0000
1000
1000
,
1000
0000
0001
0001
,
0001
0000
0100
0000
,
0001
0000
1000
0000
,
1000
2000
3000
0001
,
0001
0000
0000
0000
,
0001
0000
0000
0000
,
1000
0000
0000
0000
,
1000
0000
0000
0000
,
0010
0000
0010
0000
,
0100
0000
0100
0000
,
0001
1000
0001
1000
,
0001
0000
1001
0000
,
1000
0000
0100
0000
,
1000
1000
1000
0000
,
0002
0000
0003
0000
,
0200
0000
0300
0000
,
0020
0000
0030
0000
,
2000
0000
3000
0000
,
0001
0001
1000
1000
,
0010
0010
0010
0000
,
0200
0000
0300
0000
,
0010
0000
0010
0000
,
2000
0000
3000
0000
,
0200
0000
0300
0000
,
0020
0000
0030
0000
,
0002
0000
0003
0000
,
1000
0000
0001
0000
,
0100
0100
0100
0000
,
0020
0000
0030
0000
,
1000
0000
0001
0000
,
0020
0000
0030
0000
,
0001
0000
1000
1000
,
1000
0000
0001
0100
,
0100
0100
0100
0000
,
0020
0000
0030
0000
,
1000
0000
2000
3000
,
0002
0000
0000
0000
0000
0000
0000
0000
0000
0000
0000
0000
0003
0000
0000
0000
0000
0000
0000
0000
0000
0000
0000
0000
0010
0000
0000
0000
0000
0000
0000
0000
0000
0000
0000
0000
0020
0030
0000
0000
0000
0000
0000
0000
0000
0000
0000
0000
,
0010
0000
0000
2002
,
0000
0000
0000
0000
,
3003
0000
0000
0000
,
0000
0000
0000
0000
;
#NOTES:
     dance-single:
     :
     Medium:
     9:
     :
0000
0000
0000
0000
,
0000
0000
0000
0000
,
0000
0000
0000
0000
,
0000
0000
0000
0000
,
0000
0000
0000
0000
,
0000
0000
0000
0000
0000
0000
0000
0000
0000
0000
0000
0000
0001
0000
0000
1000
,
0001
0000
0000
0000
1000
0000
0000
0001
1000
0000
0000
0000
0001
0000
0000
0000
,
0010
0000
0000
0000
0100
0000
0000
0010
0100
0000
0000
0000
0020
0000
0030
0000
,
0001
0000
0000
1000
0001
0000
0000
1000
0001
0000
0000
0000
1000
0000
0000
0001
,
0100
0000
0000
0010
1000
0000
0000
0001
0100
0000
0000
0000
0002
0000
0003
0000
,
1000
0000
0100
0010
0001
0000
0010
0000
,
0001
0000
0000
0000
1000
0001
0000
1000
0001
0000
0000
0000
0000
0000
0000
0000
,
0001
0000
0100
0010
1000
0000
0010
0000
,
1000
0000
0000
0000
0001
1000
0000
0001
1000
0000
0000
0000
0002
0000
0003
0000
,
0010
0001
0010
0000
0001
0000
1000
0000
,
0001
1000
0002
0003
1000
0001
2000
3000
,
0010
0000
0000
0000
0100
0010
0000
0100
0010
0000
0000
0000
0200
0000
0300
0000
,
0001
0000
0000
0000
1000
0001
0000
1000
0001
0000
0000
0000
2002
0000
0000
0000
,
3003
0001
0100
0000
,
0010
0000
0000
0000
0100
0000
0000
0000
0020
0030
0200
0300
0020
0030
0000
0000
,
0100
0000
0001
0000
1000
0100
1000
0000
,
0100
0000
0000
0010
0000
0000
0001
1000
0001
1000
0000
0000
,
0001
0000
0001
0000
1000
0100
1000
0000
,
1001
0000
0002
0003
,
2000
0000
3000
0000
0010
0000
1000
0010
,
1000
0000
0001
0100
0001
0000
0100
0000
,
0001
0000
0001
0000
,
0001
0010
0001
0000
,
1000
0000
1000
0000
,
1000
0010
1000
0000
,
0001
0001
0001
0001
,
1000
1000
1000
1000
,
0001
0010
0100
1000
,
0001
0100
0010
0000
,
2000
3000
0000
0000
,
2002
0000
0000
0000
0000
0000
0000
0000
3003
0000
0000
0000
0001
0000
0000
1000
,
0001
0000
0000
0000
1000
0000
0000
0001
1000
0000
0000
0000
0001
0000
0000
0000
,
0010
0000
0000
0000
0100
0000
0000
1000
0100
0000
0000
0000
1000
0000
0000
0000
,
0100
0000
0000
0010
0100
0000
0000
0010
0100
0000
0000
0000
0010
0000
0000
0000
,
0001
0000
0000
0000
0100
0000
0000
0001
0100
0000
0000
0000
0002
0000
0003
0000
,
1000
0000
0100
0000
0010
0001
0010
0000
,
0001
0000
0000
0000
0100
0000
0000
0000
0010
0000
0000
0000
1000
0000
0000
0010
,
1000
0000
0000
0000
0010
0000
0000
1000
0010
0000
0000
0000
1000
0000
0000
0001
,
0010
0000
0000
0100
1000
0000
0000
0001
0010
0000
0000
0000
0001
0000
0000
0100
,
0001
0000
0000
0000
0100
0000
0000
0001
0100
0000
0000
0000
0001
0000
0000
0000
,
0010
0000
0000
0000
0100
0000
0000
0010
0100
0000
0000
0000
1000
0000
0000
0000
,
0001
0000
0000
1000
0001
0000
0000
1000
0001
0000
0000
0000
1000
0000
0000
0000
,
0010
0000
0000
0000
0100
0000
0000
0010
0100
0000
0000
0000
0002
0000
0003
0000
,
1000
0100
0010
0001
,
0010
0000
0100
0000
0010
0000
0000
0000
0100
0000
0000
0000
1000
0000
0000
0010
,
1000
0000
0000
0000
0010
0000
0000
1000
0010
0000
0000
0010
1000
0000
0000
0001
,
0100
0000
0000
0001
0010
0000
0000
0100
1000
0000
0000
0000
0100
0000
0000
0010
,
0100
0000
0000
0000
1000
0000
0000
0001
1000
0000
0000
0000
0000
0000
0000
0000
,
0002
0003
0010
0100
,
2000
3000
0001
1000
,
0010
0000
0000
0000
0100
0000
0000
0010
0100
0000
0000
0000
0001
0000
0000
0100
,
0001
0000
0000
0000
1000
0000
0000
0100
1000
0000
0000
0000
0000
0000
0000
0000
,
0001
0000
2000
3000
,
0002
0000
0000
0000
0000
0000
0000
0000
0000
0000
0000
0000
0003
0000
0000
0000
0000
0000
0000
0000
0000
0000
0000
0000
0010
0000
0000
0000
0000
0000
0000
0000
0000
0000
0000
0000
0020
0030
0000
0000
0000
0000
0000
0000
0000
0000
0000
0000
,
0100
0100
0100
2000
,
0000
0000
0000
0000
,
3001
0000
0000
0000
,
0000
0000
0000
0000
;
#NOTES:
     dance-single:
     :
     Hard:
     13:
     :
0000
0000
0000
0000
,
0000
0000
0000
0000
,
0000
0000
0000
0000
,
0000
0000
0000
0000
,
0000
0000
0000
0000
,
0000
0000
0000
0000
0000
0000
0000
0000
0000
0000
0000
0000
0001
0000
0000
0010
,
0100
0000
0000
0000
1000
0000
0000
0010
0100
0000
0000
0000
0001
0000
0100
0000
,
0010
0000
1000
0000
0100
0000
0000
1000
0100
0000
0000
0000
0020
0000
0030
0000
,
0001
0000
0000
0010
0100
0000
0000
0010
0100
0000
0000
0000
1000
0000
0000
0010
,
1000
0000
0000
0001
0100
0000
0000
0010
0100
0000
0000
0000
0210
0000
0300
0000
,
0001
0000
0010
0000
0100
0000
1000
0000
0010
0000
1000
0010
1000
0000
0000
0000
,
0010
0000
1000
0000
0010
0100
0000
0010
0100
0000
0000
0000
0000
0000
0000
0000
,
1000
0000
0010
0000
0100
0000
0001
0000
0010
0000
0001
0010
0001
0000
0000
0000
,
0010
0000
0001
0000
0010
0100
0000
0010
0100
0000
0000
0000
0210
0000
0300
0000
,
1000
0000
0100
0000
0010
0000
0001
0000
0100
0001
0100
0000
0001
0000
1000
0000
,
0001
0001
0002
0003
1000
1000
2000
3000
,
0001
0000
0100
0000
0010
0100
0000
0010
0100
0000
0000
0000
0010
0000
1000
0000
,
0100
0000
0010
0000
0100
0010
0000
0100
0010
0000
0000
0000
0220
0000
0000
0000
,
0330
0000
0100
0000
0100
0000
0000
0010
,
0001
0000
1000
0000
0010
0000
0000
0000
0200
0300
0200
0300
0200
0300
0010
0000
,
1000
0100
0010
0000
0100
0010
0001
1000
,
0001
0000
0000
0000
0000
0000
0100
0000
0000
0001
0000
0000
0100
0000
0000
0000
0000
0000
0000
0000
0000
0000
0000
0000
0001
0000
0000
0000
0100
0000
0000
0000
0010
0000
0000
0000
1000
0000
0000
0000
0000
0000
0000
0000
0000
0010
0000
0000
,
1000
0010
1000
0010
1000
0000
0000
0000
0010
0000
1000
0100
0010
0000
0002
0000
,
1003
0000
2000
3000
,
0002
0000
0003
0000
1000
0000
0010
0100
,
0001
1000
0100
0010
0001
0000
0011
0000
,
0010
0001
2000
3100
1000
0100
0010
0001
,
1000
0010
0001
0010
1000
0002
1003
0001
,
0010
0100
0010
0001
1000
0010
0100
0010
,
1000
0010
0001
0010
1000
0002
0000
0003
,
0001
0001
0010
0010
,
0100
0100
1000
1000
,
0001
0100
0010
1000
0001
0010
0100
1000
,
0000
1001
0000
1000
0010
0100
0001
0000
,
2000
0000
3002
0000
0003
0100
0001
0100
,
0010
0000
1000
0000
0100
0010
0000
0100
0010
0000
0000
0000
0001
0000
0000
0100
,
0010
0000
0000
0000
1000
0000
0000
0100
0010
0000
0000
0000
0001
0000
0100
0000
,
0010
0000
1000
0000
0100
0000
0000
0010
0100
0000
0000
0000
0010
0000
0100
0000
,
1000
0000
0000
0001
0100
0000
0000
0010
1000
0000
0000
0000
0001
1000
0001
0000
,
1000
0000
0100
0000
0010
0000
0000
0001
0010
0000
0000
0000
0002
0000
0003
0000
,
1000
0010
0100
0001
1000
0100
0001
0100
,
1000
0000
0001
0000
0100
0000
1000
0000
0200
0000
0300
0000
0010
0000
0000
0100
,
0010
0000
0000
0000
0100
0000
0000
0010
0100
0000
0000
0000
0001
0000
0000
0100
,
0010
0000
0000
1000
0100
0000
0000
0010
0001
0000
0000
0000
1000
0000
0000
0100
,
1000
0000
0000
0000
0001
0000
0000
0100
0001
0000
0000
0000
1000
0000
0100
0000
,
0010
0000
0001
0000
0100
0000
0000
0001
0100
0000
0000
0000
0010
0000
1000
0000
,
0100
0000
0000
1000
0010
0000
0000
0100
0001
0000
0000
0000
1000
0001
1000
0000
,
0001
0000
0010
0000
0100
0000
0000
1000
0100
0000
0000
0000
0020
0000
0030
0000
,
0001
0010
0100
1000
0001
0100
1000
0100
,
0001
0000
1000
0000
0100
0000
0001
0000
0200
0000
0300
0000
0010
0000
0000
0100
,
0010
0000
0000
0000
0100
0000
0000
0010
0100
0000
0000
0100
1000
0000
0000
1000
,
0010
0000
0000
0010
0100
0000
0000
0100
0001
0000
0000
0000
1000
0000
0000
0100
,
1000
0000
0000
0000
0001
0000
0000
0100
0001
0000
0000
0000
0000
0000
0000
0000
,
2000
0000
3000
0000
0001
0010
0100
1000
,
0002
0000
0003
0000
2000
3000
0001
0100
,
0010
0000
1000
0000
0100
0000
0000
0010
0100
0000
0000
0000
0010
0000
0000
0001
,
1000
0000
0000
0000
0010
0000
0000
1000
0001
0000
0000
0000
0000
0000
0000
0000
,
2000
3000
2000
3000
,
0002
0000
0000
0000
0000
0000
0000
0000
0000
0000
0000
0000
0003
0000
0000
0000
0000
0000
0000
0000
0000
0000
0000
0000
0100
0000
0000
0000
0000
0000
0000
0000
0000
0000
0000
0000
2002
3003
0000
0000
0000
0000
0000
0000
0000
0000
0000
0000
,
1000
0001
1000
0010
0100
0000
0120
0000
,
0000
0000
0000
0000
,
0130
0000
0000
0000
,
0000
0000
0000
0000
;
#NOTES:
     dance-double:
     :
     Easy:
     4:
     :
00000000
00000000
00000000
00000000
,
00000000
00000000
00000000
00000000
,
00000000
00000000
00000000
00000000
,
00000000
00000000
00000000
00000000
,
00000000
00000000
00000000
00000000
,
00000000
00000000
00000000
00000000
,
00002000
00000000
00003000
00000000
,
00020000
00000000
00030000
00000000
,
00000200
00000000
00000300
00000000
,
00001000
00000000
00000110
00000000
,
00000001
00000000
00001000
00000000
,
00000020
00000000
00000030
00000000
,
00001000
00000000
00000100
00000000
,
00020000
00000000
00030000
00000000
,
00001000
00000000
00100000
00000000
,
00020000
00030000
20000000
30000000
,
02000000
03000000
01000000
00000000
,
00200000
00300000
00100000
02000000
,
03000000
00000000
00000000
00000000
,
01000000
00000000
00100000
00100000
,
00100000
00000000
00010000
00000000
,
00100000
00000000
00002000
00003000
,
00001000
00000000
00010000
00010000
,
00010000
00000000
00000100
00000000
,
00001000
00000000
00000001
00000000
,
00001000
00002000
00003000
00000000
,
00000001
00000000
00000000
00000000
,
00000100
00000000
00000000
00000000
,
00001000
00000000
00000000
00000000
,
00010000
00000000
00000000
00000000
,
00001000
00000000
00001000
00000000
,
00010000
00000000
00010000
00000000
,
00001000
00100000
00010000
10000000
,
00010000
00000000
10010000
00000000
,
20000000
00000000
30000000
00000000
,
02000000
03000000
01000000
00000000
,
00200000
00000000
00300000
00000000
,
00020000
00000000
00030000
00000000
,
02000000
00000000
03000000
00000000
,
00002000
00000000
00003000
00000000
,
00020000
00030000
00000020
00000030
,
00001000
00001000
00001000
00000000
,
00000002
00000000
00000003
00000000
,
00000010
00000000
00000100
00000000
,
00002000
00000000
00003000
00000000
,
00000200
00000000
00000300
00000000
,
00020000
00000000
00030000
00000000
,
00002000
00000000
00003000
00000000
,
01000000
00000000
00010000
00000000
,
01000000
01000000
01000000
00000000
,
00200000
00000000
00300000
00000000
,
10000000
00000000
01000000
00000000
,
00020000
00000000
00030000
00000000
,
00001000
00000000
00010000
00000000
,
00000100
00000000
00001000
00000000
,
00000200
00000300
00000100
00000000
,
00000020
00000030
00000010
00000000
,
00000001
00000000
00002000
00003000
,
00000002
00000000
00000000
00000000
00000000
00000000
00000000
00000000
00000000
00000000
00000000
00000000
00000003
00000000
00000000
00000000
00000000
00000000
00000000
00000000
00000000
00000000
00000000
00000000
00000100
00000000
00000000
00000000
00000000
00000000
00000000
00000000
00000000
00000000
00000000
00000000
00000200
00000300
00000000
00000000
00000000
00000000
00000000
00000000
00000000
00000000
00000000
00000000
,
00000100
00000000
00000000
00000220
,
00000000
00000000
00000000
00000000
,
00000330
00000000
00000000
00000000
,
00000000
00000000
00000000
00000000
;
#NOTES:
     dance-double:
     :
     Medium:
     9:
     :
00000000
00000000
00000000
00000000
,
00000000
00000000
00000000
00000000
,
00000000
00000000
00000000
00000000
,
00000000
00000000
00000000
00000000
,
00000000
00000000
00000000
00000000
,
00000000
00000000
00000000
00000000
00000000
00000000
00000000
00000000
00000000
00000000
00000000
00000000
00001000
00000000
00000000
00010000
,
00001000
00000000
00000000
00000000
00100000
00000000
00000000
00010000
00100000
00000000
00000000
00000000
00010000
00000000
00000000
00000000
,
00100000
00000000
00000000
00000000
01000000
00000000
00000000
00100000
01000000
00000000
00000000
00000000
00200000
00000000
00300000
00000000
,
00010000
00000000
00000000
10000000
00010000
00000000
00000000
10000000
00010000
00000000
00000000
00000000
01000000
00000000
00000000
00001000
,
01000000
00000000
00000000
00001000
00010000
00000000
00000000
00000010
00010000
00000000
00000000
00000000
00002000
00000000
00003000
00000000
,
00010000
00000100
00001000
00000001
,
00000100
00000000
00000000
00000000
00000010
00000100
00000000
00000010
00000100
00000000
00000000
00000000
00000000
00000000
00000000
00000000
,
00000010
00000100
00001000
00010000
,
00001000
00000000
00000000
00000000
00010000
00001000
00000000
00010000
00001000
00000000
00000000
00000000
00020000
00000000
00030000
00000000
,
00001000
00010000
01000000
10000000
,
00010000
10000000
00020000
00030000
10000000
00010000
20000000
30000000
,
01000000
00010000
00001000
00000000
,
00010000
00001000
00000100
00000002
,
00000003
00001000
00000001
00000000
,
00000100
00000000
00000000
00000000
00000001
00000000
00000000
00000000
00000200
00000300
00000020
00000030
00000200
00000300
00000000
00000000
,
00000010
00000100
00000001
00000010
,
00001000
00000000
00000000
00010000
00000000
00000000
00001000
00010000
00001000
00010000
00000000
00000000
,
00001000
00010000
01000000
00100000
,
01100000
00000000
00200000
00300000
,
02000000
03000000
10000000
01000000
,
00010000
00001000
00001000
00010000
,
00010000
00000000
00010000
00000000
,
00000100
00001000
00000100
00000000
,
00001000
00000000
00000001
00000000
,
00000100
00000001
00000100
00000000
,
00000010
00000010
00000010
00000010
,
00001000
00001000
00001000
00001000
,
00000010
00010000
00001000
01000000
,
00010000
10000000
01000000
00000000
,
00200000
00300000
00000000
00000000
,
02200000
00000000
00000000
00000000
00000000
00000000
00000000
00000000
03300000
00000000
00000000
00000000
00100000
00000000
00000000
01000000
,
00100000
00000000
00000000
00000000
00010000
00000000
00000000
10000000
00010000
00000000
00000000
00000000
10000000
00000000
00000000
00000000
,
00100000
00000000
00000000
00000000
00010000
00000000
00000000
00001000
00010000
00000000
00000000
00000000
00000100
00000000
00000000
00000000
,
00001000
00000000
00000000
00000100
00000010
00000000
00000000
00000100
00000010
00000000
00000000
00000000
00000001
00000000
00000000
00000000
,
00000100
00000000
00000000
00000000
00000010
00000000
00000000
00000100
00000010
00000000
00000000
00000000
00002000
00000000
00003000
00000000
,
00000001
00000100
00001000
00010000
,
00001000
00000000
00000000
00000000
00010000
00000000
00000000
00000000
01000000
00000000
00000000
00000000
10000000
00000000
00000000
01000000
,
10000000
00000000
00000000
00000000
00010000
00000000
00000000
01000000
00010000
00000000
00000000
00000000
10000000
00000000
00000000
10000000
,
01000000
00000000
00000000
01000000
00100000
00000000
00000000
00100000
00010000
00000000
00000000
00000000
00100000
00000000
00000000
00001000
,
00010000
00000000
00000000
00000000
00000010
00000000
00000000
00010000
00001000
00000000
00000000
00000000
00010000
00000000
00000000
00000000
,
00001000
00000000
00000000
00000000
00000100
00000000
00000000
00000010
00000100
00000000
00000000
00000000
00000001
00000000
00000000
00000000
,
00000010
00000000
00000000
00000100
00000010
00000000
00000000
00000100
00000010
00000000
00000000
00000000
00000100
00000000
00000000
00000000
,
00001000
00000000
00000000
00000000
00000001
00000000
00000000
00001000
00000001
00000000
00000000
00000000
00002000
00000000
00003000
00000000
,
00000001
00000010
00001000
00010000
,
00001000
00000000
00000000
00000000
00010000
00000000
00000000
00000000
00100000
00000000
00000000
00000000
10000000
00000000
00000000
00100000
,
10000000
00000000
00000000
00000000
00010000
00000000
00000000
00100000
00010000
00000000
00000000
00010000
00100000
00000000
00000000
00001000
,
00010000
00000000
00000000
00000100
00001000
00000000
00000000
00000001
00000100
00000000
00000000
00000000
00000010
00000000
00000000
00000100
,
00000010
00000000
00000000
00000000
00001000
00000000
00000000
00000001
00001000
00000000
00000000
00000000
00000000
00000000
00000000
00000000
,
00000002
00000003
00000100
00000010
,
00002000
00003000
00000010
00010000
,
00001000
00000000
00000000
00000000
00100000
00000000
00000000
00010000
00100000
00000000
00000000
00000000
01000000
00000000
00000000
00100000
,
01000000
00000000
00000000
00000000
10000000
00000000
00000000
01000000
10000000
00000000
00000000
00000000
00000000
00000000
00000000
00000000
,
00010000
00000000
20000000
30000000
,
00020000
00000000
00000000
00000000
00000000
00000000
00000000
00000000
00000000
00000000
00000000
00000000
00030000
00000000
00000000
00000000
00000000
00000000
00000000
00000000
00000000
00000000
00000000
00000000
00100000
00000000
00000000
00000000
00000000
00000000
00000000
00000000
00000000
00000000
00000000
00000000
00200000
00300000
00000000
00000000
00000000
00000000
00000000
00000000
00000000
00000000
00000000
00000000
,
01000000
01000000
00010000
00002000
,
00000000
00000000
00000000
00000000
,
00013000
00000000
00000000
00000000
,
00000000
00000000
00000000
00000000
;
#NOTES:
     dance-double:
     :
     Hard:
     13:
     :
00000000
00000000
00000000
00000000
,
00000000
00000000
00000000
00000000
,
00000000
00000000
00000000
00000000
,
00000000
00000000
00000000
00000000
,
00000000
00000000
00000000
00000000
,
00000000
00000000
00000000
00000000
00000000
00000000
00000000
00000000
00000000
00000000
00000000
00000000
00001000
00000000
00000000
00100000
,
00010000
00000000
00000000
00000000
00100000
00000000
00000000
00001000
00010000
00000000
00000000
00000000
00001000
00000000
00010000
00000000
,
00000100
00000000
00001000
00000000
00000100
00000000
00000000
00000010
00000100
00000000
00000000
00000000
00000020
00000000
00000030
00000000
,
00000001
00000000
00000000
00000100
00000010
00000000
00000000
00000100
00000010
00000000
00000000
00000000
00000100
00000000
00000000
00000001
,
00000100
00000000
00000000
00000100
00001000
00000000
00000000
00001000
00010000
00000000
00000000
00000000
00022000
00000000
00033000
00000000
,
00001000
00010000
01000000
10000000
00010000
10000000
00010000
00000000
,
10000000
00000000
01000000
00000000
00010000
00001000
00000000
00010000
00001000
00000000
00000000
00000000
00000000
00000000
00000000
00000000
,
00010000
00001000
00000100
00000001
00001000
00000001
00001000
00000000
,
00000001
00000000
00000100
00000000
00001000
00010000
00000000
00001000
00010000
00000000
00000000
00000000
00022000
00000000
00033000
00000000
,
00001000
00010000
00100000
01000000
00010000
00100000
01000000
10000000
,
00010000
00010000
00020000
00030000
10000000
10000000
20000000
30000000
,
00100000
00000000
10000000
00000000
00010000
01000000
00000000
00001000
00010000
00000000
00000000
00000000
00001000
00000000
00010000
00000000
,
00000100
00000000
00001000
00000000
00000001
00000100
00000000
00000010
00001000
00000000
00000000
00000000
00000220
00000000
00000000
00000000
,
00000330
00000000
00000100
00000000
00000100
00000000
00000000
00000001
,
00000100
00000000
00000010
00000000
00001000
00000000
00000000
00000000
00000020
00000030
00000020
00000030
00000020
00000030
00001000
00000000
,
00000010
00010000
00001000
00000000
00010000
00001000
01000000
00010000
,
10000000
00000000
00000000
00000000
00000000
00000000
01000000
00000000
00000000
00000000
00000000
00000000
00100000
00000000
00000000
00000000
00000000
00000000
00000000
00000000
00000000
00000000
00000000
00000000
00010000
00000000
00000000
00000000
00100000
00000000
00000000
00000000
01000000
00000000
00000000
00000000
10000000
00000000
00000000
00000000
00000000
00000000
00000000
00000000
00000000
01000000
00000000
00000000
,
00100000
01000000
00100000
01000000
00100000
00000000
00000000
00000000
00010000
00000000
00100000
00000000
00001000
00000000
00010000
00000000
,
00000100
00000000
00002000
00003000
,
00000002
00000000
00000003
00000000
00000001
00000000
00000010
00000001
,
00000100
00001000
00010000
00001000
00010000
00000000
00011000
00000000
,
00001000
00010000
00200000
10300000
00100000
10000000
01000000
00010000
,
00001000
00010000
00001000
00000100
00000001
00002000
00003001
00001000
,
00000001
00000010
00001000
00010000
00001000
00010000
00100000
10000000
,
00010000
00100000
01000000
10000000
00010000
20000000
00000000
30000000
,
10000000
10000000
00100000
00100000
,
01000000
01000000
00010000
00010000
,
01000000
00100000
00010000
00001000
00010000
00001000
00000100
00000010
,
00000000
00000110
00000000
00000100
00000010
00001000
00000001
00000000
,
00002000
00000000
00003002
00000000
00000003
00000010
00000001
00000010
,
00001000
00000000
00010000
00000000
00001000
00010000
00000000
00001000
00010000
00000000
00000000
00000000
00001000
00000000
00000000
00100000
,
00010000
00000000
00000000
00000000
00100000
00000000
00000000
01000000
10000000
00000000
00000000
00000000
00010000
00000000
01000000
00000000
,
10000000
00000000
01000000
00000000
00010000
00000000
00000000
10000000
00010000
00000000
00000000
00000000
10000000
00000000
01000000
00000000
,
00100000
00000000
00000000
00010000
00100000
00000000
00000000
00001000
00010000
00000000
00000000
00000000
00001000
00000000
00010000
00000000
,
00001000
00000000
00000100
00000000
00000010
00000000
00000000
00000100
00000010
00000000
00000000
00000000
00000200
00000000
00000300
00000000
,
00000001
00000100
00001000
00000100
00000001
00000010
00001000
00010000
,
00001000
00000000
00010000
00000000
00100000
00000000
10000000
00000000
02000000
00000000
03000000
00000000
10000000
00000000
00000000
01000000
,
00100000
00000000
00000000
00000000
00010000
00000000
00000000
01000000
00100000
00000000
00000000
00000000
01000000
00000000
00000000
00010000
,
01000000
00000000
00000000
00001000
00010000
00000000
00000000
00000010
00001000
00000000
00000000
00000000
00000001
00000000
00000000
00000010
,
00000100
00000000
00000000
00000000
00001000
00000000
00000000
00000010
00000100
00000000
00000000
00000000
00000001
00000000
00000100
00000000
,
00001000
00000000
00000100
00000000
00000001
00000000
00000000
00001000
00000001
00000000
00000000
00000000
00001000
00000000
00000100
00000000
,
00010000
00000000
00000000
00001000
00010000
00000000
00000000
00001000
00010000
00000000
00000000
00000000
00001000
00000000
00010000
00000000
,
01000000
00000000
10000000
00000000
01000000
00000000
00000000
00100000
01000000
00000000
00000000
00000000
20000000
00000000
30000000
00000000
,
10000000
01000000
00010000
01000000
10000000
00100000
00010000
00001000
,
00010000
00000000
00001000
00000000
00000010
00000000
00000001
00000000
00000200
00000000
00000300
00000000
00000001
00000000
00000000
00000100
,
00000010
00000000
00000000
00000000
00001000
00000000
00000000
00000100
00000010
00000000
00000000
00000010
00000001
00000000
00000000
00000001
,
00000100
00000000
00000000
00000100
00001000
00000000
00000000
00001000
00010000
00000000
00000000
00000000
00001000
00000000
00000000
00100000
,
00010000
00000000
00000000
00000000
00100000
00000000
00000000
00001000
00010000
00000000
00000000
00000000
00000000
00000000
00000000
00000000
,
00002000
00000000
00003000
00000000
00010000
00001000
00100000
00010000
,
00200000
00000000
00300000
00000000
02000000
03000000
10000000
01000000
,
00010000
00000000
00001000
00000000
00010000
00000000
00000000
00001000
00010000
00000000
00000000
00000000
00001000
00000000
00000000
00100000
,
00010000
00000000
00000000
00000000
00100000
00000000
00000000
00001000
00010000
00000000
00000000
00000000
00000000
00000000
00000000
00000000
,
00000020
00000030
00002000
00003000
,
00000002
00000000
00000000
00000000
00000000
00000000
00000000
00000000
00000000
00000000
00000000
00000000
00000003
00000000
00000000
00000000
00000000
00000000
00000000
00000000
00000000
00000000
00000000
00000000
00000100
00000000
00000000
00000000
00000000
00000000
00000000
00000000
00000000
00000000
00000000
00000000
00002002
00003003
00000000
00000000
00000000
00000000
00000000
00000000
00000000
00000000
00000000
00000000
,
00000001
00000100
00001000
00010000
01000000
00000000
00200000
00000000
,
00000000
00000000
00000000
00000000
,
01300000
00000000
00000000
00000000
,
00000000
00000000
00000000
00000000
;
