
//----- song ID: tpp2 -----//
#TITLE:Timepiece phase Ⅱ;
#ARTIST:佐々木博史;
#TITLETRANSLIT:Timepiece phase II;
#ARTISTTRANSLIT:Hirofumi Sasaki;
#BANNER:Timepiece phase II.png;
#BACKGROUND:Timepiece phase II-bg.png;
#CDTITLE:./CDTitles/GF 10thMIX & dm 9thMIX.png;
#MUSIC:Timepiece phase II.ogg;
#SAMPLESTART:41;
#SAMPLELENGTH:15;
#DISPLAYBPM:31:287;
#BPMS:0=287.081,4=286.999,470=269.058,472=262.009,474=257.511,476=240.964,477=213.523,478=175.953,479=152.672,480=91.004,496=90.997;
#NOTES:
     dance-single:
     :
     Beginner:
     3:
     :
0000
0000
0000
0000
,
0000
0000
0000
0000
,
0000
0000
0000
0000
,
0000
0000
0000
0000
,
0000
0000
0000
0000
,
0000
0000
0000
0000
,
0000
0000
0000
0000
,
0000
0000
0000
0000
,
0000
0000
0000
0000
,
0000
0000
0000
0000
,
0001
0000
0000
0000
,
0000
0000
0000
0000
,
0001
0000
0000
0000
,
0000
0000
0000
0000
,
0001
0000
0000
0000
,
0000
0000
0000
0000
,
0000
0000
0000
0000
,
0001
0000
0000
0000
,
0000
0000
0000
0000
,
0001
0000
0000
0000
,
0000
0000
0000
0000
,
0010
0000
0000
0000
,
0010
0000
0000
0000
,
0010
0000
0000
0000
,
0000
0000
0000
0000
,
1000
0000
0000
0000
,
0000
0000
0000
0000
,
1000
0000
0000
0000
,
0000
0000
0000
0000
,
0010
0000
0000
0000
,
0010
0000
0000
0000
,
0010
0000
0000
0000
,
0000
0000
0000
0000
,
0001
0000
0000
0000
,
0001
0000
0000
0000
,
0100
0000
0000
0000
,
0000
0000
0000
0000
,
0010
0000
0000
0000
,
0000
0000
0000
0000
,
0010
0000
0000
0000
,
0000
0000
0000
0000
,
1000
0000
0000
0000
,
1000
0000
0000
0000
,
0100
0000
0000
0000
,
0000
0000
0000
0000
,
0010
0000
0000
0000
,
0000
0000
0000
0000
,
0010
0000
0000
0000
,
0000
0000
0000
0000
,
0002
0000
0000
0000
,
0000
0000
0000
0000
,
0003
0000
0000
0000
,
0001
0000
0000
0000
,
0010
0000
0000
0000
,
0010
0000
0000
0000
,
0010
0000
0000
0000
,
0000
0000
0000
0000
,
2000
0000
0000
0000
,
0000
0000
0000
0000
,
3000
0000
0000
0000
,
1000
0000
0000
0000
,
0010
0000
0000
0000
,
0010
0000
0000
0000
,
0010
0000
0000
0000
,
0000
0000
0000
0000
,
1001
0000
0000
0000
,
0000
0000
0000
0000
,
1001
0000
0000
0000
,
0000
0000
0000
0000
,
1001
0000
0000
0000
,
0000
0000
0000
0000
,
0000
0000
0000
0000
,
0000
0000
0000
0000
,
1001
0000
0000
0000
,
0000
0000
0000
0000
,
1001
0000
0000
0000
,
0000
0000
0000
0000
,
1001
0000
0000
0000
,
0000
0000
0000
0000
,
0000
0000
0000
0000
,
0000
0000
0000
0000
,
0001
0000
0000
0000
,
0100
0000
0000
0000
,
0001
0000
0000
0000
,
0000
0000
0000
0000
,
0001
0000
0000
0000
,
0001
0000
0000
0000
,
0010
0000
0000
0000
,
0000
0000
0000
0000
,
0010
0000
0000
0000
,
1000
0000
0000
0000
,
0010
0000
0000
0000
,
0000
0000
0000
0000
,
1000
0000
0000
0000
,
1000
0000
0000
0000
,
0010
0000
0000
0000
,
0000
0000
0000
0000
,
1000
0000
0000
0000
,
1000
0000
0000
0000
,
0010
0000
0000
0000
,
1000
0000
0000
0000
,
0010
0000
0000
0000
,
0000
0000
0000
0000
,
0000
0000
0000
0000
,
0000
0000
0000
0000
,
0001
0000
0000
0000
,
0001
0000
0000
0000
,
0010
0000
0000
0000
,
0001
0000
0000
0000
,
0010
0000
0000
0000
,
0000
0000
0000
0000
,
0000
0000
0000
0000
,
0000
0000
0000
0000
,
1001
0000
0000
0000
,
0000
0000
0000
0000
,
1001
0000
0000
0000
,
0000
0000
0000
0000
,
0002
0000
0000
0000
,
0003
0000
0000
0000
,
2000
0000
0000
0000
,
3000
0000
0000
0000
,
0000
0000
0000
0000
;
#NOTES:
     dance-single:
     :
     Easy:
     6:
     :
0000
0000
0000
0000
,
0000
0000
0000
0000
,
0000
0000
0000
0000
,
0000
0000
0000
0000
,
0000
0000
0000
0000
,
0000
0000
0000
0000
,
0000
0000
0000
0000
,
0000
0000
0000
0000
,
0000
0000
0000
0000
,
0000
0000
0000
0000
,
0001
0000
0000
0000
,
0001
0000
0000
0000
,
1000
0000
0000
0000
,
1000
0000
0000
0000
,
2002
0000
0000
0000
,
0000
0000
0000
0000
,
3003
0000
0000
0000
,
1000
0000
0000
0000
,
0000
0000
1000
0000
,
0100
0000
0000
0000
,
0010
0000
0000
0000
,
0000
0000
0001
0000
,
1000
0000
0001
0000
,
1000
0000
0000
0000
,
0000
0000
0000
0000
,
0001
0000
0000
0000
,
0000
0000
0001
0000
,
0100
0000
0000
0000
,
0010
0000
0000
0000
,
0000
0000
1000
0000
,
0001
0000
0000
0000
,
1001
0000
0000
0000
,
0110
0000
0000
0000
,
1000
0000
0010
0000
,
1000
0000
0010
0000
,
0100
0000
0001
0000
,
0100
0000
0000
0000
,
0001
0000
1000
0000
,
0001
0000
0000
0000
,
2002
0000
0000
0000
,
3003
0000
0000
0000
,
0001
0000
0010
0000
,
0001
0000
0010
0000
,
0100
0000
1000
0000
,
0100
0000
0000
0000
,
1000
0000
0001
0000
,
1000
0000
0000
0000
,
0100
0000
0010
0000
,
0100
0000
0000
0000
,
1000
0000
0000
0000
,
1000
0000
0000
0000
,
0001
0000
0000
0000
,
0001
0000
0000
0000
,
0100
0000
0010
0000
,
0100
0000
0000
0000
,
0010
0000
0100
0000
,
0010
0000
0000
0000
,
1000
0000
0000
0000
,
0010
0000
0000
0000
,
0100
0000
0000
0000
,
0001
0000
0000
0000
,
1000
0000
0100
0000
,
0010
0000
0000
0000
,
0001
0000
1000
0000
,
0001
0000
0000
0000
,
1001
0000
0000
0000
,
0000
0000
0010
0000
,
0010
0000
0000
0000
,
0000
0000
0100
0000
,
0100
0000
0000
0000
,
0110
0000
0000
0000
,
1001
0000
0000
0000
,
1000
0000
0001
0000
,
1001
0000
0000
0000
,
0000
0000
1000
0000
,
0100
0000
0000
0000
,
0000
0000
0010
0000
,
0001
0000
0000
0000
,
1001
0000
0000
0000
,
0001
0000
1000
0000
,
0001
0000
0000
0000
,
1000
0000
1000
0000
,
0100
0000
0100
0000
,
0010
0000
0010
0000
,
0001
0000
0000
0000
,
0001
0000
1000
0000
,
0001
0000
0100
0000
,
0001
0000
1000
0000
,
0001
0000
0000
0000
,
0001
0000
0001
0000
,
0100
0000
0100
0000
,
0010
0000
0010
0000
,
1000
0000
0000
0000
,
1000
0000
0001
0000
,
1000
0000
0100
0000
,
1000
0000
0001
0000
,
1000
0000
0000
0000
,
1001
0000
0000
0000
,
0110
0000
0000
0000
,
0001
0000
0010
0000
,
0100
0000
1000
0000
,
0010
0000
0000
0000
,
0110
0000
0000
0000
,
1000
0000
0001
0000
,
1000
0000
0000
0000
,
0020
0000
0000
0000
,
0030
0000
0000
0000
,
0200
0000
0000
0000
,
0300
0000
0000
0000
,
0110
0000
0000
0000
,
1001
0000
0000
0000
,
1000
0100
0010
0000
,
0001
0000
0000
0000
,
2000
0000
0000
0000
,
3000
0000
0000
0000
,
0002
0000
0000
0000
,
0003
0000
0000
0000
,
0100
0000
0100
0000
,
0010
0000
0010
0000
,
0110
0000
0000
0000
,
2002
0000
0000
0000
,
0000
0000
0000
0000
,
3003
0000
0000
0000
,
0000
0000
0000
0000
;
#NOTES:
     dance-single:
     :
     Medium:
     11:
     :
0000
0000
0000
0000
,
0000
0000
0000
0000
,
0000
0000
0000
0000
,
0000
0000
0000
0000
,
0000
0000
0000
0000
,
0000
0000
0000
0000
,
0000
0000
0000
0000
,
0000
0000
0000
0000
,
0000
0000
0000
0000
,
0000
0000
0000
0000
,
0001
0000
0001
0000
,
1000
0000
0000
0000
,
1000
0000
1000
0000
,
0001
0000
0000
0000
,
2002
0000
0000
0000
,
0000
0000
0000
0000
,
0000
0000
3003
0000
,
2000
0000
0000
0000
,
0000
0000
3200
0000
,
0320
0000
0000
0000
,
0032
0000
0000
0000
,
0003
0000
0002
0000
,
2003
0000
3200
0000
,
2300
0000
0000
0000
,
0000
0000
3000
0000
,
0002
0000
0000
0000
,
0000
0000
0203
0000
,
0320
0000
0000
0000
,
2030
0000
0000
0000
,
3000
0000
2000
0000
,
3200
0000
0302
0000
,
0203
0000
1300
0000
,
2000
0000
3001
0000
,
1000
0010
0100
0001
,
1000
0100
0010
0001
,
1000
0100
1000
0100
,
0010
0000
0110
0000
,
0001
0100
0010
0100
,
0001
1000
0001
1000
,
0002
0000
0000
0000
,
0003
0001
0001
0000
,
1000
0010
1000
0010
,
0100
0001
0100
0000
,
0001
0010
0001
0010
,
0100
1000
0100
0000
,
1000
0001
0010
0000
,
0001
1000
0010
0000
,
1010
0000
0101
0000
,
0001
1000
0001
1000
,
0002
0000
0000
0000
,
0000
0000
0023
0000
,
0230
0000
0000
0000
,
2300
0000
0000
0000
,
3000
0000
2000
0000
,
3002
0000
0023
0000
,
0032
0000
0000
0000
,
2000
0000
3003
0000
,
2000
0000
0000
0000
,
0000
0000
3020
0000
,
0230
0000
0000
0000
,
0000
0000
0300
0000
,
0002
0000
0023
0000
,
2030
0000
3020
0000
,
0031
0010
0001
0010
,
0100
1000
0100
0000
,
0110
0000
0000
0000
,
0000
0000
0001
0000
,
1001
0000
0000
0000
,
0000
0000
1000
0000
,
1010
0000
0000
0000
,
0101
0000
0000
0000
,
1001
0000
0000
0000
,
1000
0001
1000
0000
,
1001
0000
0000
0000
,
0000
0000
0010
0000
,
1001
0000
0000
0000
,
0000
0000
0001
0000
,
0110
0000
0000
0000
,
1001
0000
0000
0000
,
1000
0000
0100
0010
,
0002
0000
0000
0000
,
1003
0010
1000
0010
,
1000
0100
1000
0000
,
0001
0010
0001
0010
,
0001
0100
0001
0000
,
1000
0000
0100
0000
,
0001
0000
0100
1000
,
0000
1000
0001
0000
,
1001
0000
0110
0000
,
0001
0100
0001
0100
,
0010
1000
0010
0000
,
1000
0100
1000
0100
,
0010
0001
0010
0000
,
0001
1000
0100
0010
,
0100
1000
0001
0000
,
1000
0010
1000
0010
,
0100
0000
0001
0000
,
2002
0000
0000
0000
,
3003
1000
0010
0100
,
0001
0010
0001
0100
,
0000
0100
0001
1000
,
0100
0000
0110
0000
,
0001
0000
1001
0000
,
1000
0010
1000
0001
,
0010
0000
0001
0100
,
0010
0000
0110
0000
,
0100
0010
1000
0010
,
0200
0000
0000
0000
,
0020
0000
0330
0000
,
1001
0000
1000
0100
,
0001
0100
0000
0000
,
1000
0010
0001
0000
,
0020
0000
0030
0000
,
1000
0000
1010
0000
,
1000
0000
1100
0000
,
0001
0000
0011
0000
,
0001
0000
0101
0000
,
1000
0100
0010
0000
,
0001
0100
0010
0000
,
1010
0000
0011
0000
,
2002
0000
0000
0000
,
0000
0000
0000
0000
,
3003
0000
0000
0000
,
0000
0000
0000
0000
;
#NOTES:
     dance-single:
     :
     Hard:
     15:
     :
0000
0000
0000
0000
,
0000
0000
0000
0000
,
0000
0000
0000
0000
,
0000
0000
0000
0000
,
0000
0000
0000
0000
,
0000
0000
0000
0000
,
0000
0000
0000
0000
,
0000
0000
0000
0000
,
0000
0000
0000
0000
,
0000
0000
0000
0000
,
0001
0000
0001
0000
,
1000
0000
1000
0000
,
0010
0000
0010
0000
,
0100
0000
0100
0000
,
2002
0000
0000
0000
,
0000
0000
0000
0000
,
0000
0000
3003
0000
,
1000
0000
0100
0010
0100
0000
0010
0000
,
0001
1000
0001
0000
0100
0000
0010
0000
,
1000
0000
0010
0100
0010
0000
0100
0000
,
0001
1000
0001
0000
0010
0000
0100
0000
,
1000
0000
0010
1000
0001
0000
1000
0001
,
0100
0000
0001
0010
0100
0000
0010
0100
,
2000
0000
0000
0010
0000
0000
0001
0000
,
3010
0100
0010
0000
1000
0001
0000
0001
,
1000
0000
0100
0010
0100
0000
1000
0001
,
1000
0000
0010
0100
0010
0000
0100
0001
,
0100
0000
0010
1000
0010
0000
1000
0100
,
1000
0000
0001
0010
0001
0000
1000
0100
,
0020
0000
1030
0010
,
0002
0000
0103
1000
,
0200
0000
0320
0000
,
2030
0000
3001
0000
,
1000
0100
0010
0001
1000
0100
0010
0001
,
0100
0000
0010
0000
1000
0001
0100
0010
,
2000
3020
0230
0302
,
1003
0100
1000
0100
0010
0000
0110
0000
,
0100
1000
0001
0000
0100
0001
1000
0000
,
0001
0010
0100
1000
0001
0000
0100
0000
,
0020
0000
0000
0000
,
0030
1000
0010
1000
0001
0100
0001
0100
,
0001
0011
0001
0101
,
0100
0001
0010
0100
1000
0000
0010
0000
,
1000
1010
1000
1100
,
0100
0010
0001
0000
0100
0010
1000
0000
,
0001
0101
0100
0110
,
1000
1100
0100
0110
,
0011
0011
1010
1010
,
0001
0010
0100
1000
0001
0010
0100
1000
,
0001
0000
0100
0001
0000
0100
0001
0000
,
1000
0100
0000
1000
0100
0000
0110
0000
,
0010
0000
0001
0010
0000
0001
0010
0000
,
0001
1000
0000
0010
1000
0000
1010
0000
,
0010
0000
0100
0001
0100
0000
0010
0100
,
0010
0000
1000
0010
1000
0000
0001
1000
,
0002
0000
0000
0010
0000
0000
0013
0000
,
2000
0010
0000
0000
0010
0000
3000
0000
,
0001
0000
0010
0001
0000
0100
0001
0000
,
0010
0001
0000
0100
0001
0100
0001
0000
,
1000
0010
0100
0010
1000
0010
0100
0000
,
0001
0010
0100
0010
0001
0010
0100
0000
,
1000
0010
0100
0000
0001
0010
0100
0000
,
1000
0100
0010
0000
0001
0100
0010
0000
,
1000
0100
1000
0100
0010
0100
0010
0001
,
1000
0001
1000
0001
1000
0000
0000
0000
,
1001
0000
0000
0000
,
0000
0000
0011
0000
,
1100
0000
0000
0000
,
0000
0000
1010
0000
,
0101
0000
0000
0000
,
0110
0000
0000
0000
,
1001
0000
0000
0000
,
1001
0110
1001
0000
,
1001
0000
0000
0000
,
0000
0000
1100
0000
,
0011
0000
0000
0000
,
0000
0000
0101
0000
,
1010
0000
0000
0000
,
0110
0000
0000
0000
,
2000
0000
0000
0000
,
3002
0000
0000
0000
,
1003
0000
0100
0000
0010
0001
0000
0100
,
0001
0010
0001
0100
0000
0001
0010
0100
,
1000
0000
0010
0000
1000
0100
0000
1000
,
0010
1000
0100
1000
0000
0100
0010
0001
,
2000
0000
3020
0000
,
0032
0000
0013
1000
,
0000
1000
1100
0100
,
0110
0010
0011
0000
,
0001
0100
0001
0100
0010
1000
0010
1000
,
0001
0100
0010
0000
1000
0100
0010
0000
,
0001
0010
0100
1000
0001
1000
0000
0100
,
0010
0100
0010
0000
0110
0000
0000
0000
,
0001
0000
0001
0010
0100
0000
1000
0000
,
1000
0010
0100
0000
0001
1000
0001
0000
,
1000
0010
1000
0010
1000
0000
0001
0100
,
0000
0010
0100
0000
1001
0000
0000
0000
,
2000
0000
0000
0000
,
3000
0001
0100
0001
0010
0100
1000
0010
,
0100
0001
1000
0001
0100
0010
1000
0010
,
0000
0100
0001
0000
1001
0000
0000
0000
,
1000
0100
0010
0000
0001
0010
1000
0010
,
0001
1000
0000
0100
0000
0010
0100
0000
,
1000
0001
0100
0001
1000
0010
0100
0000
,
1000
0000
0100
0001
0010
0100
1000
0001
,
1000
0000
0100
0010
0001
0000
0100
0010
,
1000
0000
0100
0000
0010
0001
0010
0001
,
0100
0020
0000
0000
0000
0000
0000
0000
,
0000
0000
0030
0000
,
1001
0000
0000
1000
0100
0001
0100
1000
,
0001
0010
0100
1000
0000
0000
0000
0000
,
1001
0000
0001
0100
0010
0100
1000
0100
,
0002
0000
0003
0000
,
1000
0100
1000
0000
0001
0100
0001
0000
,
1000
0010
1000
0000
0001
0010
0001
0000
,
1000
0100
0010
0001
1000
0010
0100
0001
,
1000
0100
0010
0001
0010
0100
1000
0001
,
1000
1010
0001
0011
,
1000
1100
0001
0101
,
1000
0010
0100
0001
,
2002
0000
0000
0000
,
0000
0000
0000
0000
,
3003
0000
0000
0000
,
0000
0000
0000
0000
;
#NOTES:
     dance-single:
     :
     Challenge:
     18:
     :
0000
0000
0000
0000
,
0000
0000
0000
0000
,
0000
0000
0000
0000
,
0000
0000
0000
0000
,
0000
0000
0000
0000
,
0000
0000
0000
0000
,
0000
0000
0000
0000
,
0000
0000
0000
0000
,
0000
0000
0000
0000
,
0000
0000
0000
0000
,
1000
0000
1000
0000
,
1000
0000
1000
0000
,
1000
0000
1000
0000
,
1000
0000
1000
0000
,
0010
0010
0010
0010
,
0010
0010
0010
0010
,
0010
0010
0010
0010
,
1000
0100
1000
0010
0100
0010
1000
0100
,
1000
0001
0100
0001
1000
0100
0010
0001
,
1000
0100
1000
0010
0100
0010
1000
0100
,
1000
0001
0100
0001
1000
0100
0010
0001
,
1000
0010
1000
0100
0010
0100
1000
0010
,
1000
0001
0010
0001
1000
0010
0100
0001
,
1000
0010
1000
0100
0010
0100
1000
0010
,
1000
0001
0010
0001
1000
0010
0100
0010
,
1000
0100
0010
0001
1000
0100
0010
0001
,
1000
0010
0100
0001
1000
0010
0100
0001
,
1000
0100
0010
0001
1000
0010
0100
0001
,
1000
0100
0010
0001
1000
0010
0100
0001
,
1000
0100
1000
0100
0001
0100
0001
0100
,
1000
0010
1000
0010
0001
0010
0001
0010
,
1000
0100
0010
0001
0010
0100
1000
0001
,
0100
0010
0100
0010
1000
0001
1000
0000
,
0001
0100
0010
0100
1000
0100
0010
0100
,
0001
0010
0100
0001
1000
0010
0100
1000
,
0010
0100
1000
0000
1000
0100
0001
0000
,
1000
0100
0010
0001
0011
0000
1001
0000
,
1000
0100
0010
1000
0010
0100
1000
0010
,
0100
0010
0001
0010
0100
0001
0010
0100
,
2000
0000
0000
0000
,
3000
0001
0100
0001
0010
0100
1000
0010
,
0100
1000
0100
1000
0001
0010
0001
0010
,
1000
0100
0001
0100
1000
0100
0001
0100
,
1000
0010
0100
1000
0001
0010
0001
0010
,
1000
0100
0010
0001
1000
0100
0110
0000
,
0002
0000
0013
1000
0002
0000
0103
1000
,
0002
0000
0013
1000
0002
0000
0103
1000
,
0010
0100
0001
1000
0010
0100
0001
1000
,
0100
0010
0001
0100
0010
1000
0100
0010
,
0001
0100
0100
0010
0100
0100
0001
0100
,
0100
1000
0100
0100
0001
0000
1001
0000
,
1000
0100
0100
0010
0100
0100
1000
0100
,
0100
0001
0100
0100
1000
0000
1001
0000
,
1000
0010
0100
0010
0001
0010
0100
0010
,
1000
0010
0100
0010
0001
0010
0100
0010
,
1000
0100
0100
0001
0100
0100
1000
0100
,
0100
0010
0100
0100
1000
0000
0001
1000
,
0001
0010
0001
0001
0100
0001
0001
0010
,
0001
0100
0010
1000
0100
0010
0001
0000
,
1000
0100
1000
0100
0001
0100
0001
1000
,
0010
1000
0010
0001
0010
0001
0010
0000
,
0001
0100
0010
1000
0001
0010
0100
1000
,
0001
0100
1000
0100
0001
0010
1000
0010
,
0001
0100
0010
1000
0001
0010
0100
1000
,
0100
0000
0010
0000
0100
0000
0010
0000
0001
0000
0010
0000
0001
0000
0000
1000
0000
0000
0001
0000
0000
1000
0000
0000
,
1001
0000
0001
0000
1000
0100
0000
0010
,
0100
1000
1010
0001
,
1001
0000
0001
0000
0100
0010
0000
1000
,
0010
0000
0100
0001
1000
0001
0100
0000
,
0110
0000
0010
0000
1000
0100
0000
0001
,
0100
0000
1000
0000
0010
0001
0000
0010
,
1000
0100
1000
0100
0010
0100
0010
0001
,
1000
0100
1000
0001
0100
0001
1000
0000
,
1001
0000
0001
0010
0000
0100
1000
0000
,
0001
0000
1000
0100
0010
0000
0000
0000
,
0001
0100
0000
0001
0010
0001
0000
1000
,
0100
1000
0010
1000
0100
0000
0000
0000
,
1000
0100
0000
0100
0010
0000
0010
0001
,
0000
0001
1000
0000
0010
0100
0010
0000
,
0100
0001
0100
0001
0100
0001
0100
0001
0100
0001
0100
0001
,
0100
0010
0100
0010
0100
0010
0100
0010
0100
0010
0100
0010
,
0000
0000
1000
0000
0010
0100
0000
0100
,
0001
0000
1000
0100
0000
0100
0001
0100
,
1000
0000
0001
0000
0010
0100
0000
0100
,
1000
0000
0001
0010
0000
0010
1000
0010
,
0002
0010
2003
0100
,
3002
0010
1003
1001
,
0000
1100
0110
0011
,
1001
1010
0110
0101
,
1000
0010
0100
0010
1000
0100
0010
0001
,
1000
0100
0010
0001
0010
0001
0010
0000
,
0001
0100
0010
0001
0010
0100
0001
1000
,
0100
0010
0100
1000
0001
1000
0000
1000
,
0010
0000
0010
0100
0010
0000
1000
0000
,
0100
0010
0001
0100
0010
1000
0001
0010
,
0100
0010
0100
0010
0100
0000
0100
0010
,
0001
0010
0001
0010
0001
1000
0001
1000
,
0010
0100
1000
0100
0010
0100
1000
0100
,
0010
0100
1000
0100
0010
0100
1000
0100
,
0001
0010
0100
1000
0001
1000
0100
0010
,
0001
0100
0010
1000
0100
0010
0001
1000
,
0010
0100
0001
0000
0001
1000
0001
0100
,
0010
1000
0100
1000
0010
0000
0100
0010
,
1000
0100
1000
0100
0001
0100
0001
0100
,
1000
0000
0000
0000
1000
0100
0010
0001
,
0011
0000
0101
0000
1001
0000
1000
0010
,
0100
0001
0010
0001
1000
0010
0100
1000
,
0001
0020
0000
0000
0000
0000
0000
0000
,
0000
0000
0000
0030
,
1001
0000
0000
0000
0000
0000
0000
0000
0000
1000
0000
0000
0001
0000
0010
0000
0100
0000
0010
0000
0100
0000
1000
0000
,
0001
0100
0001
1000
0000
0000
0000
0000
,
1001
0000
1000
0100
0010
0001
0100
0010
,
2000
0000
0000
3000
,
1000
0100
0001
0100
1000
0010
0100
0001
,
1000
0010
0001
0010
1000
0100
0010
0001
,
1000
0010
0100
0010
1000
0100
0010
0001
,
1000
1000
0100
0100
0010
0010
0001
0001
,
1000
0010
1010
1000
0001
0100
0101
0001
,
0010
0001
0011
0010
0001
1000
1100
0100
,
0110
0010
0011
0000
0101
0000
1010
0000
,
2002
0000
0000
0000
,
0000
0000
0000
0000
,
3003
0000
0000
0000
,
0000
0000
0000
0000
;
#NOTES:
     dance-double:
     :
     Easy:
     6:
     :
00000000
00000000
00000000
00000000
,
00000000
00000000
00000000
00000000
,
00000000
00000000
00000000
00000000
,
00000000
00000000
00000000
00000000
,
00000000
00000000
00000000
00000000
,
00000000
00000000
00000000
00000000
,
00000000
00000000
00000000
00000000
,
00000000
00000000
00000000
00000000
,
00000000
00000000
00000000
00000000
,
00000000
00000000
00000000
00000000
,
00001000
00000000
00000000
00000000
,
00001000
00000000
00000000
00000000
,
00010000
00000000
00000000
00000000
,
00010000
00000000
00000000
00000000
,
00011000
00000000
00000000
00000000
,
00000000
00000000
00000000
00000000
,
00000000
00000000
00000000
00000000
,
00001000
00000000
00000000
00000000
,
00000000
00000000
00001000
00000000
,
00010000
00000000
00000000
00000000
,
00100000
00000000
00000000
00000000
,
00000000
00000000
10000000
00000000
,
00010000
00000000
10000000
00000000
,
00010000
00000000
00000000
00000000
,
00000000
00000000
00000000
00000000
,
10000000
00000000
00000000
00000000
,
00000000
00000000
10000000
00000000
,
01000000
00000000
00000000
00000000
,
00100000
00000000
00000000
00000000
,
00000000
00000000
00100000
00000000
,
00001000
00000000
00000000
00000000
,
00010000
00000000
00001000
00000000
,
00010000
00000000
00000000
00000000
,
00001000
00000000
00010000
00000000
,
00001000
00000000
00010000
00000000
,
00000100
00000000
00001000
00000000
,
00000100
00000000
00000000
00000000
,
00001000
00000000
00000100
00000000
,
00000010
00000000
00000001
00000000
,
00002000
00000000
00000000
00000000
,
00003000
00000000
00000000
00000000
,
00000001
00000000
00000001
00000000
,
00000100
00000000
00000000
00000000
,
00001000
00000000
00001000
00000000
,
00010000
00000000
00000000
00000000
,
00010000
00000000
00001000
00000000
,
00100000
00000000
00010000
00000000
,
00100000
00000000
01000000
00000000
,
00100000
00000000
00000000
00000000
,
01100000
00000000
00000000
00000000
,
00000000
00000000
10000000
00000000
,
00010000
00000000
00000000
00000000
,
00010000
00000000
00000000
00000000
,
00000000
00000000
00010000
00000000
,
00100000
00000000
00001000
00000000
,
00010000
00000000
00000000
00000000
,
00011000
00000000
00000000
00000000
,
00010000
00000000
00000010
00000000
,
00010000
00000000
00000000
00000000
,
00000010
00000000
00001000
00000000
,
00000010
00000000
00000000
00000000
,
00001000
00000000
00000100
00000000
,
00000010
00000000
00000001
00000000
,
00002000
00000000
00000000
00000000
,
00003000
00000000
00000000
00000000
,
00001001
00000000
00000000
00000000
,
00000000
00000000
00001000
00000000
,
00001000
00000000
00000000
00000000
,
00000000
00000000
00000100
00000000
,
00000100
00000000
00000000
00000000
,
00010000
00000000
00000000
00000000
,
00011000
00000000
00000000
00000000
,
00001000
00000000
00010000
00000000
,
00011000
00000000
00000000
00000000
,
00000000
00000000
00001000
00000000
,
00001000
00000000
00000000
00000000
,
00000000
00000000
01000000
00000000
,
01000000
00000000
00000000
00000000
,
00010000
00000000
00000000
00000000
,
20020000
00000000
00000000
00000000
,
30030000
00000000
00000000
00000000
,
10000000
00000000
00100000
00000000
,
10000000
00000000
00100000
00000000
,
01000000
00000000
00010000
00000000
,
01000000
00000000
00000000
00000000
,
01000000
00000000
00001000
00000000
,
00010000
00000000
00000000
00000000
,
00001000
00000000
00010000
00000000
,
00000010
00000000
00000000
00000000
,
00000010
00000000
00001000
00000000
,
00000100
00000000
00000010
00000000
,
00000001
00000000
00000100
00000000
,
00000010
00000000
00000000
00000000
,
00000010
00000000
00010000
00000000
,
00001000
00000000
00000000
00000000
,
00022000
00000000
00000000
00000000
,
00033000
00000000
00000000
00000000
,
00001000
00000000
00010000
00000000
,
00100000
00000000
00010000
00000000
,
00001000
00000000
00000000
00000000
,
00010000
00000000
00000000
00000000
,
00010000
00000000
00001000
00000000
,
00000010
00000000
00001000
00000000
,
00010000
00000000
00000000
00000000
,
00001000
00000000
00000000
00000000
,
00010000
00000000
00001000
00000000
,
01000000
00000000
00010000
00000000
,
02000000
00000000
00000000
00000000
,
03000000
00000000
00000000
00000000
,
01000000
00000000
00001000
00000000
,
00010000
00000000
00001000
00000000
,
00010000
00000000
00000100
00000000
,
00001000
00000000
00000000
00000000
,
00000001
00000000
00000001
00000000
,
00000010
00000000
00000000
00000000
,
00001000
00000000
00001000
00000000
,
00010000
00000000
00000000
00000000
,
00001000
00000000
00100000
00000000
,
00010000
00000000
01000000
00000000
,
00100000
00000000
00000000
00000000
,
02200000
00000000
00000000
00000000
,
00000000
00000000
00000000
00000000
,
03300000
00000000
00000000
00000000
,
00000000
00000000
00000000
00000000
;
#NOTES:
     dance-double:
     :
     Medium:
     11:
     :
00000000
00000000
00000000
00000000
,
00000000
00000000
00000000
00000000
,
00000000
00000000
00000000
00000000
,
00000000
00000000
00000000
00000000
,
00000000
00000000
00000000
00000000
,
00000000
00000000
00000000
00000000
,
00000000
00000000
00000000
00000000
,
00000000
00000000
00000000
00000000
,
00000000
00000000
00000000
00000000
,
00000000
00000000
00000000
00000000
,
00001000
00000000
00001000
00000000
,
00010000
00000000
00000000
00000000
,
00010000
00000000
00010000
00000000
,
00001000
00000000
00000000
00000000
,
00022000
00000000
00000000
00000000
,
00000000
00000000
00000000
00000000
,
00000000
00000000
00033000
00000000
,
00020000
00000000
00000000
00000000
,
00000000
00000000
00031000
00000000
,
00200000
00000000
00000000
00000000
,
00320000
00000000
00000000
00000000
,
00030000
00000000
00010000
00000000
,
10000000
00000000
00100000
00000000
,
02000000
00000000
00000000
00000000
,
00000000
00000000
03000000
00000000
,
02000000
00000000
00000000
00000000
,
00000000
00000000
03100000
00000000
,
20000000
00000000
00000000
00000000
,
30020000
00000000
00000000
00000000
,
00030000
00000000
10000000
00000000
,
01000000
00000000
00010000
00000000
,
00001000
00000000
00001000
00000000
,
00000010
00000000
00000010
00000000
,
00000001
00000010
00000100
00001000
,
00000010
00000100
00000010
00000100
,
00000010
00000000
00001010
00000000
,
00001000
00000010
00010000
00000000
,
00001000
00010000
00001000
00000000
,
00010000
00001000
01000000
00010000
,
02000000
00000000
00000000
00000000
,
03000000
01000000
01000000
00000000
,
00100000
00000000
10100000
00000000
,
10000000
01000000
00100000
00000000
,
00010000
00100000
00010000
00100000
,
00001000
00010000
00001000
00000000
,
00010000
00000010
00001000
00000000
,
00000010
00001000
00000001
00000000
,
00000100
00000001
00000100
00000001
,
00001000
00000100
00001000
00000100
,
00020000
00000000
00000000
00000000
,
00000000
00000000
00031000
00000000
,
02000000
00000000
00000000
00000000
,
03020000
00000000
00000000
00000000
,
00030000
00000000
00010000
00000000
,
10000000
00000000
00100000
00000000
,
02000000
00000000
00000000
00000000
,
03200000
00000000
00000000
00000000
,
20300000
00000000
00000000
00000000
,
00000000
00000000
32000000
00000000
,
03020000
00000000
00000000
00000000
,
00000000
00000000
00030000
00000000
,
00020000
00000000
00032000
00000000
,
00003020
00000000
00000032
00000000
,
00001003
00000100
00001000
00000100
,
00010000
00001000
00010000
00000000
,
00011000
00000000
00000000
00000000
,
00000000
00000000
01000000
00000000
,
01100000
00000000
00000000
00000000
,
00000000
00000000
10000000
00000000
,
10010000
00000000
00000000
00000000
,
01100000
00000000
00000000
00000000
,
10000000
01000000
00010000
00000000
,
00001000
00010000
00001000
00000000
,
00011000
00000000
00000000
00000000
,
00000000
00000000
00000100
00000000
,
00000110
00000000
00000000
00000000
,
00000000
00000000
00000001
00000000
,
00001001
00000000
00000000
00000000
,
00000110
00000000
00000000
00000000
,
00000001
00000000
00000100
00001000
,
00020000
00000000
00000000
00000000
,
00031000
00010000
00001000
00010000
,
00001000
01000000
00001000
00000000
,
01000000
00010000
01000000
00010000
,
00100000
00010000
00100000
00000000
,
00010000
00000000
10000000
00000000
,
01000000
00000000
00010000
00001000
,
00000000
00001000
00000010
00000000
,
00000011
00000000
00001001
00000000
,
00001000
00000100
00000001
00000100
,
00001000
00000000
00000100
00000000
,
00001000
00000100
00010000
00001000
,
00100000
00010000
00100000
00000000
,
00010000
00100000
10000000
00000000
,
00100000
00000000
00010000
00000000
,
10000000
01000000
10000000
01000000
,
00100000
00000000
00001000
00000000
,
00022000
00000000
00000000
00000000
,
00033000
00001000
00010000
00000010
,
00001000
00000010
00000100
00000001
,
00000000
00000001
00001000
00000100
,
00000010
00000000
00000011
00000000
,
00000110
00000000
00001100
00000000
,
00001000
00000100
00010000
00001000
,
00010000
00000000
00010000
00001000
,
01000000
00010000
01000000
00000000
,
00100000
10000000
00100000
00000000
,
10000000
00020000
00000000
00000000
,
00000000
00000000
00030000
00000000
,
10010000
00000000
10000000
01000000
,
00010000
00001000
00000000
00000000
,
00010000
00001000
00000010
00000000
,
00000002
00000000
00000003
00000000
,
00000001
00000000
00000101
00000000
,
00000100
00000000
00000110
00000000
,
00000010
00000000
00010010
00000000
,
00011000
00000000
01001000
00000000
,
01000000
00010000
01000000
00000000
,
00100000
10000000
00100000
00000000
,
10000000
01000000
00010000
00000000
,
00022000
00000000
00000000
00000000
,
00000000
00000000
00000000
00000000
,
00033000
00000000
00000000
00000000
,
00000000
00000000
00000000
00000000
;
#NOTES:
     dance-double:
     :
     Hard:
     15:
     :
00000000
00000000
00000000
00000000
,
00000000
00000000
00000000
00000000
,
00000000
00000000
00000000
00000000
,
00000000
00000000
00000000
00000000
,
00000000
00000000
00000000
00000000
,
00000000
00000000
00000000
00000000
,
00000000
00000000
00000000
00000000
,
00000000
00000000
00000000
00000000
,
00000000
00000000
00000000
00000000
,
00000000
00000000
00000000
00000000
,
00001000
00000000
00001000
00000000
,
00010000
00000000
00010000
00000000
,
00001000
00000000
00001000
00000000
,
00010000
00000000
00010000
00000000
,
00022000
00000000
00000000
00000000
,
00000000
00000000
00000000
00000000
,
00000000
00000000
00033000
00000000
,
00010000
00001000
00010000
00000100
,
00001000
00000100
00001000
00000100
00000010
00000100
00000010
00000000
,
00000001
00001000
00000010
00000100
,
00000010
00001000
00000010
00010000
00001000
00010000
00001000
00000000
,
00100000
00000000
00010000
00000000
01000000
00100000
10000000
00000000
,
01000000
00100000
00010000
00000000
00100000
01000000
10000000
00000000
,
00020000
00000000
00000000
00100000
00000000
00000000
00100000
00000000
,
00130000
00001000
00100000
00001000
00010000
00001000
00010000
00000000
,
00001000
00000000
00010000
00000100
00010000
00000000
00000010
00001000
,
00000010
00000000
00001000
00000100
00001000
00000000
00000100
00000000
,
00000010
00000000
00000001
00001000
00000001
00000000
00001000
00000010
,
00001000
00000000
00000010
00010000
00000010
00000000
00010000
00000000
,
00002000
00000000
00103000
00010000
,
20000000
00000000
31000000
00010000
,
00002000
00000000
00003020
00000000
,
00000032
00000000
00001003
00000000
,
00000001
00000010
00000100
00001000
00000001
00000010
00000100
00001000
,
00000100
00000000
00010000
00001000
00010000
00000000
00001000
00000000
,
02000000
03020000
00230000
02300000
,
13000000
00100000
10000000
00100000
01000000
00000000
00010000
00000000
,
10000000
01000000
00100000
00000000
00001000
00010000
00001000
00010000
,
00000010
00000000
00001000
00000100
00000010
00000000
00000001
00000000
,
00002000
00000000
00000000
00000000
,
00003000
00000001
00000100
00000000
00000010
00000000
00000010
00000000
,
00001000
00000010
00001000
00000010
00010000
00001000
00010000
00000000
,
00001000
01000000
00001000
01000000
00010000
01000000
00010000
00000000
,
10000000
10000000
10100000
10100000
,
00100000
10000000
01000000
00100000
00010000
00000000
00100000
00000000
,
00001000
00000000
00010000
00000100
00001000
00000000
00000010
00000100
,
00000001
00000000
00000010
00000100
00001000
00000000
00000100
00000000
,
00001000
00000100
00010000
00000100
00001000
00000100
00010000
00000000
,
00001000
00100000
00010000
01000000
00001000
00100000
00010000
01000000
,
00010000
00000000
00100000
01000000
00000000
00100000
01000000
00000000
,
10000000
00100000
00000000
10000000
00100000
00000000
01100000
00000000
,
01000000
00000000
00010000
01000000
00000000
00010000
01000000
00000000
,
00001000
00010000
00000000
00001000
00010000
00000000
00011000
00000000
,
00001000
00000000
00010000
00000100
00010000
00000000
00000100
00001000
,
00000100
00000000
00001000
00000010
00001000
00000000
00000010
00000100
,
00000020
00000000
00000000
00000100
00000000
00000000
00000130
00000000
,
00000002
00001000
00000000
00000000
00001000
00000000
00000003
00000000
,
00000001
00000000
00000010
00000001
00000000
00000010
00000001
00000000
,
00000010
00000100
00001000
00000000
00000100
00010000
00001000
00000000
,
00010000
00001000
00100000
00010000
00100000
00001000
00010000
00000000
,
00001000
01000000
00010000
01000000
00001000
00010000
00001000
00000000
,
00010000
00001000
00100000
00000000
00010000
01000000
00100000
00000000
,
10000000
01000000
00100000
00000000
00001000
00010000
00001000
00000000
,
00100000
00001000
00100000
00001000
00010000
00001000
00010000
00001000
,
00000010
00001000
00000010
00001000
00000010
00000000
00000000
00000000
,
00000110
00000000
00000000
00000000
,
00000000
00000000
00000011
00000000
,
00001100
00000000
00000000
00000000
,
00000000
00000000
00011000
00000000
,
00011000
00000000
00000000
00000000
,
01100000
00000000
00000000
00000000
,
10010000
00000000
00000000
00000000
,
01000000
00100000
01000000
00000000
,
10010000
00000000
00000000
00000000
,
00000000
00000000
11000000
00000000
,
00110000
00000000
00000000
00000000
,
00000000
00000000
00011000
00000000
,
00011000
00000000
00000000
00000000
,
00000110
00000000
00000000
00000000
,
00000002
00000000
00000000
00000000
,
00002003
00000000
00000000
00000000
,
00003001
00000000
00000100
00000000
00000010
00000100
00000000
00000010
,
00000100
00000000
00001000
00010000
00000000
00001000
00010000
00001000
,
00010000
00000000
00100000
01000000
00100000
01000000
00000000
00010000
,
10000000
00010000
10000000
00010000
00000000
00010000
10000000
00000000
,
02000000
00000000
03020000
00000000
,
00032000
00000000
00013000
00011000
,
00000000
00010000
00001000
00011000
,
00010000
00000100
00000010
00000001
,
00001000
00000010
00001000
00000010
00000100
00000001
00000100
00000001
,
00001000
00000100
00001000
00000000
00000100
00010000
00000100
00000000
,
00010000
00001000
00010000
00001000
01000000
00010000
01000000
00010000
,
01000000
00100000
01000000
00000000
01100000
00000000
00000000
00000000
,
10000000
00000000
00100000
01000000
00100000
00000000
00010000
00000000
,
00001000
00000000
00010000
00000000
00000010
00000000
00001000
00000100
,
00000010
00000001
00000010
00000001
00000010
00000000
00000001
00000100
,
00000000
00000010
00001000
00000000
00000001
00000000
00000000
00000000
,
00002000
00000000
00000000
00000000
,
00003000
00000001
00000100
00000001
00001000
00000010
00001000
00000010
,
00010000
00001000
00010000
00000000
00001000
01000000
00010000
01000000
,
00100000
10000000
00100000
00000000
01000000
00000000
00000000
00000000
,
00010000
00100000
01000000
00000000
10000000
01000000
00100000
00010000
,
00100000
00001000
00000000
00010000
00000000
00001000
00010000
00000000
,
00001000
00010000
00000010
00001000
00000010
00000100
00000010
00000000
,
00001000
00000100
00000010
00000001
00001000
00000000
00000001
00000000
,
00000100
00000010
00000100
00000010
00000100
00000000
00001000
00000000
,
00010000
00000000
00100000
00000000
01000000
00100000
10000000
01000000
,
00100000
00020000
00000000
00000000
00000000
00000000
00000000
00000000
,
00000000
00000000
00030000
00000000
,
10010000
00000000
00000000
10000000
01000000
00000000
00010000
00000000
,
00001000
00000010
00000001
00000010
00000000
00000000
00000000
00000000
,
00000001
00000000
00000100
00001000
00010000
00000000
00100000
00000000
,
20000000
00000000
30000000
00000000
,
10000000
01000000
10000000
00000000
01000000
00100000
01000000
00000000
,
00100000
00001000
00100000
00000000
00001000
00010000
00001000
00000000
,
00000100
00001000
00000100
00000000
00000001
00000100
00000001
00000000
,
00000010
00000001
00001000
00000010
00010000
00001000
01000000
00010000
,
10000000
01000000
00100000
00110000
,
00010000
00100000
00001000
00011000
,
00010000
00000100
00000010
00000001
,
00002002
00000000
00000000
00000000
,
00000000
00000000
00000000
00000000
,
00003003
00000000
00000000
00000000
,
00000000
00000000
00000000
00000000
;
#NOTES:
     dance-double:
     :
     Challenge:
     18:
     :
00000000
00000000
00000000
00000000
,
00000000
00000000
00000000
00000000
,
00000000
00000000
00000000
00000000
,
00000000
00000000
00000000
00000000
,
00000000
00000000
00000000
00000000
,
00000000
00000000
00000000
00000000
,
00000000
00000000
00000000
00000000
,
00000000
00000000
00000000
00000000
,
00000000
00000000
00000000
00000000
,
00000000
00000000
00000000
00000000
,
00010000
00000000
00010000
00000000
,
00010000
00000000
00010000
00000000
,
00010000
00000000
00010000
00000000
,
00010000
00000000
00010000
00000000
,
00001000
00001000
00001000
00001000
,
00001000
00001000
00001000
00001000
,
00001000
00001000
00001000
00001000
,
00010000
00001000
00010000
00000100
00001000
00000100
00010000
00001000
,
00010000
00000100
00001000
00000100
00001000
00000010
00000100
00000001
,
00000010
00000100
00000010
00000001
00000100
00000001
00000010
00000100
,
00000010
00000001
00000100
00000001
00000010
00000100
00010000
00001000
,
00100000
00010000
00100000
00010000
01000000
00010000
00100000
01000000
,
00100000
00010000
01000000
00010000
00100000
01000000
10000000
00010000
,
10000000
00100000
10000000
01000000
00100000
01000000
10000000
00100000
,
10000000
01000000
00100000
01000000
10000000
00100000
01000000
00100000
,
10000000
01000000
00100000
00010000
10000000
01000000
00100000
00010000
,
01000000
00100000
01000000
00010000
01000000
00001000
00010000
00001000
,
00100000
00001000
00010000
00000100
00001000
00000100
00010000
00001000
,
00100000
00001000
00010000
00000100
00001000
00000100
00010000
00001000
,
00010000
00000010
00010000
00000010
00001000
00000100
00001000
00000100
,
00000010
00001000
00000010
00001000
00000001
00000100
00000001
00000100
,
00001000
00000001
00001000
00000001
00000100
00000010
00000100
00000010
,
00000100
00001000
00010000
00001000
00010000
00001000
00010000
00000000
,
00001000
00100000
00010000
01000000
00100000
10000000
01000000
00100000
,
00010000
00100000
00001000
00010000
00001000
01000000
00010000
01000000
,
00100000
10100000
10010000
11000000
,
01000000
00100000
00001000
00010000
00000100
00000000
00001100
00000000
,
00001000
00000100
00000010
00000001
00000100
00000010
00000001
00001000
,
00000100
00000010
00001000
00000100
00000010
00000001
00001000
00000001
,
00002000
00000000
00000000
00000000
,
00003000
00000001
00000100
00000001
00000010
00000100
00000010
00000100
,
00001000
00000100
00010000
00000100
00001000
00000100
00010000
00000100
,
00001000
00000100
00010000
00001000
00100000
00010000
00100000
01000000
,
10000000
00100000
01000000
00100000
00010000
00100000
01000000
00100000
,
10000000
01000000
00100000
00010000
00200000
00000000
00302000
00000000
,
00003020
00000000
00000031
00000100
00000020
00000000
00001030
00000100
,
00020000
00000000
00031000
00100000
00020000
00000000
01030000
00100000
,
10000000
01000000
10000000
01000000
00010000
00001000
00010000
00001000
,
00000010
00000001
00000010
00000001
00001000
00000001
00001000
00000000
,
00000001
00000000
00000001
00000100
00001000
00000000
00001000
00010000
,
00100000
00000000
00100000
10000000
00010000
00000000
10010000
00000000
,
10000000
00000000
10000000
01000000
00010000
00000000
00010000
00001000
,
00000010
00000000
00000010
00000001
00001000
00000000
00001001
00000000
,
00000001
00000100
00001000
00010000
00100000
10000000
00010000
00000000
,
10000000
01000000
00010000
00001000
00000010
00000001
00001000
00000000
,
00000001
00000100
00001000
00000100
00000001
00000010
00000100
00001000
,
00000010
00000100
00000010
00001000
00000010
00010000
00001000
00000000
,
00010000
00001000
00010000
00000100
00001000
00000100
00010000
00001000
,
00010000
00001000
00100000
00010000
01000000
00010000
00100000
00000000
,
00010000
10000000
01000000
00100000
00010000
10000000
00100000
01000000
,
00010000
00100000
00001000
00010000
00000100
00001000
00000100
00000000
,
00000010
00000001
00000010
00000001
00000100
00000010
00000100
00000010
,
00000100
00001000
00000100
00001000
00010000
00001000
00010000
00000000
,
00001000
01000000
00010000
01000000
00100000
01000000
10000000
01000000
,
00100000
00000000
10000000
00000000
00100000
00000000
10000000
00000000
00100000
00000000
10000000
00000000
00100000
00000000
00000000
01000000
00000000
00000000
00010000
00000000
00000000
00000000
00000000
00000000
,
10010000
00000000
10000000
00000000
01000000
01000000
00000000
00100000
,
00100000
00000000
00001000
00000000
00010000
00001000
00010000
00000000
,
00011000
00000000
00001000
00000000
00010000
00010000
00000000
00000100
,
00000100
00000000
00001000
00000010
00001000
00000010
00001000
00000000
,
00001010
00000000
00000010
00000000
00000100
00000100
00000000
00000001
,
00000001
00000000
00001000
00000000
00000100
00000100
00000000
00000010
,
00000001
00001000
00000001
00001000
00000100
00001000
00000100
00010000
,
00001000
00010000
00001000
00010000
00001000
00010000
00001000
00000000
,
00011000
00000000
00001000
00010000
00000000
01000000
10000000
00000000
,
01000000
00000000
00010000
00002000
00000000
00000000
00003000
00000000
,
00010000
00001000
00000000
00000100
00000001
00000100
00000000
00001000
,
00010000
00001000
00010000
00001000
00010000
00000000
00000000
00000000
,
00010000
00000010
00000000
00000010
00001000
00000000
00000100
00010000
,
00000000
00010000
00001000
00000000
00100000
00001000
00010000
00000000
,
00001000
01000000
00001000
01000000
00001000
01000000
00001000
01000000
00001000
01000000
00000000
00000000
,
00010000
01000000
00010000
01000000
00010000
01000000
00010000
01000000
00010000
01000000
00000000
00000000
,
00010000
00000000
10010000
00000000
10000000
01000000
00000000
01000000
,
00010000
00000000
00010000
00001000
00000000
00001000
00000010
00000001
,
00000010
00000000
00000001
00000000
00000100
00001000
00000000
00001000
,
00010000
00100000
10000000
00100000
00000000
00100000
01000000
00100000
,
20000000
31000000
00200000
00310000
,
00002000
00003100
00000010
00000011
,
00000000
00001001
00001000
00000100
,
00010000
00001000
01000000
01100000
,
00100000
10000000
01000000
10000000
00100000
01000000
00010000
00100000
,
00001000
00010000
00001000
00000010
00000001
00001000
00000100
00000000
,
00000010
00000001
00000100
00000001
00000010
00000100
00001000
00000100
,
00010000
00001000
00010000
01000000
00100000
00010000
00000000
00010000
,
10000000
00000000
00100000
01000000
00100000
00000000
01000000
00000000
,
00010000
00100000
01000000
00000000
10000000
00100000
01000000
00000000
,
00010000
00100000
00010000
00100000
00001000
00010000
00001000
00010000
,
00000010
00001000
00000010
00001000
00000001
00000100
00000001
00000000
,
00000010
00000100
00000001
00000100
00000010
00000100
00000001
00000100
,
00000010
00000001
00000100
00001000
00010000
00100000
10000000
01000000
,
00100000
10000000
00100000
01000000
00100000
10000000
00100000
01000000
,
00010000
01000000
00100000
00010000
00001000
00000100
00000010
00000001
,
00001000
00000010
00000100
00000000
00001000
00010000
00001000
00000100
,
00000000
00000010
00001000
00000100
00010000
00001000
01000000
00010000
,
00100000
01000000
10000000
00100000
10000000
01000000
00100000
00000000
,
00010000
00000000
00000000
00000000
10000000
00100000
01000000
00010000
,
01010000
00000000
00011000
00000000
00001010
00000000
00000010
00001000
,
00000100
00000010
00000001
00000100
00001000
00010000
00100000
10000000
,
00010000
00200000
00000000
00000000
00000000
00000000
00000000
00000000
,
00000000
00000000
00000000
00300000
,
01100000
00000000
00000000
00000000
00000000
00000000
00000000
00000000
00000000
10000000
00000000
00000000
00010000
00000000
01000000
00000000
00010000
00000000
01000000
00000000
00001000
00000000
01000000
00000000
,
00001000
00010000
00001000
00010000
00000000
00000000
00000000
00000000
,
00011000
00000000
00010000
00000010
00001000
00000100
00010000
00000010
,
00002000
00000000
00000000
00003000
,
00001000
00000100
00000010
00000001
00000100
00001000
00010000
00100000
,
10000000
01000000
00010000
01000000
10000000
00100000
01000000
00010000
,
10000000
01000000
00010000
00001000
00000010
00000001
00000100
00001000
,
00010000
00100000
01000000
00100000
00010000
00001000
00000010
00000100
,
00000010
00000001
00000100
00000010
00001010
00001000
00001100
00000100
,
00010000
00001000
00010000
01000000
11000000
10000000
10010000
00010000
,
01000000
00100000
00110000
00000000
00011000
00000000
00001100
00000000
,
00000220
00000000
00000000
00000000
,
00000000
00000000
00000000
00000000
,
00000330
00000000
00000000
00000000
,
00000000
00000000
00000000
00000000
;
