
//----- song ID: tthd -----//
#TITLE:Time to HYPERDRIVE;
#ARTIST:Savage States;
#BANNER:Time to HYPERDRIVE.png;
#BACKGROUND:Time to HYPERDRIVE-bg.png;
#CDTITLE:./CDTitles/DDR WORLD.png;
#MUSIC:Time to HYPERDRIVE.ogg;
#SAMPLESTART:22.736;
#SAMPLELENGTH:15;
#BPMS:0=190,64=95,66=190,190=95,192=190,328=95,336=190,352=95;
#NOTES:
     dance-single:
     :
     Beginner:
     2:
     :
0000
0000
0000
0000
,
0000
0000
0000
0000
,
0000
0000
0000
0000
,
0000
0000
0000
0000
,
0000
0000
0000
0000
,
0000
0000
0000
0000
,
0000
0000
0000
0000
,
0000
0000
0000
0000
,
0000
0000
0000
0000
,
0000
0000
0000
0000
,
0010
0000
0000
0000
,
0010
0000
0000
0000
,
0100
0000
0000
0000
,
0100
0000
0000
0000
,
0001
0000
0001
0000
,
0001
0000
0001
0000
,
0002
0000
0003
0000
,
0000
0000
1000
0000
,
0000
0000
1000
0000
,
0000
0000
0010
0000
,
0000
0000
0010
0000
,
0000
0000
1000
0000
,
0000
0000
1000
0000
,
0000
0000
0001
0000
,
0000
0000
0001
0000
,
0000
0000
1000
0000
,
0000
0000
1000
0000
,
0000
0000
0100
0000
,
0000
0000
0100
0000
,
0000
0000
1000
0000
,
0000
0000
1000
0000
,
0000
0000
0001
0000
,
0001
0000
0001
0000
,
0000
0000
1000
0000
,
0000
0000
0010
0000
,
0000
0000
0010
0000
,
0000
0000
0100
0000
,
0000
0000
0001
0000
,
0000
0000
0010
0000
,
0000
0000
0100
0000
,
0000
0000
1000
0000
,
0000
0000
0001
0000
,
0000
0000
0001
0000
,
0000
0000
0001
0000
,
0000
0000
0001
0000
,
0000
0000
0001
0000
,
0001
0000
0001
0000
,
0001
0000
0002
0000
,
0003
0000
0000
0000
,
2002
0000
0000
3003
,
0000
0000
0000
0000
,
0001
0001
0000
0000
,
0001
0000
0000
0000
,
1000
0000
0000
0000
,
1000
0000
0000
0000
,
0010
0000
0000
0000
,
0010
0000
0000
0000
,
0100
0000
0000
0000
,
0100
0000
0000
0000
,
0001
0001
0000
0000
,
0001
0000
0000
0000
,
0010
0000
0000
0000
,
0100
0000
0000
0000
,
1000
0000
0000
0000
,
0000
0000
0000
0000
,
1001
0000
0000
0000
,
0000
0000
0000
0000
,
0001
0000
0001
0000
,
0001
0000
0000
0000
,
1000
0000
1000
0000
,
1000
0000
0000
0000
,
0001
0000
0001
0000
,
0001
0000
0000
0000
,
1000
0000
1000
0000
,
1000
0000
0000
0000
,
0010
0000
0010
0000
,
0010
0000
0000
0000
,
0100
0000
0100
0000
,
0100
0000
0000
0000
,
0001
0000
0000
0000
,
1000
0000
0000
0000
,
0001
0000
0000
0000
,
0200
0000
0000
0300
0000
0000
0000
0000
,
0000
0000
0000
0000
,
0010
0000
0000
0000
,
1000
0000
0000
0000
,
0100
0000
0000
0000
,
0010
0000
0000
0000
,
0002
0000
0000
0000
,
0003
0000
0000
0000
,
0000
0000
0000
0000
;
#NOTES:
     dance-single:
     :
     Easy:
     7:
     :
0000
0000
0000
0000
,
0000
0000
0000
0000
,
0000
0000
0000
0000
,
0000
0000
0000
0000
,
0000
0000
0000
0000
,
0000
0000
0000
0000
,
0000
0000
0000
0000
,
0000
0000
0000
0000
,
0000
0000
0000
0000
,
0000
0000
0000
0000
,
1000
0001
0010
0000
,
0100
1000
0001
0000
,
0100
0001
0010
0000
,
0100
1000
0010
0000
,
1000
1000
1000
1000
,
0001
0001
0001
0001
,
0220
0000
0330
0000
,
0000
0000
0002
1000
,
0000
0100
0000
1000
,
0000
0103
0001
0001
,
0010
0100
1000
1000
,
0010
0000
0020
0100
,
0000
1000
0000
0100
,
0000
1030
0010
0010
,
0110
0000
1000
0001
,
0001
1000
2000
0010
,
0000
0001
0000
0010
,
0000
3001
0100
0010
,
0110
0000
0001
1000
,
1001
0000
0200
0010
,
0000
0001
0000
0010
,
0000
0301
0100
0100
,
0001
1000
1001
0010
,
0110
0000
0001
1000
,
0100
0000
0100
1000
,
0001
0000
0001
0100
,
0010
0000
0010
0100
,
0001
0001
1000
0100
,
0010
0000
0010
0100
,
1000
0000
1000
0001
,
0100
0000
0100
0001
,
1000
0010
0100
0000
,
0000
0000
0100
0000
,
0000
0000
0100
0000
,
0000
0000
0100
0000
,
0000
0000
0100
0000
,
0100
0000
0100
0000
,
0100
0000
0100
0100
,
0100
0000
0000
0000
,
0220
0000
0000
0330
,
0010
0100
0100
0000
,
1001
1001
1000
0100
,
0010
0001
0010
0001
,
1000
0010
1000
0010
,
0100
0001
0100
0001
,
0010
0100
1000
0001
,
0100
0001
1000
0100
,
1000
0001
0100
0010
,
0100
0001
1000
0100
,
0110
0110
0010
0001
,
1000
0010
0001
0010
,
1000
0100
0010
0001
,
0100
1000
0100
0001
,
1000
0000
0001
0000
0000
0010
0000
0000
,
0100
0000
0000
1000
0000
0000
0010
0000
,
0200
0000
0000
0300
,
0001
1000
1001
0000
,
1000
0100
0001
0100
,
1000
0010
0001
0010
,
1000
1100
0001
0101
,
0010
1000
0100
0010
,
0001
0100
1000
0100
,
0001
0010
1000
0010
,
0001
0101
1000
1100
,
0001
0000
0100
0110
,
0001
0100
0001
0010
,
0100
1000
0010
0100
,
0001
0011
1000
1100
,
0001
0100
0010
1000
,
0010
0010
0010
0110
,
1000
1000
1000
1001
,
0001
0010
0100
1000
,
0020
0030
0100
0001
,
0010
0100
1000
0001
,
0200
0000
0000
0300
,
0001
0001
1000
1000
,
0010
0010
0100
0100
,
0001
0010
0100
1000
,
0110
0000
2002
0000
,
3003
0000
0000
0000
,
0000
0000
0000
0000
;
#NOTES:
     dance-single:
     :
     Medium:
     12:
     :
0000
0000
0000
0000
,
0000
0000
0000
0000
,
0000
0000
0000
0000
,
0000
0000
0000
0000
,
0000
0000
0000
0000
,
0000
0000
0000
0000
,
0000
0000
0000
0000
,
0000
0000
0000
0000
,
0000
0000
0000
0000
,
0000
0000
0000
0000
,
0002
0100
0100
0103
,
2000
0010
0010
3010
,
0002
0100
1000
0103
,
2000
0010
0001
3010
,
1000
0100
1000
0000
0001
0010
0001
0000
,
1000
0010
1000
0000
0001
0100
0001
0000
,
0020
0000
0130
0000
,
0000
0000
1200
0010
,
0000
1000
0000
0000
0001
0000
0000
1000
,
0000
0000
0310
0000
0100
1000
0001
0000
,
0100
0001
0010
0100
,
1200
1300
0021
0100
,
0000
0001
0000
0000
1000
0000
0000
0001
,
0000
0000
0130
0000
0001
0010
0200
0000
,
2300
3010
0210
0310
,
1000
0001
0001
0000
0201
0000
0010
0000
,
0000
0001
0000
0000
1000
0000
0000
0001
,
0000
0310
1010
0101
,
1020
0000
0000
0030
0000
0000
1000
0000
1000
0001
0000
0001
,
0100
0000
0100
0010
0000
0000
1020
0000
0000
0100
0000
0000
,
0000
1000
0000
0000
0001
0000
0000
1000
,
0000
0000
0130
0000
0010
0010
0010
0000
,
0100
0100
0100
0000
0001
0010
0100
0000
,
1000
0010
0110
0100
,
0001
1000
0100
0000
0010
0000
0001
0000
,
0100
0001
1000
0000
0100
0000
0010
0000
,
0100
1000
0010
0000
1000
0001
1000
0001
,
0100
0010
0110
0001
,
1000
0100
0010
0000
0100
0000
1000
0000
,
0001
0100
0010
0000
1000
0000
0001
0000
,
1000
0100
0010
0000
0001
0000
1000
0000
,
0010
0100
0020
0000
0100
0000
0000
0000
,
0000
0000
0100
0000
,
0000
0000
0100
0000
,
0000
0000
0100
0000
,
0000
0000
0100
0000
,
0100
0000
0100
0000
,
0100
0000
0100
0100
,
0130
0000
0000
0000
,
0220
0000
0030
0000
0010
0010
0310
0000
,
0100
0001
1000
0001
1000
0100
0010
0000
,
0110
1001
0001
0100
,
0010
0000
1000
0000
0100
0000
1000
0010
,
1000
0100
1000
0010
,
0100
0001
0010
0001
,
1000
0100
1000
0000
0100
0000
0010
0000
,
0001
0100
0001
0000
0100
0000
0010
0000
,
1000
0100
1000
0000
0001
0000
0100
0000
,
0010
1000
0001
0000
0010
0000
0100
0000
,
1100
0000
0101
0000
0001
1000
0100
0000
,
0010
0000
0001
0000
1000
0010
0100
0000
,
0001
0000
1000
0000
0100
1000
0010
0000
,
0100
0000
0001
0000
0010
0001
0100
0010
,
1000
0000
0001
0000
0000
0010
0000
0000
,
0100
0000
0000
1000
0000
0000
0010
0000
,
0220
0000
0000
0330
,
0100
0000
0000
0001
0010
0000
0001
0000
1000
0000
0000
0000
1001
0000
0000
0000
,
0001
0100
0001
0100
0001
0010
0100
0000
,
1000
0100
1000
0100
1000
0001
0100
0000
,
0001
0010
0100
1000
0100
0010
0001
0000
,
1000
0001
0100
0000
0010
1000
0001
0000
,
1000
0100
0010
0100
1000
0100
0010
0000
,
0001
0100
0010
0100
0001
0100
0010
0000
,
1000
0100
0010
0001
1000
0010
0100
0000
,
0100
0001
0001
0010
0100
0000
1100
0000
,
0001
0100
0001
0100
0001
0100
0010
1000
,
0001
0010
0001
0010
0001
0010
0100
1000
,
0001
0100
0010
1000
0010
0100
0001
0010
,
0100
1000
0100
0010
0001
1000
0010
0000
,
1000
1000
1000
1000
1000
1000
1000
0000
,
0001
0001
0001
0001
0001
0001
0001
0000
,
1000
0001
0100
0010
0100
0001
1000
0100
,
0020
0000
0030
0000
0001
0010
0100
1000
,
0001
0100
0010
0100
0001
1000
0100
0010
,
0002
0000
1000
1003
,
0001
0000
0100
0000
0010
0000
1000
1000
,
1000
0010
0100
0001
,
1000
1000
0100
0100
0010
0010
0001
0001
,
0100
0010
1000
0001
2002
0000
0000
0000
,
3003
0000
0000
0000
,
0000
0000
0000
0000
;
#NOTES:
     dance-single:
     :
     Hard:
     15:
     :
0000
0000
0000
0000
,
0000
0000
0000
0000
,
0000
0000
0000
0000
,
0000
0000
0000
0000
,
0000
0000
0000
0000
,
0000
0000
0000
0000
,
0000
0000
0000
0000
,
0000
0000
0000
0000
,
0000
0000
0000
0000
,
0000
0000
0000
0000
,
0001
0001
1000
0001
0001
1000
0010
0100
,
0002
0000
0013
0100
1000
0001
1000
0010
,
1000
0001
0200
0000
0301
1000
0001
1000
,
0100
0010
0100
1000
0001
0100
0010
1000
,
0001
0001
1000
1000
0100
0010
0001
1000
,
0010
0010
0100
0100
0001
1000
0100
0010
,
0002
1000
1000
1000
1000
1000
1000
1000
1003
0000
0000
0000
0000
0000
0000
0000
,
0000
0000
0100
0110
,
0001
0011
0000
1000
1100
0000
0001
0101
,
0000
0010
1001
0000
0001
0010
0100
1000
,
0010
1000
0100
0010
0001
0100
0001
0010
,
0100
1000
0010
0110
,
0001
0101
0000
1000
1100
0000
0001
0011
,
0000
0100
1001
0000
0210
0310
0210
0310
,
1000
0001
1000
0001
0200
0000
0000
0000
,
0310
1000
0001
0000
0100
0000
0100
0000
0100
0000
0000
0000
0110
0000
0000
0000
,
1000
1010
0000
0001
0011
0000
1000
1100
,
0000
0010
1001
0000
2020
3030
2200
3300
,
0022
0000
0000
0033
0000
0000
0202
0000
0000
0303
0000
0000
1000
0000
0010
0000
1000
0000
0001
0000
0010
0000
0001
0000
,
1000
0010
0100
0001
0000
0000
0010
0000
0000
0110
0000
0000
,
1000
1100
0000
0001
0011
0000
1000
1010
,
0000
0100
1001
0000
0002
0000
1000
1003
,
0001
1000
0000
0001
1000
0000
0001
0000
0100
0000
0100
0000
0100
0000
0000
0000
,
0001
1000
0001
1000
0001
0000
0000
0000
1000
0000
0001
0000
0200
0300
0001
0000
,
1000
0000
0200
0300
0010
0000
0100
0000
1000
0000
0001
0000
0020
0030
0001
0000
,
1000
0000
0020
0030
1000
0001
1000
0000
0001
0000
0100
0000
0020
0030
1000
0000
,
0001
0000
0020
0030
0001
0000
1000
0000
0020
0000
0000
0000
0230
0000
0000
0000
,
0010
0000
0310
0000
0100
0000
0010
0000
1001
0000
0000
0000
2000
3000
0010
0000
,
0100
0000
0002
0003
1000
0100
1000
0000
0001
0000
0100
0000
0002
0003
0010
0000
,
0100
0000
2000
3000
0001
0100
0001
0000
0010
0000
0100
0000
2000
3000
0010
0000
,
0100
0000
0002
0003
1000
0000
0000
0000
0100
0000
0000
0000
0010
0000
0000
0000
,
0001
1000
0001
1000
0001
0000
0000
0000
,
0000
0000
1000
0000
,
0000
0000
0010
0000
,
0000
0000
0100
0000
,
0000
0000
0000
0000
0001
0001
1000
1000
,
0010
0010
0100
0100
0001
0001
1000
1000
,
0100
0000
0010
0000
0001
0000
1000
0000
0020
0100
0100
0100
0100
0100
0100
0100
,
0130
0000
0000
0000
,
2000
0000
3002
0000
1003
0001
1000
0001
,
1000
0001
0100
0001
1000
0000
0001
1000
0010
1000
0001
0000
1000
0000
0000
0000
,
0001
0000
1001
0000
1000
0100
1000
0100
,
0010
0001
0010
0001
1000
0010
0100
0100
,
0010
1000
0010
1000
0001
0100
0001
0100
,
0010
1000
0001
1000
0100
0000
1001
0000
,
0001
1000
0001
0000
0010
0000
0100
0000
1000
0000
0001
0000
0100
0000
0010
0000
,
1000
0001
1000
0000
0100
0000
0010
0000
0001
0000
0100
0000
0001
0000
1000
0000
,
0010
0100
0010
0000
1000
0000
0001
0000
0010
0000
0100
0000
1000
0000
0001
0000
,
0100
0010
0100
0000
0001
0000
1000
0000
0100
0010
0001
0000
1000
0000
1000
0000
,
1001
0000
0110
0000
1001
1000
0010
0100
,
0001
1000
0100
0000
0010
0000
0100
0000
1000
0000
0001
0000
0100
0000
0010
0000
,
1000
0001
0010
0000
0100
0000
1000
0000
0010
0000
0100
0000
0001
0000
1000
0000
,
0100
0010
0001
0000
1000
0000
0001
0000
0100
0010
1000
0000
0001
0000
0001
0000
,
1001
0000
0110
0000
1000
1001
0000
0100
,
0110
0000
0001
1001
0000
0010
0110
0000
,
0001
0000
1000
0000
0010
0000
0100
0000
0001
1000
0100
0000
1000
0001
0100
0000
,
0020
0000
0030
0000
0200
0000
0300
0000
0001
0010
0100
1000
0001
0000
0000
0000
,
1000
0100
1000
0000
0001
0000
0100
0000
0010
1000
0001
0000
1000
0000
0100
0000
,
0010
0001
0010
0000
0100
0000
1000
0000
0001
0100
0010
0000
1000
0000
0001
0000
,
1000
0100
1000
0000
0001
0010
0001
0000
1000
0010
1000
0000
0001
0100
0001
0000
,
1000
0000
0100
0000
0010
0000
0001
0000
1000
0001
0000
1000
0001
0000
1000
0000
,
0001
0010
0001
0000
1000
0000
0010
0000
0100
0001
1000
0000
0001
0000
0010
0000
,
0100
1000
0100
0000
0010
0000
0001
0000
1000
0010
0100
0000
0001
0000
1000
0000
,
0001
0010
0001
0000
1000
0100
1000
0000
0001
0100
0001
0000
1000
0010
1000
0000
,
0001
0000
0000
0000
0100
0000
0010
0000
1000
0001
0000
1000
0001
0000
0000
0000
,
1000
0001
0100
0000
0001
0000
1000
0000
0100
0010
0001
0000
1000
0000
0010
0000
,
0100
0001
0100
0000
0010
0000
1000
0000
0001
0010
0100
0000
1000
0000
0001
0000
,
1000
0001
0100
0000
0010
1000
0001
0000
1000
0001
0010
0000
0100
1000
0001
0000
,
0100
0001
0010
0001
0100
0010
1000
0000
,
0001
0001
1000
1000
0001
0100
0110
0000
,
1000
1000
0001
0001
1000
0100
0110
0000
,
0001
1000
0001
1000
0001
1000
0001
1000
0001
1000
0001
1000
0001
1000
0001
1000
,
0002
0000
0000
0000
0003
0000
0000
0000
1000
0100
0010
0001
1000
0001
0010
0100
,
1000
0010
0100
0001
1000
0001
0100
0010
1000
0100
1000
0010
0100
0001
1000
0001
,
0020
0000
0000
0000
0100
0100
0130
0000
,
1000
0001
0010
0001
,
1000
0010
1000
0001
,
1000
0000
1000
0000
0001
0000
0001
0000
1000
0001
1000
0001
1000
0000
0000
0000
,
0001
0100
0010
0000
1000
0000
0001
0000
1000
0100
0010
0000
0001
0000
1000
0000
2002
0000
0000
0000
0000
0000
0000
0000
0000
0000
0000
0000
0000
0000
0000
0000
,
3003
0000
0000
0000
,
0000
0000
0000
0000
;
#NOTES:
     dance-double:
     :
     Easy:
     7:
     :
00000000
00000000
00000000
00000000
,
00000000
00000000
00000000
00000000
,
00000000
00000000
00000000
00000000
,
00000000
00000000
00000000
00000000
,
00000000
00000000
00000000
00000000
,
00000000
00000000
00000000
00000000
,
00000000
00000000
00000000
00000000
,
00000000
00000000
00000000
00000000
,
00000000
00000000
00000000
00000000
,
00000000
00000000
00000000
00000000
,
00001000
00010000
00000010
00000000
,
00010000
00001000
00100000
00000000
,
00001000
00010000
00000010
00000000
,
00010000
00001000
00100000
00000000
,
00001000
00001000
00010000
00010000
,
00000010
00000010
00001000
00001000
,
00002020
00000000
00003030
00000000
,
00000000
00000000
00000020
00001000
,
00000000
00000100
00000000
00001000
,
00000000
00010030
00010000
00010000
,
00001000
00000100
00000010
00000000
,
00010000
00001000
00200000
00010000
,
00000000
01000000
00000000
00010000
,
00000000
00301000
00010000
00011000
,
00001000
00000100
00000001
00000010
,
00000100
00001000
00000200
00001000
,
00000000
00000010
00000000
00001000
,
00000000
00010300
00010000
00001000
,
00011000
00000000
00010000
00100000
,
01100000
00000000
02000000
00010000
,
00000000
00100000
00000000
00010000
,
00000000
03001000
00001000
00010000
,
01000000
10000000
10000000
00100000
,
01000000
00000000
00010000
01000000
,
00100000
00000000
00100000
01000000
,
00010000
00000000
00100000
00001000
,
00010000
00000000
00010000
00001000
,
00100000
00000000
00001000
00010000
,
00000100
00000000
00000100
00010000
,
00001000
00000000
00010000
00000100
,
00000010
00000000
00000010
00000100
,
00001000
00000001
00000100
00000000
,
00000000
00000000
00000100
00000000
,
00000000
00000000
00000100
00000000
,
00000000
00000000
00000100
00000000
,
00000000
00000000
00000100
00000000
,
00000100
00000000
00000100
00000000
,
00000100
00000000
00000100
00000100
,
00000100
00000000
00000000
00000000
,
00000220
00000000
00000000
00000330
,
00000010
00001000
00000100
00000000
,
00011000
00011000
00001000
01000000
,
00010000
00100000
00010000
00100000
,
00001000
00010000
00001000
00010000
,
00000100
00000010
00000100
00000010
,
00000001
00000100
00000010
00001000
,
00000100
00010000
00001000
01000000
,
00010000
10000000
01000000
00100000
,
00010000
01000000
00001000
00010000
,
00011000
00011000
00010000
00000100
,
00000010
00000001
00001000
00000010
,
00000100
00000001
00001000
00000100
,
00000010
00000100
00001000
00000010
,
00010000
00000000
00001000
00000000
00000000
00010000
00000000
00000000
,
00100000
00000000
00000000
01000000
00000000
00000000
00010000
00000000
,
00200000
00000000
00000000
00300000
,
00010000
10000000
10010000
00000000
,
00010000
01000000
00100000
10000000
,
01000000
10000000
00010000
01000000
,
00100000
00010000
00001000
00010000
,
00000100
00000010
00000100
00001000
,
00000001
00000100
00000010
00001000
,
00000100
00000010
00001000
00010000
,
00001000
01000000
00100000
10000000
,
00010000
00000000
10010000
00000000
,
10000000
01000000
00100000
01000000
,
10000000
00100000
00010000
00100000
,
10000000
01000000
00010000
00001000
,
00000010
00000001
00001000
00000010
,
00000100
00000100
00000100
00000110
,
00000010
00000010
00000010
00001010
,
00001001
00000000
00000110
00000000
,
00022000
00033000
00010000
00001000
,
00001000
00010000
01000000
10000000
,
00200000
00000000
00000000
00300000
,
01000000
01000000
00010000
00010000
,
00100000
00100000
00001000
00001000
,
00010000
01000000
10000000
00100000
,
10010000
00000000
00200000
00000000
,
00300000
00000000
00000000
00000000
,
00000000
00000000
00000000
00000000
;
#NOTES:
     dance-double:
     :
     Medium:
     12:
     :
00000000
00000000
00000000
00000000
,
00000000
00000000
00000000
00000000
,
00000000
00000000
00000000
00000000
,
00000000
00000000
00000000
00000000
,
00000000
00000000
00000000
00000000
,
00000000
00000000
00000000
00000000
,
00000000
00000000
00000000
00000000
,
00000000
00000000
00000000
00000000
,
00000000
00000000
00000000
00000000
,
00000000
00000000
00000000
00000000
,
00010000
00000100
00000010
00000100
,
00001000
00000001
00001000
00000010
,
00000100
00001000
00010000
00001000
,
00100000
01000000
00010000
00001000
,
01000000
00010000
01000000
00000000
00001000
00010000
00001000
00000000
,
00100000
00010000
00100000
00000000
00001000
00010000
00001000
00000000
,
00020000
00000000
00031000
00000000
,
00000000
00000000
00200000
00001000
,
00000000
00010000
00000000
00000000
10000000
00000000
00000000
00010000
,
00000000
00000000
00301000
00000000
00010000
00001000
01000000
00000000
,
00100000
10000000
00010000
00000000
01000000
00100000
00010000
00000000
,
00001000
00010000
00000200
00010000
,
00000000
00001000
00000000
00000000
00000001
00000000
00000000
00001000
,
00000000
00000000
00010300
00000000
00001000
00010000
00000100
00000000
,
00001100
00000000
00010000
00000100
00000010
00000001
00000010
00000100
,
00010000
00001000
00001000
00000000
02000000
00000000
00001000
00000000
,
00000000
00010000
00000000
00000000
10000000
00000000
00000000
00010000
,
00000000
03001000
00011000
00010100
,
00000120
00000000
00000000
00000031
00000000
00000000
00000001
00000000
00000010
00000001
00000000
00000000
,
00001000
00000000
00000100
00001000
00000000
00000000
00000020
00000000
00000000
00010000
00000000
00000000
,
00000000
00001000
00000000
00000000
00000001
00000000
00000000
00001000
,
00000000
00000000
00010030
00000000
00001000
00010000
00100000
00000000
,
00010000
00100000
01000000
00000000
00010000
00010000
00010000
00000000
,
00100000
00001000
00011000
00010000
,
00000100
00001000
00000100
00000000
00000010
00000000
00000001
00000000
,
00000100
00000010
00000100
00000000
00001000
00000000
00010000
00000000
,
00001000
00100000
00001000
00000000
00100000
00000000
01000000
10000000
,
01000000
10000000
00010000
00000000
01000000
00000000
00010000
00000000
,
00100000
01000000
10000000
00000000
01000000
00000000
00100000
00000000
,
00001000
00010000
00001000
00000000
00010000
00000000
00000100
00000000
,
00000010
00000001
00001000
00000000
00000001
00000000
00000100
00000000
,
00001000
00020000
00000100
00000000
,
00000000
00000000
01000000
00000000
,
00000000
00000000
00000100
00000000
,
00000000
00000000
01000000
00000000
,
00000000
00000000
00000100
00000000
,
01000000
00000000
00000100
00000000
,
01000000
00000000
00000100
01000000
,
00030100
00000000
00000000
00000000
,
00022000
00000000
00003000
00000000
00001000
00001000
00031000
00000000
,
01000000
00010000
00100000
00001000
00010000
00000100
00000010
00000000
,
00000011
00001001
00000001
00000100
,
00000010
00000000
00010000
00000000
00001000
00000000
01000000
00100000
,
10000000
00010000
10000000
01000000
,
00100000
00000000
00001000
00000000
00010000
00000000
00000100
00000010
,
00000001
00000000
00001000
00000000
00000010
00000000
00001000
00000100
,
00000010
00000000
00000001
00000000
00001000
00000000
00000010
00010000
,
00001000
00000000
00100000
00000000
00001000
00000000
00010000
00001000
,
01000000
00010000
10000000
01000000
,
01100000
00000000
10010000
00000000
00010000
01000000
00100000
00000000
,
00010000
00000000
00001000
00000000
00010000
00000100
00000010
00000000
,
00001000
00000000
00010000
00000000
00000010
00001000
00000100
00000000
,
00000010
00000000
00000001
00000000
00000100
00000100
00000100
00000000
,
00000001
00000000
00000100
00000000
00000000
00001000
00000000
00000000
,
00010000
00000000
00000000
01000000
00000000
00000000
10000000
00000000
,
20020000
00000000
00000000
30030000
,
10000000
00000000
00010000
00000000
01000000
00100000
10000000
00000000
,
00010000
10000000
01000000
00000000
00100000
00010000
01000000
00000000
,
00001000
00010000
00000100
00000000
00010000
00001000
00000010
00000000
,
00000001
00001000
00000001
00001000
00000100
00000010
00000001
00000000
,
00001000
00000010
00000100
00000000
00000001
00000000
00001001
00000000
,
00001000
00000001
00000010
00000000
00000100
00001000
00000010
00000000
,
00010000
00001000
01000000
00000000
00001000
00010000
00100000
00000000
,
10000000
00010000
10000000
00010000
00100000
01000000
10000000
00000000
,
00100000
01000000
00010000
10010000
,
10000000
00010000
01000000
00010000
10000000
00100000
01000000
00000000
,
00010000
00100000
00001000
00010000
00000100
00010000
00001000
00000000
,
00000010
00000001
00001000
00000001
00000100
00001000
00010000
00000000
,
00001000
00010000
01000000
10000000
00010000
01000000
00100000
00000000
,
10000000
10000000
10000000
01000000
00100000
00010000
00010000
00000000
,
10000000
10000000
10000000
00100000
01000000
00010000
00100000
00000000
,
00001000
00010000
00001000
00010000
00001000
00010000
00001000
00010000
,
00002000
00000000
00003000
00000000
00010000
00001000
00000100
00000010
,
00010000
00001000
00000010
00000100
00010000
00001000
00000100
00000010
,
00020000
00000000
00001000
00031000
,
00010000
00000000
01000000
00000000
10000000
00000000
00100000
01000000
,
00100000
10000000
01000000
00010000
,
00001000
00001000
00010000
00010000
00000100
00000100
00001000
00001000
,
00000001
00000010
00000100
00001000
00002020
00000000
00000000
00000000
,
00003030
00000000
00000000
00000000
,
00000000
00000000
00000000
00000000
;
#NOTES:
     dance-double:
     :
     Hard:
     15:
     :
00000000
00000000
00000000
00000000
,
00000000
00000000
00000000
00000000
,
00000000
00000000
00000000
00000000
,
00000000
00000000
00000000
00000000
,
00000000
00000000
00000000
00000000
,
00000000
00000000
00000000
00000000
,
00000000
00000000
00000000
00000000
,
00000000
00000000
00000000
00000000
,
00000000
00000000
00000000
00000000
,
00000000
00000000
00000000
00000000
,
00001000
00010000
01000000
00010000
00001000
00100000
00102000
00000000
,
00013000
00001000
00000100
00001000
00010000
00000010
00020010
00000000
,
00031000
00010000
01000000
00010000
00001000
00100000
00102000
00000000
,
00013000
00001000
00000100
00001000
00010000
00000010
00020010
00000000
,
00031000
00001000
00010000
00010000
01000000
01000000
00010000
00010000
,
00001000
00001000
00000100
00000100
00001000
00001000
00010000
00010000
,
00002000
00010000
00010000
00010000
00010000
00010000
00010000
00010000
00013000
00000000
00000000
00000000
00000000
00000000
00000000
00000000
,
00000000
00000000
00020000
00100000
,
00000000
00000010
00000000
00000000
00000100
00000000
00000000
01000000
,
00000000
00000000
00000000
00000000
00031000
00000000
00000000
00000000
00010000
00001000
00010000
00000000
00000100
00000000
00001000
00000000
,
00000100
00000010
00000100
00000000
00000010
00000001
00000010
00000000
00000100
00001000
00000100
00000000
00001000
00000000
00000010
00000000
,
00010000
00001000
00011000
00000000
00002000
00000000
00000010
00000000
,
00000000
00100000
00000000
00000000
01000000
00000000
00000000
00000100
,
00000000
00000000
00013000
00000000
00001000
00002000
00010000
00023000
,
00100000
00230000
01000000
02300000
03020000
00230000
02300000
23000000
,
31000000
00100000
00010000
00000000
00100000
00000000
00001000
00000000
00020000
00000000
00000000
00000000
01000000
00000000
00000000
00000000
,
00000000
00000100
00000000
00000000
00000010
00000000
00000000
00100000
,
00000000
00000000
00031000
00000000
00022000
00033000
00020200
00030300
,
00000022
00000000
00000000
00000033
00000000
00000000
00002002
00000000
00000000
00003003
00000000
00000000
00000001
00000000
00000010
00000000
00000100
00000000
00001000
00000000
00000100
00000000
00010000
00000000
,
00001000
00010000
01000000
00100000
00000000
00000000
00002000
00000000
00000000
00000100
00000000
00000000
,
00000000
01000000
00000000
00000000
00100000
00000000
00000000
00000010
,
00000000
00000000
00013000
00000000
00002000
00023000
00230000
02300000
,
03020000
00100000
00030000
00100000
02000000
00000000
23000000
00000000
30100000
00000000
00100000
00000000
00010000
00000000
00010000
00000000
,
00001000
00010000
00001000
00010000
00001000
00000000
00000000
00000000
00102000
00000000
00000000
00000000
00013000
00000000
00001000
00000000
,
00000100
00000001
00000100
00000000
00020010
00000000
00031000
00010000
,
01000000
10000000
01000000
00000000
00102000
00000000
00013000
00001000
,
00000100
00000001
00000100
00000000
00020010
00000000
00031000
00010000
,
01000000
10000000
01000000
00100000
00102000
00000000
00013000
00001000
,
00000100
00000001
00000010
00000000
00020100
00000000
00031000
00010000
,
01000000
10000000
00100000
00000000
01002000
00000000
00013000
00001000
,
00000100
00000001
00000010
00000000
00020100
00000000
00031000
00010000
,
01000000
10000000
00100000
00010000
00022000
00000000
00033000
00000000
,
00001000
00000100
00000220
00000330
,
00001000
00000001
00001002
00001003
,
00001000
00001000
00000021
00000031
,
00000001
00000000
00000001
00000000
00000200
00000301
00000010
00000100
,
00002000
00003010
00010000
00001000
00020000
01030000
10000000
01000000
,
00200000
00000000
00310000
00000000
01000000
00000000
10000000
00000000
02000000
03100000
10000000
01000000
20000000
30010000
01000000
00100000
,
01100000
00000000
00000000
00000000
,
02200000
00000000
03300000
00000000
01000000
01000000
00100000
00100000
,
10000000
01000000
00100000
00010000
00001000
00000100
00001000
00000001
,
00001001
00000000
00011000
00000000
00010000
00100000
00010000
00100000
,
10000000
01000000
10000000
01000000
00010000
00001000
00010000
00001000
,
00000010
00000001
00000010
00000001
00000100
00001000
00000100
00001000
,
00010000
00100000
00010000
00100000
10000000
01000000
10000000
01000000
,
00010000
00001000
00000010
00001000
00010000
00000010
00001000
00000100
,
00010000
00001000
00010000
00100000
00010000
00001000
00100000
00010000
,
01000000
00001000
00010000
00001000
00000100
00001000
00010000
00000100
,
00001000
00000010
00010000
00001000
00010000
01000000
00010000
00001000
,
01001000
00000000
10100000
00000000
10000000
01000000
00100000
00010000
,
01000000
00001000
01000000
00000000
00001000
00000000
00010000
00000000
00001000
00000000
01000000
00000000
00010000
00000000
00100000
00000000
,
01000000
10000000
01000000
00000000
10000000
00000000
00010000
00000000
01000000
00000000
00001000
00000000
00010000
00000000
00000100
00000000
,
00000010
00000001
00000010
00000000
00000100
00000000
00001000
00000000
00000010
00001000
00000001
00000000
00000010
00000000
00000100
00000000
,
00001000
00000000
00001010
00000000
00000000
00010010
00000000
00000000
,
00011000
00000000
00000000
00101000
00000000
00000000
00011000
00000000
,
00001000
00010000
00001000
00010000
00001000
00010000
00001000
00010000
00001000
00010000
00001000
00010000
00001000
00010000
00001000
00010000
,
00001000
00000000
00000000
00001000
00010000
00000000
01000000
00000000
10000000
01000000
10000000
00000000
00100000
00000000
01000000
00000000
,
01010000
00000000
00010000
00000000
00100000
00000000
00010000
00000000
10000000
00000000
00100000
00000000
01000000
00000000
00001000
00010000
,
00001000
00000000
00010000
00000000
00000100
00000000
00000010
00000000
00000001
00000000
00000100
00000000
00000010
00000000
00001000
00000001
,
00000010
00001000
00010000
01000000
00100000
00010000
00100000
00001000
,
01000000
00000000
00100000
00000000
10000000
00000000
00010000
00000000
01000000
00100000
00000000
00100000
10000000
00000000
00010000
00000000
,
00100000
00000000
00001000
00000000
00010000
00000000
00100000
00000000
01000000
00000000
00001000
00000000
00010000
00000000
00000100
00001000
,
00000010
00000000
00010000
00000000
00001000
00000000
01000000
00000000
00100000
00000000
10000000
00000000
00010000
00000000
10000000
01000000
,
10000000
00100000
00010000
00001000
00000100
00000010
00001000
00000001
,
00000010
00000000
00000100
00000000
00001000
00000000
00000010
00000100
00000010
00000100
00000000
00000001
00001000
00000000
00000000
00000000
,
00000001
00000000
00000010
00000000
00000100
00000000
00001000
00000000
00000001
00000000
00000100
00000000
00000010
00000000
00010000
00001000
,
00010000
00000000
00001000
00000000
00100000
00000000
01000000
00000000
10000000
00000000
00010000
00000000
01000000
00000000
00010000
10000000
,
01000000
00010000
00001000
00000010
00000001
00001000
00000100
00000010
,
00000011
00000001
00001000
00001010
00000010
00000100
00000101
00000001
,
00000010
00000010
00000100
00000100
00001000
00001000
00001010
00000000
,
00010000
00010000
00001000
00001000
00000100
00000100
00000110
00000000
,
00000001
00001000
00000001
00001000
00000001
00001000
00000001
00001000
00000001
00001000
00000001
00001000
00000001
00001000
00000001
00001000
,
00000200
00000000
00000000
00000000
00000300
00000000
00000000
00000000
00000010
00001000
00010000
00001000
01000000
00100000
00010000
00001000
,
00010000
00000100
00000010
00001000
00010000
00001000
01000000
00100000
00010000
00001000
00010000
00000100
00000010
00001000
00010000
01000000
,
20000000
00000000
00000000
00000000
00100000
00100000
30100000
00000000
,
10000000
00000000
00000000
00000000
01000000
00000000
00000000
00000000
00010000
00000000
00000000
00000000
00001000
00010000
00001000
00000000
,
00010000
00000000
00000000
00000000
00001000
00000000
00000000
00000000
00000100
00000000
00000000
00000000
00000001
00000010
00000001
00000000
,
00000010
00000000
00000100
00000000
00001000
00000000
00000010
00000000
00010000
00001000
00010000
00001000
00010000
00000000
01000000
00000000
,
10000000
01000000
10000000
00000000
00100000
00000000
01000000
00000000
00010000
00100000
00010000
00000000
00100000
00000000
00001000
00000000
00022000
00000000
00000000
00000000
00000000
00000000
00000000
00000000
00000000
00000000
00000000
00000000
00000000
00000000
00000000
00000000
,
00033000
00000000
00000000
00000000
,
00000000
00000000
00000000
00000000
;
