
//----- song ID: tktk -----//
#TITLE:ちくたく2ちく2ぱ;
#ARTIST:音戯探偵ひなビタ♫;
#TITLETRANSLIT:Tick-tack2 tick2 pa;
#ARTISTTRANSLIT:Otogi tantei HinaBitter;
#BANNER:Tick-tack2 tick2 pa.png;
#BACKGROUND:Tick-tack2 tick2 pa-bg.png;
#CDTITLE:./CDTitles/DDR WORLD.png;
#MUSIC:Tick ​​tock 2 tick 2 pa.ogg;
#SAMPLESTART:48.316;
#SAMPLELENGTH:15;
#BPMS:0=190;
#BGSTAGE:;
#NOTES:
     dance-single:
     :
     Beginner:
     3:
     :
0000
0000
0000
0000
,
0000
0000
0000
0000
,
0000
0000
0000
0000
,
0000
0000
0000
0000
,
0001
0000
0000
0000
,
0001
0000
0000
0010
,
0000
0000
0000
0010
,
0000
0000
1000
0000
,
0000
0000
1000
0000
,
0000
0100
0000
0000
,
0000
0100
0000
0000
,
0001
0000
0000
0000
,
0001
0000
0000
0000
,
0001
0000
0000
0000
,
0001
0000
0000
0010
,
0000
0000
0000
0010
,
0000
0000
1000
0000
,
0000
0000
1000
0000
,
0000
0100
0000
0000
,
0000
0100
0000
0000
,
0001
0000
0000
0000
,
0001
0000
0010
0000
,
0000
0000
0010
0000
,
1000
0000
0000
0000
,
1000
0000
0100
0000
,
0000
0000
0100
0000
,
0000
0002
0000
0000
,
0000
0003
0000
2000
,
0000
0000
0000
3000
,
0000
0002
0000
0000
,
0000
0003
0000
2000
,
0000
0000
0000
3000
,
0000
0001
0000
0000
,
0000
0010
0000
0000
,
0000
0010
0000
0000
,
0000
1000
0000
0000
,
0000
1000
0000
0000
,
0000
0000
0000
0000
,
0000
1000
0000
0000
,
0000
1000
0000
0000
,
0000
0010
0000
0000
,
0000
0000
0000
0000
,
0000
0010
0000
0000
,
0000
0010
0000
0000
,
0000
0001
0000
0000
,
0000
0000
0000
0000
,
0000
0001
0000
0000
,
0000
0010
0000
0000
,
0000
0001
0000
0000
,
0000
0000
0000
0000
,
0000
0010
0000
0000
,
0000
1000
0000
0000
,
0000
0010
0000
0000
,
0000
0000
0000
0000
,
0000
2000
0000
0000
,
0000
3000
0000
0000
,
0000
0020
0000
0000
,
0000
0030
0000
0000
,
0000
0002
0000
0000
,
0000
0003
0000
0000
,
0000
0020
0000
0000
,
0000
0030
0000
0000
,
0000
1000
0000
0000
,
0000
0000
0000
0000
,
0000
1001
0000
0000
,
0000
0000
0000
0000
,
0000
1001
0000
0000
,
0000
0000
0000
0000
,
0000
0001
0000
0001
,
0000
0010
0000
0000
,
0000
0010
0000
0000
,
0000
0000
0000
0000
,
0000
0010
0000
0010
,
0000
1000
0000
0000
,
0000
1000
0000
0000
,
0000
0000
0000
0000
,
0000
1000
0000
1000
,
0000
0010
0000
0000
,
0000
0010
0000
0000
,
0000
0000
0000
0000
,
0000
0010
0000
0010
,
0000
0001
0000
0000
,
0000
0001
0000
0000
,
0000
0000
0000
0000
,
0000
1001
0000
0000
,
0000
0000
0000
0000
,
0000
0010
0000
0000
,
0000
0000
0000
0000
,
0000
0000
0000
0000
,
0000
0000
0000
0000
,
0000
0000
0020
0000
,
0000
0000
0000
0000
,
0000
0030
0000
0000
,
0000
0000
0000
0000
;
#NOTES:
     dance-single:
     :
     Easy:
     7:
     :
0000
0000
0000
0000
,
0000
0000
0000
0000
,
0000
0000
0000
0000
,
0000
0000
0000
0000
,
0000
0001
1000
0001
,
0100
0010
0100
0000
,
0001
0010
0001
1000
,
0100
1000
0000
0001
,
0010
0100
1000
0100
,
0010
0000
0001
0100
,
0001
0100
0010
1000
,
0000
0010
1000
0010
,
0100
0001
1000
0000
,
0001
1000
0001
0000
,
1000
0001
1000
0010
,
0100
0010
0000
0100
,
0010
0100
0001
0100
,
0001
0000
0100
0001
,
0100
0010
1000
0010
,
0000
1000
0010
1000
,
0001
1000
0100
0010
,
0001
0000
1000
0010
,
0100
0001
1000
0000
,
0001
0010
0001
0100
,
0001
0000
1000
0010
,
1000
0100
1000
0010
,
1000
0002
0000
0000
,
0003
0001
0010
0200
,
0000
0000
0300
0100
,
1000
0002
0000
0000
,
0003
0001
0100
0020
,
0000
0000
0030
0010
,
1000
0001
0000
1001
,
0000
1000
0000
1001
,
0000
0110
0000
1001
,
0000
0100
0010
1001
,
0000
0000
1000
0100
,
1000
0100
0010
0001
,
0001
0000
0001
0010
,
0001
0100
0010
1000
,
0010
0000
1000
0100
,
1000
0001
1000
0010
,
0000
0000
1000
0010
,
0100
0001
1000
0100
,
0010
0000
0010
0001
,
0100
0010
0100
0010
,
0000
2000
0000
0000
,
0000
3000
0000
0000
,
0000
0000
0001
0100
,
0000
0010
0100
0010
,
0000
0000
1000
0010
,
0100
0001
1000
0001
,
1000
0000
1000
0100
,
0010
0001
0100
0001
,
0000
1000
0100
0001
,
0000
0001
0100
1000
,
0000
0001
0100
1000
,
0000
1000
0100
0001
,
0000
1000
0010
0001
,
0000
0001
0010
1000
,
0000
0001
0010
1000
,
0000
1000
0010
0001
,
0000
0002
0000
0000
,
0000
0003
0000
0000
,
0000
1000
0001
1000
,
0000
0001
1000
0001
,
0000
1000
0001
1000
,
0000
0001
1000
0001
,
0000
1000
1000
0100
,
0000
0100
0010
0001
,
0000
0001
0001
0100
,
0000
0100
0010
1000
,
0000
1000
1000
0010
,
0100
0001
1000
0001
,
0000
0001
0001
0010
,
0100
1000
0001
1000
,
0000
0001
0100
0001
,
0010
0001
1000
0001
,
0000
1000
0100
1000
,
0010
1000
0001
1000
,
0000
0001
0100
0010
,
1000
0001
0010
0100
,
1000
0100
0010
0001
,
1000
0010
0100
1001
,
0000
0001
0010
1000
,
0000
1000
0010
0001
,
0000
0001
1000
0001
,
2000
3000
0000
0000
0000
0000
0000
0000
0000
0000
0000
0000
0000
0000
0000
0000
0000
0000
0000
0000
0000
0000
0000
0000
0000
0000
0000
0000
0000
0000
0000
0000
2000
3000
0000
0000
0000
0000
0000
0000
0000
0000
0000
0000
0000
0000
0000
0000
0000
0000
0000
0000
0000
0000
0000
0000
0000
0000
0000
0000
0000
0000
0000
0000
,
2000
3000
0000
0000
0000
0000
0000
0000
0000
0000
0000
0000
0000
0000
0000
0000
0000
0000
0000
0000
0000
0000
0000
0000
0000
0000
0000
0000
0000
0000
0000
0000
2000
3000
0000
0000
0000
0000
0000
0000
0000
0000
0000
0000
0000
0000
0000
0000
0000
0000
0000
0000
0000
0000
0000
0000
0000
0000
0000
0000
0000
0000
0000
0000
,
2000
3000
0000
0000
0000
0000
0000
0000
0000
0000
0000
0000
0000
0000
0000
0000
0000
0000
0000
0000
0000
0000
0000
0000
0000
0000
0000
0000
0000
0000
0000
0000
2000
3000
0000
0000
0000
0000
0000
0000
0000
0000
0000
0000
0000
0000
0000
0000
0000
0000
0000
0000
0000
0000
0000
0000
0000
0000
0000
0000
0000
0000
0000
0000
,
2000
3000
0000
0000
0000
0000
0000
0000
0000
0000
0000
0000
0000
0000
0000
0000
0000
0000
0000
0000
0000
0000
0000
0000
0000
0000
0000
0000
0000
0000
0000
0000
2000
0000
0000
0000
0000
0000
0000
0000
0000
0000
0000
0000
0000
0000
0000
0000
0000
0000
0000
0000
0000
0000
0000
0000
0000
0000
0000
0000
0000
0000
0000
0000
,
0000
0000
0000
0000
,
0000
3000
0000
0000
,
0000
0000
0000
0000
;
#NOTES:
     dance-single:
     :
     Medium:
     10:
     :
0000
0000
0000
0000
,
0000
0000
0000
0000
,
0000
0000
0000
0000
,
0000
0000
0000
0000
,
0000
0001
1000
0000
0001
1000
0001
0000
,
0100
0010
0100
0000
0010
0000
1000
0000
,
0100
0000
0010
0001
0010
0000
0001
0000
,
0100
0000
0010
1000
0000
0010
0100
0000
,
0001
0000
1000
0000
0100
0010
0100
0000
,
0010
0000
0000
0001
1000
0000
0001
0000
,
0100
0000
1000
0000
0100
0000
0001
0010
,
0000
0001
0100
0000
0010
0000
1000
0000
,
0100
0010
0100
0000
1000
0000
1001
0000
,
0001
0010
0001
0001
,
1000
0010
1000
0100
,
1000
0100
0100
1000
,
0001
0100
0001
0010
,
1000
0010
0001
0010
,
0001
0001
0100
1000
,
0100
0001
0100
0001
,
1000
0100
0010
0001
,
0100
0010
1000
0010
,
0100
0001
0010
0100
,
1000
0100
0001
0100
,
1000
0001
0100
1000
,
0100
0001
0010
1000
,
0010
0001
0000
0101
,
0000
0110
0000
1000
,
0000
1100
0000
0110
,
0000
0001
0000
0011
,
0000
0110
0000
1000
,
0000
1010
0000
0110
,
0000
0000
0000
0000
0001
0000
0000
0100
0000
0000
0001
0000
0100
0000
0000
0000
,
0010
0000
0000
0000
1000
0000
0000
0100
0000
0000
1000
0000
0100
0000
0000
0000
,
0010
0000
0000
0000
0001
0000
0000
0100
0000
0000
0010
0000
1000
0000
0000
0100
,
0000
0000
0010
0000
0001
0000
0000
0010
0000
0000
0100
0000
1000
0000
0000
0000
,
0000
0000
0000
0001
1000
0000
0010
0100
,
0001
0000
0010
0100
1000
0000
0001
0000
,
1001
0000
0000
1000
0100
0000
1000
0010
,
1000
0000
0001
0000
0100
0000
0010
1000
,
0010
0000
0000
0100
0001
0000
0100
1000
,
0100
0001
1000
0100
,
0110
0000
0010
0000
0001
0000
0100
0001
,
0010
0000
0100
0000
1000
0000
0010
0100
,
0010
1000
0000
0010
0100
0000
0001
1000
,
0001
0010
0100
0110
,
1001
2000
0000
0000
,
3000
0002
0000
0000
,
0003
0000
0000
1000
0100
0000
0010
0001
,
0100
0000
0010
1000
0001
1000
0010
0000
,
0110
0000
0000
0100
0001
0100
0010
1000
,
0001
0000
1000
0100
0010
0000
0001
1000
,
0001
1000
0000
0001
0010
0000
1000
0010
,
0001
0010
0100
0110
,
1001
0000
0001
0000
0100
0000
0010
0010
,
0010
0000
1000
0000
0100
0000
0010
0010
,
0010
0000
0001
0100
1000
0000
0100
0000
,
0001
0000
1000
0100
0001
0000
0100
0000
,
1000
0000
0001
0100
0010
0000
1010
0000
,
1001
0000
1000
0100
0010
0000
0011
0000
,
1001
0000
1000
0100
0010
0000
0001
0100
,
0010
1001
0110
1001
,
0000
0000
0000
0000
1000
0000
0000
0001
0000
0000
0010
0000
0001
0000
0000
1000
,
0000
0010
1000
0001
0010
0000
0001
1000
,
0010
0000
1000
0001
1000
0000
0001
1000
,
0001
0000
1000
0001
1000
0000
0001
1000
,
0001
0000
1000
0001
1000
0000
0001
1000
,
0001
0100
0010
1001
,
0000
0000
1000
0100
1000
0100
1000
0100
,
1000
0100
0100
0010
,
0010
0000
0001
0100
0001
0100
0001
0100
,
0001
0100
0100
0010
,
0010
0000
1000
0010
1000
0010
1000
0010
,
1000
0010
0010
0100
,
0100
0000
0001
0010
0001
0010
0001
0010
,
0001
0010
0010
0100
,
0100
0000
1000
0010
0100
0000
0010
0000
,
1000
0000
0001
0010
0100
0000
0010
0000
,
0001
0000
1000
0100
0010
0000
0100
0000
,
1000
0000
0001
0100
0010
0000
0100
0000
,
0001
0000
0010
0001
0100
0000
0001
0000
,
1000
0000
0100
1000
0010
0000
1000
0000
,
0001
0000
0010
0001
0100
0000
0010
1000
,
0100
0010
0100
1001
,
0000
0000
0000
0001
0100
0000
0001
1000
,
0100
0000
0010
0001
1000
0000
0010
0000
,
1001
0000
0001
1000
0001
1000
0001
0000
,
2000
3000
0000
0000
0000
0000
0000
0000
0000
0000
0000
0000
0000
0000
0000
0000
0000
0000
0000
0000
0000
0000
0000
0000
0000
0000
0000
0000
0000
0000
0000
0000
2000
3000
0000
0000
0000
0000
0000
0000
0000
0000
0000
0000
0000
0000
0000
0000
0000
0000
0000
0000
0000
0000
0000
0000
0000
0000
0000
0000
0000
0000
0000
0000
,
2000
3000
0000
0000
0000
0000
0000
0000
0000
0000
0000
0000
0000
0000
0000
0000
0000
0000
0000
0000
0000
0000
0000
0000
0000
0000
0000
0000
0000
0000
0000
0000
2000
3000
0000
0000
0000
0000
0000
0000
0000
0000
0000
0000
0000
0000
0000
0000
0000
0000
0000
0000
0000
0000
0000
0000
0000
0000
0000
0000
0000
0000
0000
0000
,
2000
3000
0000
0000
0000
0000
0000
0000
0000
0000
0000
0000
0000
0000
0000
0000
0000
0000
0000
0000
0000
0000
0000
0000
0000
0000
0000
0000
0000
0000
0000
0000
2000
3000
0000
0000
0000
0000
0000
0000
0000
0000
0000
0000
0000
0000
0000
0000
0000
0000
0000
0000
0000
0000
0000
0000
0000
0000
0000
0000
0000
0000
0000
0000
,
2000
3000
0000
0000
0000
0000
0000
0000
0000
0000
0000
0000
0000
0000
0000
0000
0000
0000
0000
0000
0000
0000
0000
0000
0000
0000
0000
0000
0000
0000
0000
0000
2000
0000
0000
0000
0000
0000
0000
0000
0000
0000
0000
0000
0000
0000
0000
0000
0000
0000
0000
0000
0000
0000
0000
0000
0000
0000
0000
0000
0000
0000
0000
0000
,
0000
0000
0000
0000
,
0000
3000
0000
0000
,
0000
0000
0000
0000
;
#NOTES:
     dance-single:
     :
     Hard:
     14:
     :
0000
0000
0000
0000
,
0000
0000
0000
0000
,
0000
0000
0000
0000
,
0000
0000
0000
0000
,
0000
0001
1000
0001
0100
0010
0100
0010
,
1000
0010
0100
0001
1000
0000
0000
0001
,
0010
0001
0100
0010
1000
0010
1000
0001
,
0010
0100
1000
0100
0000
0010
0001
0100
,
0001
0010
0001
0010
0001
1000
0010
0100
,
0001
0000
0000
1000
0100
0001
0100
1000
,
0001
0000
0100
0000
0010
0000
1000
0000
0100
0000
1000
0000
0010
0100
0010
0100
,
0000
0010
1000
0100
0001
1000
0010
0001
,
0100
0010
1000
0001
1001
0000
0110
0000
,
0001
1000
0001
1000
0010
0100
0010
0100
,
0001
1000
0010
0100
0001
0000
1000
0001
,
1000
0001
0010
0100
0010
0100
1000
0001
,
0010
0100
1000
0000
0001
0010
0100
0010
,
0001
0100
0010
0001
0010
1000
0010
0100
,
0001
0000
1000
0100
0010
0001
1000
0100
,
0001
0000
0100
0000
1000
0000
0001
0000
0100
0000
0010
0000
1000
0001
1000
0001
,
1000
0010
0100
0001
0010
0100
0001
0100
,
0010
0001
1000
0000
0001
0100
0010
1000
,
0100
0010
1000
0010
0100
1000
0001
0000
,
1000
0010
0001
0010
1000
0100
0001
0100
,
1000
0001
0100
0000
0001
1000
0001
1000
,
0100
0010
0100
0010
0001
1000
0100
0010
,
0001
1000
0001
1000
0001
0000
0000
0100
0000
0000
0001
0000
1000
0000
0000
0100
,
0000
0000
1000
0000
0001
0000
0000
0010
0000
0000
0001
0000
1000
0000
0000
0010
,
0000
0000
0100
0000
0001
0000
0000
0100
0000
0000
1000
0000
0100
0000
0000
0001
,
0000
0000
1000
0000
0100
0000
0000
0010
0000
0000
0001
0000
0010
0000
0000
1000
,
0000
0000
0010
0000
0001
0000
0000
0100
0000
0000
0010
0000
1000
0000
0000
0100
,
0000
0000
0001
0000
0100
0000
0000
0010
0000
0000
1000
0000
0010
0000
0001
0000
,
1000
0000
0001
0000
1000
0000
0000
0010
0000
0000
0100
0000
0001
0000
0000
0010
,
0000
0000
0100
0000
1000
0000
0000
0010
0000
0000
0100
0000
0001
0000
0000
0010
,
0000
0100
1000
0100
1000
0100
0010
0001
,
0010
0000
0001
0000
0100
0010
0100
0000
0001
1000
0001
1000
0001
0000
0000
0000
,
0000
0000
0000
1000
0010
0100
0001
0010
,
0001
0100
0001
0010
0100
1000
1100
0000
,
0011
0000
0000
0001
0100
0001
0010
0100
,
1000
0010
0001
0010
1000
0010
0001
0010
,
1000
0010
0000
1000
0010
0100
0001
0010
,
0100
1000
0100
0001
0100
1000
0100
0000
,
1000
0001
1000
0001
1000
0000
0100
0000
0010
0000
0001
0000
0100
0000
0010
0000
,
1000
0100
0001
0100
0010
0001
0100
0010
,
1000
0001
0000
1000
0010
0100
0010
1000
,
0100
0010
0001
0000
0011
0000
1001
0000
,
0001
1000
0001
1000
0001
0000
0000
1000
0000
0000
0010
0000
1000
0000
0000
0100
,
0000
0010
0001
0000
1001
0000
1000
0100
,
1000
0010
0000
1000
0100
0001
1000
0010
,
0001
1000
0100
0010
0100
1000
0001
0000
,
1000
0001
1000
0001
1000
0000
0010
0000
0100
0000
0001
0000
0010
0000
1000
0000
,
0010
0001
1000
0100
0001
0100
0010
0001
,
1000
0010
0000
1000
0001
0100
0001
1000
,
0001
0100
0010
1000
0100
1000
0010
0000
,
0100
0010
0100
0010
0100
0000
0001
0000
1000
0000
0001
0000
0100
0000
0100
0000
,
0100
0000
0010
1000
0001
1000
0010
0010
,
0010
0000
1000
0100
0010
0001
0011
0000
,
1001
0000
0001
0100
0010
1000
1010
0000
,
1001
0000
0001
0100
0010
0001
1000
0100
,
0010
0000
1000
0100
0010
1000
0001
0100
,
0010
0000
0001
0010
1000
0001
0100
1000
,
0001
1000
1001
0000
0110
0000
1001
0000
,
0001
1000
0001
1000
0001
0000
0000
0100
0000
0000
0100
0000
1000
0000
0000
0100
,
0000
0100
0001
0010
1000
0010
0001
0010
,
1000
0010
0001
1000
0001
1000
0001
1000
,
0001
1000
0001
1000
0001
1000
0001
1000
,
0001
1000
0001
1000
0001
1000
0001
1000
,
0001
1000
0001
0000
0110
0000
1001
0000
,
0000
0000
1000
0100
0010
0100
1000
0010
,
0100
0010
1000
0100
0010
0001
1000
0100
,
0010
0001
0000
1000
0001
0100
0010
0100
,
0001
1000
0100
0010
0001
0010
0001
0000
,
1000
0001
1000
0001
1000
0000
0100
0000
1000
0000
0001
0000
1000
0000
0010
0000
,
0100
0001
0010
0001
0100
0001
0010
0001
,
1000
0100
0000
1000
0010
1000
0001
0100
,
0001
0100
0010
0000
1010
0000
1001
0000
,
0000
0000
0001
0100
1000
0100
0001
0010
,
1000
0010
0001
0100
1000
0100
0001
0010
,
1000
0010
0001
1000
0010
0001
0010
1000
,
0100
0001
0100
1000
0010
0001
0010
0000
,
1000
0001
1000
0001
1000
0000
0100
0000
0001
0000
1000
0000
0010
0000
0001
0000
,
0100
1000
0001
0010
1000
0100
0001
1000
,
0010
0001
0100
1000
0001
0010
1000
0100
,
0001
1000
0010
0001
0100
1000
0001
0000
,
0010
0100
0010
0100
0010
0000
1000
0000
0001
0000
0100
0000
0010
0000
1000
0000
,
0001
0100
0010
0100
0010
0100
0010
0000
,
0110
0000
0001
1000
0001
1000
0001
0000
,
2000
3000
0000
0000
0000
0000
0000
0000
0000
0000
0000
0000
0000
0000
0000
0000
0000
0000
0000
0000
0000
0000
0000
0000
0000
0000
0000
0000
0000
0000
0000
0000
2000
3000
0000
0000
0000
0000
0000
0000
0000
0000
0000
0000
0000
0000
0000
0000
0000
0000
0000
0000
0000
0000
0000
0000
0000
0000
0000
0000
0000
0000
0000
0000
,
2000
3000
0000
0000
0000
0000
0000
0000
0000
0000
0000
0000
0000
0000
0000
0000
0000
0000
0000
0000
0000
0000
0000
0000
0000
0000
0000
0000
0000
0000
0000
0000
2000
3000
0000
0000
0000
0000
0000
0000
0000
0000
0000
0000
0000
0000
0000
0000
0000
0000
0000
0000
0000
0000
0000
0000
0000
0000
0000
0000
0000
0000
0000
0000
,
2000
3000
0000
0000
0000
0000
0000
0000
0000
0000
0000
0000
0000
0000
0000
0000
0000
0000
0000
0000
0000
0000
0000
0000
0000
0000
0000
0000
0000
0000
0000
0000
2000
3000
0000
0000
0000
0000
0000
0000
0000
0000
0000
0000
0000
0000
0000
0000
0000
0000
0000
0000
0000
0000
0000
0000
0000
0000
0000
0000
0000
0000
0000
0000
,
2000
3000
0000
0000
0000
0000
0000
0000
0000
0000
0000
0000
0000
0000
0000
0000
0000
0000
0000
0000
0000
0000
0000
0000
0000
0000
0000
0000
0000
0000
0000
0000
2000
0000
0000
0000
0000
0000
0000
0000
0000
0000
0000
0000
0000
0000
0000
0000
0000
0000
0000
0000
0000
0000
0000
0000
0000
0000
0000
0000
0000
0000
0000
0000
,
0000
0000
0000
0000
,
0000
3000
0000
0000
,
0000
0000
0000
0000
;
#NOTES:
     dance-double:
     :
     Easy:
     7:
     :
00000000
00000000
00000000
00000000
,
00000000
00000000
00000000
00000000
,
00000000
00000000
00000000
00000000
,
00000000
00000000
00000000
00000000
,
00000000
00001000
00010000
00001000
,
00010000
00100000
10000000
00000000
,
10000000
00010000
10000000
01000000
,
00100000
01000000
00000000
00100000
,
00010000
00100000
00001000
00010000
,
00001000
00000000
00010000
00001000
,
00010000
00000100
00001000
00000100
,
00000000
00000010
00000001
00000010
,
00000001
00001000
00000001
00000000
,
00001000
00000001
00001000
00000000
,
00000010
00001000
00000010
00010000
,
00000010
00010000
00000000
00001000
,
00010000
00001000
01000000
00001000
,
01000000
00000000
00010000
01000000
,
00010000
10000000
00010000
10000000
,
00000000
01000000
00100000
01000000
,
10000000
00100000
01000000
00010000
,
01000000
00000000
00010000
01000000
,
00010000
00100000
00001000
00000000
,
00010000
00001000
00010000
00000100
,
00010000
00000000
00000100
00001000
,
00000100
00000010
00000001
00001000
,
00000001
00002000
00000000
00000000
,
00003000
00001000
00000000
00000200
,
00000000
00000000
00000300
00000100
,
00000000
00020000
00000000
00000000
,
00030000
00010000
00000000
00002000
,
00000000
00000000
00003000
00001000
,
00000000
00010000
00000000
00001000
,
00000000
01000000
00000000
00010000
,
00000000
10010000
00000000
01100000
,
00000000
10000000
00010000
10000000
,
00000000
00000000
10000000
00100000
,
10000000
00010000
01000000
00010000
,
00010000
00000000
00010000
01000000
,
00010000
00100000
00001000
00010000
,
00001000
00000000
00001000
00010000
,
00001000
00010000
00000010
00001000
,
00000000
00000000
00000001
00001000
,
00000001
00000100
00000010
00001000
,
00000010
00000000
00000010
00001000
,
00000010
00010000
00001000
00010000
,
00000000
00002000
00000000
00000000
,
00000000
00003000
00000000
00000000
,
00000000
00000000
00001000
00010000
,
00000000
00001000
01000000
00010000
,
00000000
00000000
00010000
00100000
,
01000000
10000000
00010000
10000000
,
00010000
00000000
10000000
00100000
,
10000000
01000000
00100000
00010000
,
00000000
10000000
01000000
00010000
,
00000000
00010000
00001000
00000010
,
00000000
00000001
00000100
00001000
,
00000000
00001000
00010000
00100000
,
00000000
10000000
01000000
00100000
,
00000000
00001000
00010000
00001000
,
00000000
00010000
00000100
00001000
,
00000000
00000100
00000010
00000001
,
00000000
00000001
00000000
00001000
,
00000000
00000100
00000000
00010000
,
00000000
00001000
00010000
00001000
,
00000000
00010000
00001000
00010000
,
00000000
00001000
00010000
00001000
,
00000000
00010000
00001000
00010000
,
00000000
00001000
00000000
01000000
,
00000000
00010000
01000000
00010000
,
00000000
10000000
00000000
01000000
,
00000000
00100000
00010000
00100000
,
00000000
00010000
00100000
00001000
,
00010000
00001000
00010000
00000100
,
00000000
00001000
00000010
00010000
,
00000010
00010000
00001000
00010000
,
00000000
00001000
00010000
00001000
,
01000000
00010000
00100000
00010000
,
00000000
01000000
00010000
10000000
,
01000000
00100000
00001000
00010000
,
00000000
00010000
00001000
00010000
,
00000100
00001000
00000010
00001000
,
00000000
00000100
00001000
00000001
,
00000100
00000010
00010000
00001000
,
00000000
00001000
00100000
00010000
,
01000000
00001000
00010000
00000010
,
00001000
00000100
00010000
00001000
,
00020000
00030000
00000000
00000000
00000000
00000000
00000000
00000000
00000000
00000000
00000000
00000000
00000000
00000000
00000000
00000000
00000000
00000000
00000000
00000000
00000000
00000000
00000000
00000000
00000000
00000000
00000000
00000000
00000000
00000000
00000000
00000000
00020000
00030000
00000000
00000000
00000000
00000000
00000000
00000000
00000000
00000000
00000000
00000000
00000000
00000000
00000000
00000000
00000000
00000000
00000000
00000000
00000000
00000000
00000000
00000000
00000000
00000000
00000000
00000000
00000000
00000000
00000000
00000000
,
00020000
00030000
00000000
00000000
00000000
00000000
00000000
00000000
00000000
00000000
00000000
00000000
00000000
00000000
00000000
00000000
00000000
00000000
00000000
00000000
00000000
00000000
00000000
00000000
00000000
00000000
00000000
00000000
00000000
00000000
00000000
00000000
00020000
00030000
00000000
00000000
00000000
00000000
00000000
00000000
00000000
00000000
00000000
00000000
00000000
00000000
00000000
00000000
00000000
00000000
00000000
00000000
00000000
00000000
00000000
00000000
00000000
00000000
00000000
00000000
00000000
00000000
00000000
00000000
,
00020000
00030000
00000000
00000000
00000000
00000000
00000000
00000000
00000000
00000000
00000000
00000000
00000000
00000000
00000000
00000000
00000000
00000000
00000000
00000000
00000000
00000000
00000000
00000000
00000000
00000000
00000000
00000000
00000000
00000000
00000000
00000000
00020000
00030000
00000000
00000000
00000000
00000000
00000000
00000000
00000000
00000000
00000000
00000000
00000000
00000000
00000000
00000000
00000000
00000000
00000000
00000000
00000000
00000000
00000000
00000000
00000000
00000000
00000000
00000000
00000000
00000000
00000000
00000000
,
00020000
00030000
00000000
00000000
00000000
00000000
00000000
00000000
00000000
00000000
00000000
00000000
00000000
00000000
00000000
00000000
00000000
00000000
00000000
00000000
00000000
00000000
00000000
00000000
00000000
00000000
00000000
00000000
00000000
00000000
00000000
00000000
00020000
00000000
00000000
00000000
00000000
00000000
00000000
00000000
00000000
00000000
00000000
00000000
00000000
00000000
00000000
00000000
00000000
00000000
00000000
00000000
00000000
00000000
00000000
00000000
00000000
00000000
00000000
00000000
00000000
00000000
00000000
00000000
,
00000000
00000000
00000000
00000000
,
00000000
00030000
00000000
00000000
,
00000000
00000000
00000000
00000000
;
#NOTES:
     dance-double:
     :
     Medium:
     10:
     :
00000000
00000000
00000000
00000000
,
00000000
00000000
00000000
00000000
,
00000000
00000000
00000000
00000000
,
00000000
00000000
00000000
00000000
,
00000000
00001000
00010000
00000000
00001000
00010000
00001000
00000000
,
00010000
00001000
00010000
00000000
00001000
00000000
00010000
00000000
,
00000100
00000000
00001000
00000010
00001000
00000000
00000001
00000000
,
00000100
00000000
00000001
00000010
00000000
00000100
00001000
00000000
,
00000100
00000000
00010000
00000000
00001000
00010000
00001000
00000000
,
00010000
00000000
00000000
00001000
01000000
00000000
00010000
00000000
,
01000000
00000000
00100000
00000000
10000000
00000000
01000000
00100000
,
00000000
00010000
10000000
00000000
01000000
00000000
00010000
00000000
,
00001000
00010000
00001000
00000000
00010000
00000000
00010000
00000000
,
00001000
00010000
00001000
00000010
,
00000001
00001000
00000001
00000100
,
00001000
00010000
00001000
00010000
,
00100000
10000000
00010000
10000000
,
01000000
00100000
01000000
00010000
,
00001000
00010000
00001000
00000010
,
00000001
00000010
00000001
00001000
,
00000001
00000010
00000100
00000010
,
00001000
00010000
01000000
00100000
,
01000000
10000000
00100000
01000000
,
00100000
00010000
00001000
00000100
,
00000010
00000100
00000001
00000100
,
00000010
00010000
00001000
01000000
,
00010000
10000000
00000000
11000000
,
00000000
01100000
00000000
00100000
,
00000000
00101000
00000000
00011000
,
00000000
00010000
00000000
00010100
,
00000000
00001100
00000000
00001000
,
00000000
00001010
00000000
00001001
,
00000000
00000000
00000000
00000000
00000001
00000000
00000000
00000100
00000000
00000000
00000001
00000000
00000100
00000000
00000000
00000000
,
00000010
00000000
00000000
00000000
00010000
00000000
00000000
00001000
00000000
00000000
00010000
00000000
00001000
00000000
00000000
00000000
,
00100000
00000000
00000000
00000000
00010000
00000000
00000000
01000000
00000000
00000000
00100000
00000000
10000000
00000000
00000000
01000000
,
00000000
00000000
00100000
00000000
00001000
00000000
00000000
00010000
00000000
00000000
00001000
00000000
00010000
00000000
00000000
00000000
,
00000000
00000000
00000000
00001000
00010000
00000000
00001000
00000000
,
00010000
00000000
00000100
00001000
00000001
00000000
00001000
00000000
,
00001001
00000000
00000000
00000001
00000100
00000000
00000010
00001000
,
00000010
00000000
00010000
00000000
00001000
00000000
01000000
00010000
,
01000000
00000000
00000000
00100000
10000000
00000000
01000000
10000000
,
01000000
00010000
00001000
00010000
,
00011000
00001000
00010000
00000100
,
00001000
00000000
00000010
00000000
00000100
00000000
00000001
00001000
,
00000001
00001000
00000000
00000001
00000010
00000000
00000100
00001000
,
00000100
00000000
00010000
00001000
00010000
00000000
00001000
00000000
,
00011000
00020000
00000000
00000000
,
00030000
00002000
00000000
00000000
,
00003000
00000000
00000000
00001000
00010000
00000000
00001000
01000000
,
00001000
00000000
01000000
00010000
01000000
00010000
10000000
00000000
,
00000000
00000000
00000000
10000000
01000000
00000000
00100000
00010000
,
00100000
00000000
00001000
00100000
00001000
00000000
00010000
00001000
,
00010000
00000100
00000000
00001000
00000100
00000000
00000010
00000001
,
00001000
00000100
00000010
00000110
,
00001001
00000000
00000001
00000000
00000100
00000000
00000010
00000010
,
00000010
00000000
00001000
00000000
00000100
00000000
00010000
00010000
,
00010000
00000000
00001000
00010000
00100000
00000000
00010000
00000000
,
00001000
00000000
00010000
00001000
00000010
00000000
00001000
00000000
,
00010000
00000000
00001000
00000000
00010000
00000000
01000000
00100000
,
00001000
00000000
00010000
00000000
00001000
00000000
00000100
00000010
,
00010000
00000000
00001000
00000010
00001000
00000000
00010000
00100000
,
00010000
00001000
00010000
00011000
,
00000000
00000000
00000000
00000000
00001000
00000000
00000000
00010000
00000000
00000000
00100000
00000000
01000000
00000000
00000000
00100000
,
00000000
00010000
00001000
00000000
00000010
00000000
00001000
00010000
,
00001000
00000000
00010000
00001000
00010000
00000000
00001000
00010000
,
00001000
00000000
00010000
00001000
00010000
00000000
00001000
00010000
,
00001000
00000000
00010000
00001000
00010000
00000000
00001000
00010000
,
00001000
00010000
00001000
00011000
,
00000000
00000000
00001000
00100000
00001000
00100000
00001000
00100000
,
00001000
00100000
00010000
01000000
,
00100000
00000000
10000000
00100000
10000000
00100000
10000000
00100000
,
10000000
01000000
00100000
01000000
,
00010000
00000000
00001000
00010000
00001000
00010000
00001000
00010000
,
00001000
00010000
00000100
00001000
,
00000010
00000000
00001000
00000100
00001000
00000100
00001000
00000100
,
00001000
00000100
00000010
00000001
,
00000000
00000000
00001000
00000000
00000001
00000000
00000100
00000010
,
00001000
00000000
00000100
00000000
00010000
00000000
00001000
00100000
,
00010000
00000000
01000000
00000000
00100000
00000000
10000000
00010000
,
01000000
00000000
00100000
00000000
10000000
00000000
01000000
00100000
,
00010000
00000000
00100000
00000000
00001000
00000000
00010000
00000010
,
00001000
00000000
00000100
00000000
00010000
00000000
00001000
01000000
,
00010000
00000000
00100000
01000000
00100000
00000000
00001000
00010000
,
00001000
00000010
00000001
00001001
,
00000000
00000000
00000000
00000001
00000100
00000000
00000010
00001000
,
00000010
00000000
00001000
00000010
00010000
00000000
00001000
00000000
,
00011000
00000000
00001000
00010000
00001000
00010000
00001000
00000000
,
00020000
00030000
00000000
00000000
00000000
00000000
00000000
00000000
00000000
00000000
00000000
00000000
00000000
00000000
00000000
00000000
00000000
00000000
00000000
00000000
00000000
00000000
00000000
00000000
00000000
00000000
00000000
00000000
00000000
00000000
00000000
00000000
00020000
00030000
00000000
00000000
00000000
00000000
00000000
00000000
00000000
00000000
00000000
00000000
00000000
00000000
00000000
00000000
00000000
00000000
00000000
00000000
00000000
00000000
00000000
00000000
00000000
00000000
00000000
00000000
00000000
00000000
00000000
00000000
,
00020000
00030000
00000000
00000000
00000000
00000000
00000000
00000000
00000000
00000000
00000000
00000000
00000000
00000000
00000000
00000000
00000000
00000000
00000000
00000000
00000000
00000000
00000000
00000000
00000000
00000000
00000000
00000000
00000000
00000000
00000000
00000000
00020000
00030000
00000000
00000000
00000000
00000000
00000000
00000000
00000000
00000000
00000000
00000000
00000000
00000000
00000000
00000000
00000000
00000000
00000000
00000000
00000000
00000000
00000000
00000000
00000000
00000000
00000000
00000000
00000000
00000000
00000000
00000000
,
00020000
00030000
00000000
00000000
00000000
00000000
00000000
00000000
00000000
00000000
00000000
00000000
00000000
00000000
00000000
00000000
00000000
00000000
00000000
00000000
00000000
00000000
00000000
00000000
00000000
00000000
00000000
00000000
00000000
00000000
00000000
00000000
00020000
00030000
00000000
00000000
00000000
00000000
00000000
00000000
00000000
00000000
00000000
00000000
00000000
00000000
00000000
00000000
00000000
00000000
00000000
00000000
00000000
00000000
00000000
00000000
00000000
00000000
00000000
00000000
00000000
00000000
00000000
00000000
,
00020000
00030000
00000000
00000000
00000000
00000000
00000000
00000000
00000000
00000000
00000000
00000000
00000000
00000000
00000000
00000000
00000000
00000000
00000000
00000000
00000000
00000000
00000000
00000000
00000000
00000000
00000000
00000000
00000000
00000000
00000000
00000000
00020000
00000000
00000000
00000000
00000000
00000000
00000000
00000000
00000000
00000000
00000000
00000000
00000000
00000000
00000000
00000000
00000000
00000000
00000000
00000000
00000000
00000000
00000000
00000000
00000000
00000000
00000000
00000000
00000000
00000000
00000000
00000000
,
00000000
00000000
00000000
00000000
,
00000000
00030000
00000000
00000000
,
00000000
00000000
00000000
00000000
;
#NOTES:
     dance-double:
     :
     Hard:
     15:
     :
00000000
00000000
00000000
00000000
,
00000000
00000000
00000000
00000000
,
00000000
00000000
00000000
00000000
,
00000000
00000000
00000000
00000000
,
00000000
00001000
00010000
00000000
00001000
00010000
00001000
00000000
,
00010000
00001000
00000010
00000001
00001000
00000000
00000000
00000001
,
00000010
00000001
00000100
00000010
00001000
00000100
00010000
00001000
,
00010000
00100000
00010000
00001000
00000000
00001000
00010000
01000000
,
10000000
00010000
00100000
01000000
10000000
00100000
00010000
00100000
,
10000000
00000000
00000000
10000000
01000000
00100000
00010000
10000000
,
01000000
00000000
00010000
00000000
00001000
00000000
00010000
00000000
00001000
00000000
00000010
00000000
00000001
00000010
00000001
00000010
,
00000000
00000001
00000100
00000010
00001000
00000100
00000010
00000001
,
00000010
00001000
00010000
00001000
00010000
00000000
00011000
00000000
,
00001000
00010000
00001000
00010000
00100000
00010000
00100000
00010000
,
00100000
10000000
00100000
10000000
00010000
00000000
10000000
01000000
,
10000000
01000000
00010000
01000000
00010000
01000000
00010000
00001000
,
00010000
00001000
00000010
00000000
00001000
00000010
00001000
00000010
,
00000001
00000010
00000001
00000010
00000001
00000100
00000001
00000100
,
00001000
00000000
00001000
00010000
00001000
00010000
00100000
00010000
,
00100000
00000000
00010000
00000000
00100000
00000000
10000000
00000000
00100000
00000000
10000000
00000000
00100000
01000000
00100000
01000000
,
00100000
10000000
00010000
00100000
00001000
00010000
00000010
00001000
,
00000001
00000100
00000001
00000000
00001000
00000100
00010000
00001000
,
01000000
00010000
10000000
01000000
10000000
00100000
10000000
00000000
,
00010000
00100000
00001000
00010000
00000010
00001000
00000001
00000010
,
00000001
00001000
00000100
00000000
00010000
00001000
01000000
00010000
,
10000000
01000000
10000000
00100000
10000000
00010000
00100000
00001000
,
00010000
00001000
00010000
00001000
00010000
00000000
00000000
00001000
00000000
00000000
00000010
00000000
00001000
00000000
00000000
00010000
,
00000000
00000000
00001000
00000000
00010000
00000000
00000000
00001000
00000000
00000000
00000100
00000000
00001000
00000000
00000000
00010000
,
00000000
00000000
00001000
00000000
00010000
00000000
00000000
01000000
00000000
00000000
00010000
00000000
00001000
00000000
00000000
00010000
,
00000000
00000000
00001000
00000000
00010000
00000000
00000000
00100000
00000000
00000000
00010000
00000000
00001000
00000000
00000000
00010000
,
00000000
00000000
00001000
00000000
00000010
00000000
00000000
00001000
00000000
00000000
00010000
00000000
00001000
00000000
00000000
00000100
,
00000000
00000000
00001000
00000000
00010000
00000000
00000000
00100000
00000000
00000000
00010000
00000000
00001000
00000000
00010000
00000000
,
01000000
00000000
10000000
00000000
00010000
00000000
00000000
01000000
00000000
00000000
00100000
00000000
00010000
00000000
00000000
00001000
,
00000000
00000000
00000100
00000000
00000010
00000000
00000000
00001000
00000000
00000000
00000100
00000000
00000010
00000000
00000000
00001000
,
00000000
00000000
00010000
00000000
01000000
00000000
00000000
10000000
00000000
00000000
00100000
00000000
00010000
00000000
00000000
00001000
,
00000000
00000000
00000100
00000000
00000001
00000000
00000000
00000010
00000000
00000000
00001000
00000000
00010000
00000000
00000000
00000000
,
00000000
00000000
00000000
00001000
00010000
00100000
01000000
00100000
,
00010000
00001000
00010000
00100000
01000000
00100000
00010000
00000000
,
00011000
00000000
00000000
00010000
00001000
00000010
00000100
00000010
,
00001000
00010000
00001000
00000010
00000100
00000010
00000001
00000100
,
00001000
00000100
00000000
00000001
00000010
00000100
00010000
00000100
,
00000010
00000001
00000100
00000010
00000100
00001000
00010000
00000000
,
00001000
00010000
00001000
00010000
00001000
00000000
00010000
00000000
01000000
00000000
00100000
00000000
00001000
00000000
00010000
00000000
,
01000000
00100000
00001000
00010000
00100000
10000000
00100000
00010000
,
00001000
00010000
00000000
00010000
01000000
10000000
00100000
10000000
,
01000000
00010000
00001000
00000010
00000001
00000000
00001001
00000000
,
00001000
00000001
00001000
00000001
00001000
00000000
00000000
00000001
00000000
00000000
00000100
00000000
00001000
00000000
00000000
00010000
,
00000000
00100000
10000000
01000000
00010000
00001000
00000010
00000001
,
00001000
00000001
00000000
00000001
00000010
00001000
00010000
00001000
,
00000100
00000001
00000100
00001000
00010000
00100000
10000000
00000000
,
00010000
10000000
00010000
10000000
00010000
00000000
10000000
00000000
00100000
00000000
00010000
00000000
00001000
00000000
00010000
00000000
,
01000000
10000000
01000000
00010000
00001000
00000010
00000001
00001000
,
00000010
00000001
00000000
00000010
00001000
00000001
00000100
00001000
,
00010000
00100000
01000000
00100000
10000000
00000000
10010000
00000000
,
10000000
00010000
10000000
00010000
10000000
00000000
10000000
00000000
01000000
00000000
01000000
00000000
00100000
00000000
00001000
00000000
,
00100000
00000000
00001000
00001000
00010000
00010000
00000100
00001000
,
00000100
00000000
00000010
00000001
00000100
00000010
00001010
00000000
,
00010010
00000000
00010000
00001000
01000000
00010000
00110000
00000000
,
10010000
00000000
10000000
00100000
00010000
00001000
00010000
00100000
,
10000000
00000000
10000000
01000000
00010000
00001000
00010000
01000000
,
10000000
00000000
10000000
01000000
00100000
00010000
00001000
00000100
,
00000010
00000001
00000011
00000000
00001100
00000000
00001001
00000000
,
00000001
00001000
00000001
00001000
00000001
00000000
00000000
00000100
00000000
00000000
00000010
00000000
00010000
00000000
00000000
00001000
,
00000000
00100000
00010000
01000000
00100000
10000000
01000000
00100000
,
00001000
00000000
00010000
00001000
00010000
00001000
00010000
00001000
,
00010000
00001000
00010000
00001000
00010000
00001000
00010000
00001000
,
00010000
00001000
00010000
00001000
00010000
00001000
00010000
00001000
,
00010000
00001000
00010000
00000000
00001000
00000000
00011000
00000000
,
00000000
00000000
00010000
00001000
00000010
00000001
00001000
00000001
,
00000100
00001000
00010000
00100000
10000000
00100000
00010000
00001000
,
00010000
01000000
00000000
01000000
00100000
00010000
01000000
00100000
,
00010000
00001000
00000100
00000010
00001000
00000100
00000010
00000000
,
00000001
00001000
00000001
00001000
00000001
00000000
00000010
00000000
00001000
00000000
00010000
00000000
00001000
00000000
00000100
00000000
,
00001000
00010000
00100000
00010000
00001000
00010000
01000000
10000000
,
00100000
01000000
00000000
00100000
10000000
01000000
00010000
10000000
,
00100000
00010000
00100000
00001000
00010000
00000100
00001000
00000000
,
00000000
00000000
00000001
00000100
00001000
00010000
01000000
10000000
,
00010000
00000000
10000000
01000000
00010000
00001000
00000010
00000001
,
00001000
00000000
00000001
00000100
00001000
00010000
00100000
10000000
,
00010000
00000000
10000000
01000000
00010000
00001000
00000010
00000000
,
00000001
00001000
00000001
00001000
00000001
00000000
00000010
00000000
00001000
00000000
00000000
00000000
00010000
00000000
01000000
00000000
,
10000000
00000000
00010000
10000000
00100000
00010000
00001000
00000100
,
00000001
00001000
00000000
00000001
00000010
00000000
00001000
00010000
,
01000000
00000000
00010000
00001000
00000010
00000001
00001000
00000000
,
00000001
00001000
00000001
00001000
00000001
00000000
00000010
00000000
00000100
00000000
00000010
00000000
00001000
00000000
00000010
00000000
,
00001000
00010000
00001000
00010000
01000000
00100000
00001000
00000000
,
00011000
00000000
00001000
00010000
00001000
00010000
00001000
00000000
,
00020000
00030000
00000000
00000000
00000000
00000000
00000000
00000000
00000000
00000000
00000000
00000000
00000000
00000000
00000000
00000000
00000000
00000000
00000000
00000000
00000000
00000000
00000000
00000000
00000000
00000000
00000000
00000000
00000000
00000000
00000000
00000000
00020000
00030000
00000000
00000000
00000000
00000000
00000000
00000000
00000000
00000000
00000000
00000000
00000000
00000000
00000000
00000000
00000000
00000000
00000000
00000000
00000000
00000000
00000000
00000000
00000000
00000000
00000000
00000000
00000000
00000000
00000000
00000000
,
00020000
00030000
00000000
00000000
00000000
00000000
00000000
00000000
00000000
00000000
00000000
00000000
00000000
00000000
00000000
00000000
00000000
00000000
00000000
00000000
00000000
00000000
00000000
00000000
00000000
00000000
00000000
00000000
00000000
00000000
00000000
00000000
00020000
00030000
00000000
00000000
00000000
00000000
00000000
00000000
00000000
00000000
00000000
00000000
00000000
00000000
00000000
00000000
00000000
00000000
00000000
00000000
00000000
00000000
00000000
00000000
00000000
00000000
00000000
00000000
00000000
00000000
00000000
00000000
,
00020000
00030000
00000000
00000000
00000000
00000000
00000000
00000000
00000000
00000000
00000000
00000000
00000000
00000000
00000000
00000000
00000000
00000000
00000000
00000000
00000000
00000000
00000000
00000000
00000000
00000000
00000000
00000000
00000000
00000000
00000000
00000000
00020000
00030000
00000000
00000000
00000000
00000000
00000000
00000000
00000000
00000000
00000000
00000000
00000000
00000000
00000000
00000000
00000000
00000000
00000000
00000000
00000000
00000000
00000000
00000000
00000000
00000000
00000000
00000000
00000000
00000000
00000000
00000000
,
00020000
00030000
00000000
00000000
00000000
00000000
00000000
00000000
00000000
00000000
00000000
00000000
00000000
00000000
00000000
00000000
00000000
00000000
00000000
00000000
00000000
00000000
00000000
00000000
00000000
00000000
00000000
00000000
00000000
00000000
00000000
00000000
00020000
00000000
00000000
00000000
00000000
00000000
00000000
00000000
00000000
00000000
00000000
00000000
00000000
00000000
00000000
00000000
00000000
00000000
00000000
00000000
00000000
00000000
00000000
00000000
00000000
00000000
00000000
00000000
00000000
00000000
00000000
00000000
,
00000000
00000000
00000000
00000000
,
00000000
00030000
00000000
00000000
,
00000000
00000000
00000000
00000000
;
