
//----- song ID: thun -----//
#TITLE:Thunderstorm;
#ARTIST:nagomu tamaki;
#BANNER:Thunderstorm.png;
#BACKGROUND:Thunderstorm-bg.png;
#CDTITLE:./CDTitles/DDR WORLD.png;
#MUSIC:Thunderstorm.ogg;
#SAMPLESTART:26.167;
#SAMPLELENGTH:15;
#BPMS:0=165;
#NOTES:
     dance-single:
     :
     Beginner:
     4:
     :
0000
0000
0000
0000
,
0000
0000
0000
0000
,
0000
0000
0000
0000
,
0000
0000
0000
0000
,
0000
0000
0000
0000
,
0000
0000
0000
0000
,
0001
0000
0000
0000
,
1000
0000
0000
0000
,
0001
0000
0000
0000
,
0100
0000
0010
0000
,
0200
0000
0000
0000
,
0000
0000
0000
0000
,
0300
0000
0000
0000
,
0000
0000
0000
0000
,
0001
0000
0001
0000
,
1000
0000
1000
0000
,
0001
0000
1000
0000
,
1001
0000
0000
0000
,
1000
0000
0010
0000
,
1000
0000
0000
0000
,
0001
0000
0100
0000
,
0001
0000
0000
0000
,
1000
0000
0100
0000
,
1000
0000
0000
0000
,
0001
0000
0100
0000
,
0001
0000
0000
0000
,
1000
0000
0000
0000
,
0001
0000
0000
0000
,
1000
0000
0010
0000
,
1000
0000
0000
0000
,
0001
0000
0010
0000
,
0001
0000
0000
0000
,
0010
0000
0100
0000
,
0010
0000
0000
0000
,
0010
0000
0001
0000
,
0010
0000
0001
0000
,
1000
0000
0100
0000
,
1000
0000
0100
0000
,
1000
0000
0001
0000
,
1000
0000
0001
0000
,
0100
0000
0010
0000
,
0100
0000
0000
0000
,
0002
0000
0000
0000
,
0003
0000
0000
0000
,
2000
0000
0000
0000
,
3000
0000
0000
0000
,
0020
0000
0000
0000
,
0030
0000
0000
0000
,
0200
0000
0000
0000
,
0300
0000
0000
0000
,
0110
0000
0000
0000
,
0000
0000
0000
0000
,
0000
0000
0000
0000
,
0000
0000
0000
0000
,
0010
0000
0100
0000
,
0010
0000
0100
0000
,
0001
0000
1000
0000
,
0002
0000
0003
0000
,
1001
0000
0000
0000
,
1001
0000
0000
0000
,
1000
0000
0100
0000
,
1000
0000
0100
0000
,
0010
0000
0001
0000
,
0010
0000
0000
0000
,
0001
0000
1000
0000
,
0100
0000
0000
0000
,
1000
0000
0000
0000
,
0001
0000
0000
0000
,
0100
0000
0010
0000
,
0100
0000
0000
0000
,
0010
0000
1000
0000
,
0001
0000
0000
0000
,
1000
0000
0100
0000
,
0010
0000
0000
0000
,
0001
0000
1000
0000
,
0001
0000
0000
0000
,
0100
0000
0010
0000
,
0100
0000
0000
0000
,
0001
0000
1000
0000
,
0010
0000
0000
0000
,
1000
0000
0001
0000
,
0100
0000
0010
0000
,
0100
0000
0000
0000
,
0000
0000
0000
0000
;
#NOTES:
     dance-single:
     :
     Easy:
     6:
     :
0000
0000
0000
0000
,
0000
0000
0000
0000
,
0000
0000
0000
0000
,
0000
0000
0000
0000
,
0000
0000
0000
0000
,
0000
0000
0000
0000
,
0001
0001
0001
0000
,
1000
1000
1000
0010
,
0100
0100
0100
0000
,
0010
0100
0001
1000
,
0002
0000
0000
0000
,
0000
0000
0000
0000
,
0000
0000
0000
0000
,
0000
0000
0000
0000
,
1003
1000
0100
0100
,
0010
0010
0001
0001
,
0100
0010
0100
0010
,
2002
0000
0000
3003
,
1000
0010
1000
0000
,
0010
0100
0001
2000
,
3001
0100
0001
0000
,
1000
0010
0100
0001
,
0010
0100
0010
0000
,
0001
0010
0100
2000
,
3010
0100
0010
0000
,
1000
0001
1000
0001
,
1000
0000
0001
0000
,
1000
0000
0001
0000
,
1000
0001
0200
0300
,
0001
1000
0200
0300
,
1000
0010
0100
0000
,
0001
1000
0100
0020
,
0130
1000
0002
0003
,
1001
0000
0110
0000
,
0001
0100
0001
0100
,
0010
1000
0010
0000
,
1000
0100
1000
0100
,
0010
0001
0010
0000
,
0001
0100
0010
1000
,
0001
0010
0100
1000
,
0010
0100
0010
0100
,
0001
1000
0001
0010
,
0200
0000
0000
0000
,
2300
0000
3002
0000
,
2003
0000
0000
0000
,
3200
0000
0320
0000
,
0032
0000
0000
0000
,
0203
0000
0320
0000
,
2030
0000
0000
0000
,
3002
0000
0000
0000
,
0203
0000
0000
0000
,
0000
0000
0000
0000
,
0320
0000
0000
0000
,
0000
0000
0000
0000
,
1030
1000
0001
0001
,
0100
0100
0010
0010
,
1000
0100
0010
0001
,
0200
0000
0300
0000
,
0110
0000
1001
0000
,
1001
1001
0110
1001
,
1000
0010
1000
0010
,
0100
0001
1000
0002
,
0103
0010
0100
0000
,
0001
1000
0001
0020
,
0130
1000
0100
0000
,
1000
0001
0010
0100
,
1000
0000
0001
0000
,
1000
0000
0001
0000
,
0010
0001
0200
0300
,
0010
1000
0200
0300
,
1000
0100
0010
0000
,
0001
0100
0010
2000
,
3001
0010
0200
0300
,
0110
0000
1001
0000
,
1000
0010
1000
0000
,
0001
0010
0001
0010
,
0100
0010
0100
0000
,
0010
0001
1000
0010
,
0100
0001
0100
0000
,
0010
1000
0010
1000
,
0001
0010
0001
0000
,
1000
0100
0010
0001
,
1000
0000
0000
0000
,
0000
0000
0000
0000
;
#NOTES:
     dance-single:
     :
     Medium:
     11:
     :
0000
0000
0000
0000
,
0000
0000
0000
0000
,
0000
0000
0000
0000
,
0000
0000
0000
0000
,
0000
0000
0000
0000
,
0000
0000
0000
0000
,
1000
1000
1000
1000
,
0001
0001
0001
0010
,
0001
0001
1000
1000
,
0001
0100
0001
0000
1000
0100
0010
0001
,
2000
0000
0000
0000
,
0000
0000
0000
0000
,
0000
0000
0000
0000
,
0000
0000
0000
0000
,
3001
0010
0001
0000
1000
0010
1000
0000
,
0001
0010
0001
0000
1000
0010
1000
0000
,
0001
0100
0001
0100
0010
1000
0010
1000
,
0010
0000
0010
0000
0010
0000
0100
0000
0000
1001
0000
0000
,
0001
0000
0100
0000
0001
0000
0100
0000
0010
0000
0000
0100
0000
0000
0010
0000
,
1000
0100
1000
0100
0010
0001
2000
0000
,
3001
0100
0001
0000
1000
0100
1000
0000
,
0100
0010
0100
0010
0001
1000
0001
0000
,
1000
0000
0010
0000
1000
0000
0010
0000
0100
0000
0000
0010
0000
0000
0100
0000
,
0001
0010
0001
0010
0100
1000
0002
0000
,
1003
0010
1000
0000
0001
0010
0001
0000
,
1000
0010
1000
0010
0100
0010
0100
0000
,
0001
0100
0001
0000
0100
0010
0100
0000
,
0010
1000
0010
0000
1000
0100
0010
0000
,
0001
0000
0001
0000
0100
0000
0010
0200
0000
0000
0000
0000
0302
0000
0000
0000
,
1003
0000
1000
0000
0100
0000
0010
0200
0000
0000
0000
0000
2300
0000
0000
0000
,
3001
0000
0100
0000
0010
0000
0100
0000
0001
0000
0000
0010
0000
0000
0100
0000
,
1000
0010
0100
0010
1000
0000
0002
0000
,
1003
0000
1000
0000
0010
0000
0100
0002
0000
0000
0000
0000
1003
0000
0000
0000
,
0001
0001
0001
0000
1000
1000
1000
0000
,
0001
0100
0000
0010
0000
1000
0000
0001
,
0000
0010
0000
0100
0000
0010
0001
1000
,
0100
0010
0000
0100
0000
1000
0000
0001
,
0000
0100
0000
0010
0100
0010
0100
0000
,
0010
1000
0010
1000
0001
0100
0010
0000
,
1000
0100
1000
0100
0010
0001
1000
0000
,
0010
0100
0010
0100
0001
1000
0001
1000
,
0100
0010
0100
0010
0001
1000
0100
0000
,
2000
0000
0000
3200
0000
0000
0320
0000
0000
0032
0000
0000
0023
0000
0000
0000
,
0000
0000
0000
0000
0032
0000
0103
0010
,
2000
0000
0000
3002
0000
0000
0203
0000
0000
0000
0000
0000
0000
0000
0000
0000
,
0320
0000
0000
0000
0230
0000
0301
0100
,
0020
0000
0000
2030
0000
0000
3002
0000
0000
0023
0000
0000
0230
0000
0000
0000
,
0000
0000
0320
0000
,
0032
0000
0000
2003
0000
0000
3020
0000
0000
0000
0000
0000
0000
0000
0000
0000
,
0000
0000
0230
0300
,
0220
0000
0000
0000
,
0000
0000
0000
0330
,
2000
0000
0000
0000
,
0000
0000
0000
0000
,
3001
0010
0001
0000
1000
0100
1000
0000
,
0001
0010
0001
0000
1000
0010
1000
0000
,
0001
0100
0001
0100
0010
1000
0100
0010
,
0200
0000
0000
0000
0000
0000
0000
0000
2300
0000
0000
3001
0000
0000
0000
0000
,
0101
1000
0011
1000
,
0101
0011
1010
0110
,
1000
0100
1000
0000
0100
0010
0100
0000
,
0010
0001
0010
0001
1000
0100
2000
0000
,
3010
0000
0100
0000
0010
0000
1000
0000
0001
0000
0000
0100
0000
0000
0001
0000
,
1000
0010
1000
0100
0010
0000
0002
0000
,
0103
0010
0100
0000
0001
1000
0001
0000
,
0010
0100
0010
0100
1000
0001
1000
0000
,
0001
0100
0001
0000
1000
0010
1000
0000
,
0001
0100
0001
0000
1000
0010
0100
0001
,
1000
0000
1000
0000
0010
0000
0100
0002
0000
0000
0000
0000
0013
0000
0000
0000
,
0001
0000
0001
0000
0100
0000
0010
2000
0000
0000
0000
0000
3100
0000
0000
0000
,
1000
0000
0100
0000
0010
0000
0001
0000
0100
0000
0000
0010
0000
0000
0100
0000
,
0001
0010
0100
1000
0001
0100
0002
0000
,
0013
0000
0100
0000
1000
0000
0001
0200
0000
0000
0000
0000
0310
0000
0000
0000
,
1000
1000
1000
0000
0001
0001
0001
0000
,
1001
0000
0000
0000
1000
0000
0010
0000
0100
0000
0000
0001
0000
0000
1000
0000
,
0000
0000
0001
0100
0001
0010
0100
0000
,
0110
0000
0000
0000
0010
0000
0001
0000
1000
0000
0000
0010
0000
0000
0100
0000
,
0000
0000
0001
0010
0100
1000
0001
0000
,
1001
0000
0000
0000
0001
0000
0100
0000
0010
0000
0000
1000
0000
0000
0001
0000
,
0000
0000
1000
0010
1000
0100
0010
0000
,
0110
0000
0000
0000
0100
0000
1000
0000
0001
0000
0000
0100
0000
0000
0010
0000
,
0100
0001
1000
0100
0010
0001
0100
0010
,
1000
0000
0000
0000
,
0000
0000
0000
0000
;
#NOTES:
     dance-single:
     :
     Hard:
     14:
     :
0000
0000
0000
0000
,
0000
0000
0000
0000
,
0000
0000
0000
0000
,
0000
0000
0000
0000
,
0000
0000
0000
0000
,
0000
0000
0000
0000
,
0001
0001
0001
0001
,
1000
1000
1000
1001
,
0001
0100
0010
1000
,
0100
0000
0010
0000
0100
1000
0000
0001
0100
0001
0100
0000
0010
0100
0010
0000
,
2000
0000
0000
0000
,
0000
0000
0000
0000
,
0000
0000
0000
0000
,
0000
0000
0000
0000
,
3100
0000
0010
0000
0001
0000
0100
0001
0100
0000
0001
0000
1000
0000
0100
1000
,
0100
0000
1000
0000
0001
0000
0010
0001
0010
0000
0100
0000
1000
0000
0010
0100
,
0010
0000
1000
0000
0100
0000
0010
0000
0100
1000
0100
1000
0001
0010
0001
0010
,
0001
0000
0001
0000
0001
0000
0100
0000
0000
1001
0000
0000
,
1000
0000
0010
0000
1000
0000
0010
0100
0010
0000
1000
0001
0000
0010
0001
0000
,
0100
0000
0010
0000
0100
0000
0010
1000
0010
0000
1000
0001
2000
0000
0000
0000
,
3001
0000
0010
0000
0001
0000
1000
0100
1000
0000
0001
0000
0100
0000
0001
0000
,
1000
0000
0010
0000
1000
0000
0001
0100
0001
0000
1000
0000
0001
0000
0000
0000
,
1000
0000
0100
0000
1000
0000
0100
0010
0100
0000
0010
0001
0000
1000
0010
0000
,
0100
0000
0001
0000
0100
0000
0001
1000
0001
0000
0100
0010
0200
0000
0000
0000
,
0301
0000
0100
0000
0010
0000
1000
0100
1000
0000
0001
0000
0010
0000
0001
0000
,
1000
0100
1000
0100
0010
0001
1001
0000
,
1000
0000
0010
0000
0100
0000
0001
0010
0001
0000
0100
0000
0010
0000
1000
0100
,
1000
0000
0010
0000
0100
0000
0001
0010
0001
0000
0100
0000
0010
0000
0010
0000
,
1000
0000
1000
0000
0001
0000
0010
0200
0000
0000
0310
0000
0001
0000
0100
0000
,
0001
0000
0001
0000
1000
0000
0010
0200
0000
0000
0310
0000
2000
0000
0000
0000
,
3001
0000
1000
0000
0100
0000
0010
0100
0010
0000
0001
0100
0000
0010
1000
0000
,
0001
0000
0010
0000
0001
0000
0100
0000
0010
0000
1000
0001
0200
0000
0000
0000
,
0310
0000
0010
0000
1000
0000
0100
0020
0000
0000
0130
0000
1000
0000
0001
0000
,
1000
1000
1001
0000
0010
0010
0110
0000
,
0001
0000
0100
0000
0010
1000
0010
0000
1000
0100
1000
0000
0001
0010
0001
0000
,
1000
0000
0100
0000
0010
0001
0010
0000
0001
0000
1000
0010
0000
0100
0010
0100
,
0010
0000
1000
0000
0001
0010
0001
0000
0010
0100
0010
0000
0100
1000
0100
0000
,
1000
0000
0010
0000
0100
0001
0100
0000
0001
0000
0001
0000
1001
0000
0000
0000
,
1000
0000
0010
0000
0100
0001
0100
0000
0001
0010
0001
0000
1000
0100
1000
0000
,
0001
0000
0010
0000
0100
1000
0100
0000
1000
0000
0001
0100
0000
0010
0100
0010
,
0100
0001
0100
0001
1000
0100
0010
0001
,
1000
0100
1000
0000
0001
0100
0001
0000
1000
0000
0010
0000
0110
0000
0000
0000
,
0002
0000
0000
0203
0000
0000
0320
0000
0000
2030
0000
0000
3002
0000
0000
0000
,
0010
0000
1000
0000
0203
0000
0310
1000
,
0200
0000
0000
0320
0000
0000
0032
0000
0000
0000
0000
0000
0000
0000
0000
0000
,
2003
0000
0000
0000
3002
0000
0103
0001
,
0020
0000
0000
0230
0000
0000
2300
0000
0000
3020
0000
0000
0230
0000
0000
0000
,
0001
0010
0302
1003
,
2000
0000
0000
3200
0000
0000
0320
0000
0000
0000
0000
0000
0000
0000
0000
0000
,
0000
0000
0130
0000
,
0220
0000
0000
0000
,
0000
0000
0000
0300
,
0032
0000
0000
0000
,
0000
0000
0000
0000
0000
0000
0000
1003
,
0001
0000
1000
0000
0001
0000
0100
0010
0100
0000
0001
0000
1000
0000
0100
0010
,
0100
0000
1000
0000
0001
0000
0010
0100
0010
0000
0001
0000
1000
0000
0010
0100
,
0010
0000
0100
0000
0010
0000
0100
0000
0001
0000
1000
0000
0100
0010
0100
0010
,
0200
0000
0000
0000
0000
0000
0000
0000
2300
0000
0000
3001
0000
0000
0000
0000
,
1001
1000
0100
0010
0110
0100
1000
0001
,
0101
0011
1010
0101
,
0001
0000
0100
0000
0010
0000
1000
0010
1000
0000
0001
0000
0100
0000
0010
0000
,
1000
0000
0100
0000
0010
0000
0001
0010
0001
0000
1000
0000
0020
0000
0000
0000
,
0130
0000
0001
0000
1000
0000
0100
1000
0100
0000
0010
0100
0000
1000
0001
0000
,
0100
0000
0010
0000
1000
0000
0001
0010
0001
0000
1000
0010
2000
0000
0000
0000
,
3010
0000
0100
0000
0001
0000
1000
0010
1000
0000
0001
0000
0100
0000
0010
0000
,
1000
0100
1000
0100
0010
0001
1000
0000
,
0001
0100
0001
0010
0100
1000
0010
1000
,
0001
0000
0100
0000
0001
0000
1000
0000
0001
0010
0001
0010
0100
1000
0100
1000
,
0001
0000
0001
0000
0010
0000
0001
0200
0000
0000
0310
0000
1000
0000
0100
0000
,
1000
0000
1000
0000
0010
0000
1000
0200
0000
0000
0310
0000
0001
0000
0000
0000
,
1000
0000
0010
0000
0100
0000
0001
1000
0001
0000
1000
0100
0000
0010
0001
0000
,
0100
0000
0001
0000
0100
0000
0010
0000
1000
0000
0100
0010
0200
0000
0000
0000
,
1300
0000
1000
0000
0010
0000
1000
0200
0000
0000
1300
0000
0001
0000
0100
0000
,
0001
0001
0011
0000
1000
1000
1010
0000
,
1001
0000
0000
0000
0001
1000
0001
0000
1000
0000
0100
0010
0000
0001
0100
0000
,
0001
0000
1000
0000
0010
1000
0010
0000
0100
0000
0001
1000
0010
0000
0000
0000
,
1001
0000
0000
0000
1000
0001
1000
0000
0001
0000
0010
0100
0000
1000
0010
0000
,
1000
0000
0001
0000
0100
0001
0100
0000
0010
0000
1000
0001
0100
0000
0000
0000
,
0110
0000
0000
0000
0010
1000
0010
0000
1000
0000
0001
0010
0000
0001
0100
0000
,
0010
0000
1000
0000
0001
0100
0001
0000
1000
0000
0100
0010
0001
0000
0000
0000
,
0110
0000
0000
0000
0001
0100
0001
0000
1000
0000
0001
0100
0000
0010
1000
0000
,
0001
0010
0001
0000
1000
0100
1000
0000
0001
1000
0001
0000
0100
0010
0100
0000
,
0001
0000
0000
0000
,
0000
0000
0000
0000
;
#NOTES:
     dance-single:
     :
     Challenge:
     16:
     :
0000
0000
0000
0000
,
0000
0000
0000
0000
,
0000
0000
0000
0000
,
0000
0000
0000
0000
,
0000
0000
0000
0000
,
0000
0000
0000
0000
,
1000
0000
0000
0000
0010
0000
1000
0000
0010
0000
0100
0010
0000
0100
0001
0000
,
1000
0000
0000
0000
0001
0000
0010
0000
0001
0000
0010
0100
0020
0000
0000
0000
,
0031
0000
0000
0000
0100
0000
0001
0000
0100
0000
0010
0100
0000
0010
1000
0000
,
0100
0000
0010
0000
0001
1000
0000
0010
0100
0001
0100
0001
1000
0100
0010
0001
,
2000
0000
0000
0000
,
0000
0000
0000
0000
,
0000
0000
0000
0000
,
0000
0000
0000
0000
,
3001
0100
0001
0100
0001
0000
0100
0010
1000
0010
1000
0010
1000
0000
0100
0010
,
0001
1000
0100
0010
0001
0000
1000
0010
0100
0001
1000
0010
0100
0000
0001
0100
,
0001
0000
1000
0000
0001
0000
1000
0000
0001
0010
0001
0010
0100
1000
0001
0100
,
0010
0000
0010
0000
0010
0000
0110
0000
0000
1001
0000
0000
,
1000
0100
0010
0000
0100
0000
1000
0001
0100
0000
0010
0100
0000
0001
0100
0000
,
0001
0010
0100
0000
0010
0001
1000
0100
0010
0000
0001
1000
0002
0000
0000
0000
,
1003
0000
0010
0000
1000
0000
0100
0010
0100
0000
1000
0000
0010
0100
0001
0000
,
0100
0000
0001
0000
0010
0000
0001
0010
0100
0000
1000
0000
0001
0000
0000
0000
,
1000
0010
0100
0000
0010
0000
1000
0001
0010
0000
0100
0010
0000
0001
0010
0000
,
0001
0100
0010
0000
0100
0001
1000
0010
0100
0000
0001
1000
0002
0000
0000
0000
,
0103
0000
0010
0000
1000
0000
0100
0010
0100
0000
1000
0000
0010
0100
0001
0000
,
1000
0100
1000
0100
0010
0001
0010
0001
1000
0010
0100
0001
1000
0000
0000
0000
,
0001
0000
0100
0000
1000
0000
0001
0010
1000
0000
0100
0000
0001
0000
1000
0010
,
0001
0000
0100
0000
1000
0000
0001
0010
1000
0010
0100
0000
0010
0000
0010
0000
,
1000
0000
1000
0000
0100
0000
0010
0200
1000
0000
1300
0000
0100
0000
0010
0000
,
0001
0000
0001
0000
0010
0000
0100
0020
0001
0000
0031
0000
2000
0000
0000
0000
,
3001
0010
0100
0000
0010
0000
1000
0010
0001
0000
1000
0010
0000
0001
0010
0000
,
1000
0100
0010
0000
0100
1000
0001
0010
0100
0000
1000
0001
2000
0000
0000
0000
,
3010
0000
0010
0000
1000
0000
0100
0020
0001
0000
0031
0000
1000
0000
0001
0000
,
0101
0101
1001
0000
1100
1100
1100
0000
,
0001
0000
0010
0000
0100
0010
0100
0000
1000
0100
1000
0000
0001
0010
0001
0000
,
1000
0001
1000
0000
0010
0100
0010
0000
0100
0000
0001
1000
0000
0001
0100
0001
,
1000
0010
1000
0010
0100
0001
0100
0000
0001
0010
0001
0010
0100
1000
0100
0000
,
1000
0001
0010
0100
0010
0001
1000
0001
0100
0000
0100
0000
0110
0000
0000
0000
,
0010
1000
0010
1000
0001
0100
0010
0000
1000
0100
1000
0100
0010
0001
1000
0001
,
0100
0010
0100
0010
1000
0001
0100
0000
0001
0010
0001
0010
0100
1000
0001
1000
,
0001
0100
0001
0100
0010
1000
0010
1000
0001
0010
0001
0010
0100
1000
0100
1000
,
0001
0100
0010
1000
0001
1000
0100
0010
0001
0000
1000
0000
1001
0000
0000
0000
,
2000
0000
0000
3200
0000
0000
0320
0000
0000
0032
0000
0000
0203
0000
0000
0000
,
1000
0000
0010
0000
0302
0000
1003
0100
,
0002
0000
0000
0203
0000
0000
0320
0000
0000
0000
0000
0000
0000
0000
0000
0000
,
0032
0000
0000
0000
0203
0000
0310
1000
,
0002
0000
0000
0023
0000
0000
0230
0000
0000
2300
0000
0000
3020
0000
0000
0000
,
0001
0100
2030
3001
,
0002
0000
0000
0023
0000
0000
0230
0000
0000
0000
0000
0000
0000
0000
0000
0000
,
0000
0000
0310
0000
,
0022
0000
0000
0000
,
0000
0000
0000
0030
,
2003
0000
0000
0000
,
0000
0000
0000
0000
0000
0000
0000
3001
,
1000
0100
0010
0100
0010
0001
1000
0000
0001
0100
0010
0100
0010
1000
0001
0000
,
1000
0010
0100
0001
1000
0001
0010
0000
0001
0100
0010
1000
0001
1000
0100
0000
,
1100
0000
0001
0000
0011
0000
1000
0000
1001
0000
0100
0000
0010
0100
0010
0100
,
0020
0000
0000
0000
0000
0000
0000
0000
0230
0000
0000
0310
0000
0000
0000
0000
,
0101
0001
0010
0100
0110
0100
1000
0010
,
1010
1000
0101
0001
0110
0100
1001
0000
,
1000
0100
0001
0000
0100
0000
0010
0001
1000
0000
0001
0100
1000
0001
0010
1000
,
0001
0010
1000
0000
0010
0000
0100
1000
0001
0000
1000
0001
0200
0000
0000
0000
,
0301
0100
0010
0000
1000
0001
1000
0100
0010
0000
0100
0001
1000
0010
0001
0000
,
1000
0010
0100
0000
0001
1000
0001
0010
0100
1000
0010
0100
0002
0000
0000
0000
,
1003
0100
0010
0000
1000
0000
0001
0100
1000
0000
0010
0000
0001
0010
1000
0000
,
0001
0100
0001
0100
0001
0100
0001
0100
0010
0000
0110
0000
1010
0000
0000
0000
,
1000
0000
0100
0000
0001
0000
1000
0010
0001
0000
0100
0000
1000
0000
0001
0010
,
1000
0000
0100
0000
0001
0000
1000
0010
0001
1000
0100
0010
0001
1000
0010
0100
,
0001
0000
0001
0000
0010
0000
0001
0200
0010
0000
0310
0000
0100
0000
0001
0000
,
1000
0000
1000
0000
0010
0000
1000
0200
0010
0000
0310
0000
0100
0000
0000
0000
,
1000
0010
0100
0000
0001
1000
0001
0010
0100
0000
0010
1000
0001
0100
1000
0000
,
0001
0100
0010
0000
1000
0001
1000
0100
0010
0001
0100
0010
2000
0000
0000
0000
,
3001
0000
0001
0000
0100
0000
0001
0020
0100
0000
0130
0000
0010
0000
0001
0000
,
0011
0011
1001
0000
1100
1100
1100
0000
,
1001
0000
0000
0000
1000
0100
0010
0100
0010
0000
0001
0010
0000
1000
0010
0000
,
0001
0000
0100
0000
0010
1000
0010
1000
0001
0000
0010
0100
1000
0000
0000
0000
,
1001
0000
0000
0000
0001
0010
0100
0010
0100
0000
1000
0100
0000
0001
0100
0000
,
1000
0000
0010
0000
0100
0001
0100
0001
1000
0000
0100
0010
0001
0000
0000
0000
,
0101
0000
0000
0000
0001
0100
0010
1000
0010
0000
1000
0100
0000
0001
0100
0000
,
1000
0000
0010
0000
1000
0010
0100
0001
0100
0000
0001
0010
0100
0000
0000
0000
,
1100
0000
0000
0000
1000
0100
0010
0001
0010
0000
0001
0100
0000
1000
0100
0000
,
0001
0010
0001
0010
0100
1000
0001
0010
0001
1000
0010
0100
0001
1000
0100
0010
,
0001
0000
0000
0000
,
0000
0000
0000
0000
;
#NOTES:
     dance-double:
     :
     Easy:
     6:
     :
00000000
00000000
00000000
00000000
,
00000000
00000000
00000000
00000000
,
00000000
00000000
00000000
00000000
,
00000000
00000000
00000000
00000000
,
00000000
00000000
00000000
00000000
,
00000000
00000000
00000000
00000000
,
10000000
10000000
10000000
00000000
,
00010000
00010000
00010000
01000000
,
00001000
00001000
00001000
00000000
,
00010000
00001000
00000100
00000001
,
00002000
00000000
00000000
00000000
,
00000000
00000000
00000000
00000000
,
00000000
00000000
00000000
00000000
,
00000000
00000000
00000000
00000000
,
00003100
00000100
00010000
00010000
,
00001000
00001000
01000000
01000000
,
00010000
10000000
01000000
00100000
,
02200000
00000000
00000000
03300000
,
01000000
10000000
00010000
00000000
,
01000000
00001000
00010000
00000200
,
00001300
00000001
00001000
00000000
,
00000001
00000010
00001000
00010000
,
00001000
00100000
00010000
00000000
,
10000000
00100000
01000000
00020000
,
10030000
00010000
10000000
00000000
,
00100000
00010000
00001000
00000100
,
00000001
00000000
00001000
00000000
,
00000100
00000000
00010000
00000000
,
00001000
00010000
00200000
00300000
,
10000000
00010000
02000000
03000000
,
00010000
00100000
00001000
00000000
,
00010000
00000010
00001000
00000002
,
00000013
00001000
00020000
00030000
,
00011000
00000000
01100000
00000000
,
10000000
01000000
00100000
00010000
,
00001000
00000100
00000010
00000000
,
00000001
00000100
00000010
00001000
,
00010000
01000000
00100000
00000000
,
10000000
00100000
10000000
00100000
,
00010000
00001000
00000100
00000001
,
00001000
00000010
00010000
00001000
,
00100000
00010000
01000000
00100000
,
20000000
00000000
00000000
00000000
,
32000000
00000000
03020000
00000000
,
00032000
00000000
00000000
00000000
,
00023000
00000000
00030200
00000000
,
00002300
00000000
00000000
00000000
,
00003002
00000000
00000023
00000000
,
00002030
00000000
00000000
00000000
,
00023000
00000000
00000000
00000000
,
00032000
00000000
00000000
00000000
,
00000000
00000000
00000000
00000000
,
02003000
00000000
00000000
00000000
,
00000000
00000000
00000000
00000000
,
03010000
00010000
10000000
10000000
,
00010000
00010000
00100000
00100000
,
00001000
00010000
00000010
00001000
,
00000002
00000000
00000003
00000000
,
00000101
00000000
00001010
00000000
,
00010010
00011000
00101000
00110000
,
00010000
01000000
00010000
01000000
,
00001000
00010000
00000100
00002000
,
00003001
00000010
00001000
00000000
,
00010000
01000000
10000000
00020000
,
10030000
01000000
00010000
00000000
,
00001000
00000010
00000001
00000100
,
00000001
00000000
00001000
00000000
,
00000100
00000000
00010000
00000000
,
00001000
00100000
00020000
00030000
,
01000000
00100000
20000000
30000000
,
00010000
01000000
00001000
00000000
,
00010000
00000100
00001000
00000002
,
00000103
00000001
00000020
00000030
,
00000110
00000000
00011000
00000000
,
00001000
00010000
01000000
00000000
,
10000000
00100000
10000000
00010000
,
10000000
01000000
00010000
00000000
,
00001000
00010000
00001000
00000100
,
00000001
00001000
00000100
00000000
,
00010000
00001000
01000000
00010000
,
10000000
00100000
10000000
00000000
,
00100000
01000000
00001000
00010000
,
00000100
00000000
00000000
00000000
,
00000000
00000000
00000000
00000000
;
#NOTES:
     dance-double:
     :
     Medium:
     11:
     :
00000000
00000000
00000000
00000000
,
00000000
00000000
00000000
00000000
,
00000000
00000000
00000000
00000000
,
00000000
00000000
00000000
00000000
,
00000000
00000000
00000000
00000000
,
00000000
00000000
00000000
00000000
,
00000001
00000001
00000001
00000001
,
00001000
00001000
00001000
00000100
,
00010000
00010000
00001000
00001000
,
01000000
00010000
01000000
00000000
00010000
10000000
00010000
00000000
,
00200000
00000000
00000000
00000000
,
00000000
00000000
00000000
00000000
,
00000000
00000000
00000000
00000000
,
00000000
00000000
00000000
00000000
,
00301000
00010000
00001000
00000000
00010000
00000100
00010000
00000000
,
00000100
00001000
00000100
00000000
00001000
00000001
00001000
00000000
,
00000001
00000100
00000001
00000100
00000010
00001000
00000010
00010000
,
00001000
00000000
00001000
00000000
00001000
00000000
01000000
00000000
00000000
01010000
00000000
00000000
,
00010000
00000000
00100000
00000000
00010000
00000000
10000000
00000000
01000000
00000000
00000000
00100000
00000000
00000000
01000000
00000000
,
10000000
00010000
00100000
00001000
00010000
00000100
00002000
00000000
,
00003001
00000010
00000001
00000000
00001000
00000010
00001000
00000000
,
00000010
00010000
00001000
00010000
00001000
01000000
00010000
00000000
,
10000000
00000000
01000000
00000000
10000000
00000000
00010000
00000000
00100000
00000000
00000000
00001000
00000000
00000000
00010000
00000000
,
00000010
00001000
00000100
00000010
00000001
00001000
00000020
00000000
,
00010030
00001000
00010000
00000000
00001000
00100000
00001000
00000000
,
00100000
00010000
10000000
01000000
10000000
01000000
00100000
00000000
,
00010000
01000000
00001000
00000000
00010000
00000100
00001000
00000000
,
00000001
00000010
00000100
00000000
00001000
00000010
00010000
00000000
,
00001000
00000000
00001000
00000000
00100000
00000000
00010000
00200000
00000000
00000000
00000000
00000000
00302000
00000000
00000000
00000000
,
00013000
00000000
00010000
00000000
00000100
00000000
00001000
00000200
00000000
00000000
00000000
00000000
00002300
00000000
00000000
00000000
,
00003001
00000000
00000010
00000000
00000001
00000000
00000100
00000000
00001000
00000000
00000000
00010000
00000000
00000000
00100000
00000000
,
10000000
00010000
10000000
01000000
00010000
00000000
00002000
00000000
,
00013000
00000000
00010000
00000000
00000010
00000000
00001000
00000002
00000000
00000000
00000000
00000000
00000013
00000000
00000000
00000000
,
00000001
00000001
00000001
00000000
00001000
00001000
00001000
00000000
,
00000001
00000010
00000000
00001000
00000000
00010000
00000000
01000000
,
00000000
10000000
00000000
00010000
00000000
10000000
00100000
01000000
,
00010000
10000000
00000000
00100000
00000000
00010000
00000000
00001000
,
00000000
00000100
00000000
00000001
00001000
00000100
00001000
00000000
,
00000001
00000100
00000001
00000100
00000010
00001000
00000010
00000000
,
00010000
00001000
00010000
00001000
00100000
00010000
00100000
00000000
,
01000000
10000000
01000000
10000000
00010000
10000000
00010000
10000000
,
00010000
01000000
00001000
00010000
00000010
00001000
00000001
00000000
,
00000020
00000000
00000000
00000230
00000000
00000000
00002300
00000000
00000000
00003020
00000000
00000000
00020030
00000000
00000000
00000000
,
00000000
00000000
00000000
00000000
00032000
00000000
01003000
00010000
,
00200000
00000000
00000000
02300000
00000000
00000000
23000000
00000000
00000000
00000000
00000000
00000000
00000000
00000000
00000000
00000000
,
30020000
00000000
00000000
00000000
20030000
00000000
31000000
00100000
,
02000000
00000000
00000000
03020000
00000000
00000000
00032000
00000000
00000000
00003020
00000000
00000000
00000032
00000000
00000000
00000000
,
00000000
00000000
00000203
00000000
,
00000302
00000000
00000000
00000023
00000000
00000000
00002030
00000000
00000000
00000000
00000000
00000000
00000000
00000000
00000000
00000000
,
00000000
00000000
00023000
00000000
,
02030000
00000000
00000000
00000000
,
00000000
00000000
00000000
00000000
,
23000000
00000000
00000000
00000000
,
00000000
00000000
00000000
00000000
,
30010000
10000000
00010000
00000000
01000000
00100000
01000000
00000000
,
00001000
00010000
00001000
00000000
00000100
00000010
00000100
00000000
,
00000001
00001000
00000001
00001000
00000010
00010000
00001000
00010000
,
00002000
00000000
00000000
00000000
00000000
00000000
00000000
00000000
00023000
00000000
00000000
00031000
00000000
00000000
00000000
00000000
,
00101000
00010000
01001000
00010000
,
00011000
00001100
00000110
00001001
,
00000001
00000010
00000001
00000000
00001000
00000010
00001000
00000000
,
00000100
00010000
00000100
00010000
00001000
00010000
00002000
00000000
,
00103000
00000000
00010000
00000000
01000000
00000000
00010000
00000000
10000000
00000000
00000000
01000000
00000000
00000000
00010000
00000000
,
00001000
00010000
00000010
00001000
00000100
00000000
00002000
00000000
,
00003010
00000100
00000010
00000000
00010000
00001000
00010000
00000000
,
00001000
01000000
00001000
01000000
00010000
10000000
00010000
00000000
,
10000000
01000000
10000000
00000000
01000000
00100000
01000000
00000000
,
00100000
00010000
00100000
00000000
00001000
00010000
00000100
00001000
,
00000001
00000000
00000001
00000000
00000100
00000000
00001000
00020000
00000000
00000000
00000000
00000000
00031000
00000000
00000000
00000000
,
00010000
00000000
00010000
00000000
00100000
00000000
10000000
00020000
00000000
00000000
00000000
00000000
01030000
00000000
00000000
00000000
,
00010000
00000000
00100000
00000000
00001000
00000000
00010000
00000000
00001000
00000000
00000000
00000010
00000000
00000000
00000001
00000000
,
00001000
00000100
00010000
00001000
01000000
00010000
20000000
00000000
,
31000000
00000000
01000000
00000000
00010000
00000000
00001000
00020000
00000000
00000000
00000000
00000000
00031000
00000000
00000000
00000000
,
00010000
00010000
00010000
00000000
00000010
00000010
00000010
00000000
,
00001010
00000000
00000000
00000000
00001000
00000000
00000001
00000000
00000010
00000000
00000000
00001000
00000000
00000000
00010000
00000000
,
00000000
00000000
00001000
00010000
00001000
00000100
00000001
00000000
,
00001001
00000000
00000000
00000000
00001000
00000000
00000100
00000000
00010000
00000000
00000000
00001000
00000000
00000000
00010000
00000000
,
00000000
00000000
00001000
00100000
00010000
10000000
00010000
00000000
,
10010000
00000000
00000000
00000000
00010000
00000000
10000000
00000000
01000000
00000000
00000000
00010000
00000000
00000000
00001000
00000000
,
00000000
00000000
00010000
00001000
00010000
00100000
10000000
00000000
,
10010000
00000000
00000000
00000000
00010000
00000000
00100000
00000000
00001000
00000000
00000000
00010000
00000000
00000000
00001000
00000000
,
00010000
00000100
00001000
00000010
00000100
00000001
00001000
00000010
,
00010000
00000000
00000000
00000000
,
00000000
00000000
00000000
00000000
;
#NOTES:
     dance-double:
     :
     Hard:
     14:
     :
00000000
00000000
00000000
00000000
,
00000000
00000000
00000000
00000000
,
00000000
00000000
00000000
00000000
,
00000000
00000000
00000000
00000000
,
00000000
00000000
00000000
00000000
,
00000000
00000000
00000000
00000000
,
10000000
10000000
01000000
01000000
,
00010000
00010000
00001000
00011000
,
00010000
00000100
00001000
00000001
,
00000100
00000000
00000010
00000000
00001000
00000010
00000000
00010000
00001000
00010000
00001000
00000000
00100000
00010000
00100000
00000000
,
00020000
00000000
00000000
00000000
,
00000000
00000000
00000000
00000000
,
00000000
00000000
00000000
00000000
,
00000000
00000000
00000000
00000000
,
10030000
00000000
01000000
00000000
10000000
00000000
01000000
00100000
01000000
00000000
00100000
00000000
00010000
00000000
00100000
00010000
,
00100000
00000000
00001000
00000000
00010000
00000000
00001000
00010000
00001000
00000000
00010000
00000000
00000010
00000000
00001000
00000010
,
00001000
00000001
00000100
00000001
00000100
00001000
00010000
00100000
,
10000000
00000000
10000000
00000000
10000000
00000000
01000000
00000000
00000000
01100000
00000000
00000000
,
00100000
00000000
00010000
00000000
01000000
00000000
00001000
00000000
00010000
00000000
00000010
00001000
00000000
00000010
00000100
00000000
,
00000001
00000000
00001000
00000000
00000100
00000000
00001000
00000000
00000010
00000000
00010000
00001000
00020000
00000000
00000000
00000000
,
00031000
00100000
00001000
00010000
00000010
00010000
00001000
01000000
,
00001000
00010000
00001000
00000100
00000001
00001000
00000001
00000000
,
00000001
00000000
00001000
00000000
00000010
00000000
00010000
00000000
00001000
00000000
01000000
00010000
00000000
01000000
00100000
00000000
,
10000000
00000000
00010000
00000000
00100000
00000000
00010000
00000000
01000000
00000000
00001000
00010000
00002000
00000000
00000000
00000000
,
00013000
00000100
00010000
00001000
01000000
00001000
00010000
00000010
,
00001000
00000001
00001000
00000001
00000010
00000100
00000110
00000000
,
00000010
00000000
00000001
00000000
00001000
00000000
00000100
00001000
00000100
00000000
00010000
00000000
00001000
00000000
01000000
00010000
,
01000000
00000000
00100000
00000000
10000000
00000000
00010000
10000000
00010000
00000000
00100000
00000000
01000000
00000000
01000000
00000000
,
10000000
00000000
10000000
00000000
01000000
00000000
00010000
00002000
00000000
00000000
00013000
00000000
00001000
00000000
00010000
00000000
,
00001000
00000000
00001000
00000000
00000010
00000000
00000001
00002000
00000000
00000000
00003100
00000000
00020000
00000000
00000000
00000000
,
00031000
00000000
00100000
00000000
00010000
00000000
00100000
01000000
00100000
00000000
01000000
10000000
00000000
00010000
10000000
00000000
,
00010000
00000000
01000000
00000000
00001000
00000000
00010000
00000000
00000100
00000000
00001000
00000100
00000020
00000000
00000000
00000000
,
00000031
00000000
00000001
00000000
00000100
00000000
00001000
00020000
00000000
00000000
00031000
00000000
00100000
00000000
00010000
00000000
,
10000000
10000000
10010000
00000000
00100000
00100000
01100000
00000000
,
10000000
00000000
00010000
00000000
00100000
00001000
00100000
00000000
00001000
00010000
00001000
00000000
00010000
00000010
00010000
00000000
,
00000010
00000000
00001000
00000000
00000001
00001000
00000001
00000000
00000100
00000000
00000010
00001000
00000000
00000010
00010000
00000000
,
00001000
00000000
00010000
00000000
00001000
00100000
00001000
00000000
00100000
00010000
00100000
00000000
00010000
10000000
00010000
00000000
,
01000000
00000000
00010000
00000000
00100000
00001000
00100000
00000000
00001000
00000000
00001000
00000000
00011000
00000000
00000000
00000000
,
00010000
00000000
00000100
00000000
00001000
00000100
00001000
00000000
00000001
00000100
00000001
00000000
00001000
00000010
00001000
00000000
,
00000010
00000000
00010000
00000000
00001000
00010000
00001000
00000000
01000000
00000000
00010000
01000000
00000000
00100000
10000000
00000000
,
01000000
00010000
00001000
00000010
00000001
00000100
00001000
00010000
,
00100000
01000000
00100000
00000000
10000000
00010000
10000000
00000000
00100000
00000000
01000000
00000000
01100000
00000000
00000000
00000000
,
02000000
00000000
00000000
03020000
00000000
00000000
20030000
00000000
00000000
32000000
00000000
00000000
03200000
00000000
00000000
00000000
,
00010000
00000000
00001000
00000000
00302000
00000000
00013000
00000010
,
00002000
00000000
00000000
00003200
00000000
00000000
00000320
00000000
00000000
00000000
00000000
00000000
00000000
00000000
00000000
00000000
,
00000032
00000000
00000000
00000000
00000203
00000000
00001300
00010000
,
00002000
00000000
00000000
00003200
00000000
00000000
00000302
00000000
00000000
00002003
00000000
00000000
00003200
00000000
00000000
00000000
,
00000010
00001000
00020300
00031000
,
00002000
00000000
00000000
00023000
00000000
00000000
00230000
00000000
00000000
00000000
00000000
00000000
00000000
00000000
00000000
00000000
,
00000000
00000000
10300000
00000000
,
02200000
00000000
00000000
00000000
,
00000000
00000000
00000000
00300000
,
03020000
00000000
00000000
00000000
,
00000000
00000000
00000000
00000000
00000000
00000000
00000000
10030000
,
00010000
10000000
01000000
00100000
00010000
01000000
00001000
00010000
,
00000100
00001000
00000010
00000100
00000001
00000010
00000100
00001000
,
00000010
00000000
00010000
00000000
00000010
00000000
00010000
00000000
00001000
00000000
00100000
00000000
00010000
10000000
00010000
00000000
,
20000000
00000000
00000000
00000000
00000000
00000000
00000000
30200000
00000000
00000000
00000000
01300000
00000000
00000000
00000000
00000000
,
01010000
00010000
01000000
00000000
01001000
01000000
00001000
00000000
,
00011000
00101000
00011000
00010010
,
00000010
00000000
00001000
00000000
00000001
00000000
00000100
00000001
00000100
00000000
00000001
00000000
00000010
00000000
00001000
00000000
,
00010000
00000000
00001000
00000000
01000000
00000000
00010000
01000000
00010000
00000000
10000000
00000000
00200000
00000000
00000000
00000000
,
10300000
00000000
00010000
00000000
01000000
00000000
00001000
01000000
00001000
00000000
00010000
00001000
00000000
00000100
00000010
00000000
,
00000100
00000000
00000001
00000000
00001000
00000000
00000100
00010000
00000100
00000000
00010000
00001000
00020000
00000000
00000000
00000000
,
00031000
00000000
01000000
00000000
00010000
00000000
10000000
00100000
10000000
00000000
00100000
00000000
00010000
00000000
00001000
00000000
,
00000100
00000010
00000100
00000010
00000100
00000001
00001000
00000000
,
00000100
00010000
00001000
00100000
00001000
00010000
00000010
00010000
,
00001000
00000000
01000000
00000000
00001000
00000000
00010000
00000000
00001000
00010000
00001000
00000000
01000000
00010000
01000000
00000000
,
00100000
00000000
00100000
00000000
10000000
00000000
01000000
00020000
00000000
00000000
00031000
00000000
00010000
00000000
00000100
00000000
,
00001000
00000000
00001000
00000000
00000001
00000000
00000010
00002000
00000000
00000000
00003010
00000000
00000001
00000000
00000000
00000000
,
00001000
00000000
00000100
00000000
00010000
00000000
00001000
00010000
00001000
00000000
00010000
00100000
00000000
10000000
00010000
00000000
,
10000000
00000000
00100000
00000000
10000000
00000000
01000000
00000000
00010000
00000000
00001000
00010000
00002000
00000000
00000000
00000000
,
00013000
00000000
00010000
00000000
00001000
00000000
00000010
00000002
00000000
00000000
00000103
00000000
00000001
00000000
00001000
00000000
,
00000100
00000100
00010100
00000000
00010000
00010000
00011000
00000000
,
00101000
00000000
00000000
00000000
00100000
00010000
00100000
00000000
00010000
00000000
10000000
01000000
00000000
00100000
00010000
00000000
,
00100000
00000000
00001000
00000000
00010000
00001000
00010000
00000000
00000010
00000000
00001000
00000001
00000010
00000000
00000000
00000000
,
00000011
00000000
00000000
00000000
00000001
00001000
00000001
00000000
00001000
00000000
00000001
00000010
00000000
00000100
00001000
00000000
,
00000100
00000000
00010000
00000000
00001000
00010000
00001000
00000000
00100000
00000000
00010000
10000000
00100000
00000000
00000000
00000000
,
01100000
00000000
00000000
00000000
00100000
10000000
00100000
00000000
10000000
00000000
01000000
00100000
00000000
00010000
01000000
00000000
,
00001000
00000000
00010000
00000000
00000100
00001000
00000100
00000000
00000010
00000000
00000001
00001000
00000010
00000000
00000000
00000000
,
00000110
00000000
00000000
00000000
00000100
00000001
00000100
00000000
00000001
00000000
00000010
00000100
00000000
00001000
00000010
00000000
,
00010000
00001000
00010000
00000000
00001000
01000000
00001000
00000000
01000000
00010000
01000000
00000000
00010000
10000000
00010000
00000000
,
00100000
00000000
00000000
00000000
,
00000000
00000000
00000000
00000000
;
#NOTES:
     dance-double:
     :
     Challenge:
     16:
     :
00000000
00000000
00000000
00000000
,
00000000
00000000
00000000
00000000
,
00000000
00000000
00000000
00000000
,
00000000
00000000
00000000
00000000
,
00000000
00000000
00000000
00000000
,
00000000
00000000
00000000
00000000
,
00001000
00000000
00000000
00000000
00010000
00000000
00001000
00000000
00010000
00000000
00000100
00001000
00000000
00000100
00000010
00000000
,
00000001
00000000
00000000
00000000
00000100
00000000
00001000
00000000
00010000
00000000
00001000
00010000
00002000
00000000
00000000
00000000
,
00013000
00000000
00000000
00000000
00001000
00000000
00010000
00000000
00001000
00000000
00100000
00010000
00000000
00100000
01000000
00000000
,
10000000
00000000
00100000
00000000
01000000
00010000
00000000
01000000
00001000
00010000
00001000
00010000
00000100
00001000
00000100
00001000
,
00000002
00000000
00000000
00000000
,
00000000
00000000
00000000
00000000
,
00000000
00000000
00000000
00000000
,
00000000
00000000
00000000
00000000
,
00000013
00000100
00000010
00000000
00000100
00000000
00001000
00000100
00010000
00001000
00010000
00000000
00001000
00000000
01000000
00010000
,
10000000
00100000
10000000
00000000
00010000
00000000
01000000
00001000
00010000
00001000
00010000
00000000
00001000
00000000
00010000
00000010
,
00001000
00000000
00000001
00000000
00001000
00000000
00000001
00000000
00000100
00000010
00000100
00000010
00001000
00000010
00010000
00001000
,
00010000
00000000
00100000
00000000
10000000
00000000
10100000
00000000
00000000
10010000
00000000
00000000
,
00010000
00100000
00001000
00000000
00010000
00000000
00000100
00000000
00001000
00000000
00000100
00000010
00000000
00000100
00001000
00000000
,
00000001
00000100
00000010
00000000
00001000
00000010
00010000
00001000
00010000
00000000
00001000
00100000
00002000
00000000
00000000
00000000
,
00103000
00000000
00010000
00000000
01000000
00000000
00001000
00010000
00001000
00000000
00010000
00000000
00000010
00000000
00001000
00000000
,
00000100
00000000
00001000
00000000
00000010
00000000
00010000
00001000
00010000
00000000
00001000
00000000
01000000
00000000
00000000
00000000
,
00010000
10000000
00100000
00000000
01000000
00000000
00010000
00000000
00100000
00000000
00001000
00010000
00000000
00000100
00001000
00000000
,
00000001
00000010
00000100
00000000
00000010
00000001
00001000
00000100
00010000
00000000
00001000
00010000
00002000
00000000
00000000
00000000
,
01003000
00000000
00010000
00000000
00100000
00000000
00001000
00010000
00001000
00000000
00010000
00000000
00000100
00000000
00001000
00000000
,
00000001
00000010
00000001
00000010
00000100
00001000
00000100
00001000
00000100
00010000
00001000
01000000
00010000
00000000
00000000
00000000
,
10000000
00000000
01000000
00000000
00010000
00000000
00001000
00010000
00001000
00000000
00000010
00000000
00000001
00000000
00000010
00000001
,
00000010
00000000
00001000
00000000
00010000
00000000
00001000
00010000
00001000
00100000
00010000
00000000
10000000
00000000
10000000
00000000
,
00010000
00000000
00010000
00000000
01000000
00000000
00001000
00020000
00000100
00000000
00030100
00000000
00010000
00000000
00001000
00000000
,
00010000
00000000
00010000
00000000
00000010
00000000
00001000
00000002
00000010
00000000
00000013
00000000
00000002
00000000
00000000
00000000
,
00001003
00000100
00010000
00000000
00001000
00000000
00010000
00000000
00100000
00000000
01000000
10000000
00000000
01000000
00010000
00000000
,
10000000
01000000
00100000
00000000
00010000
00100000
00001000
00010000
00001000
00000000
00000100
00000010
00000200
00000000
00000000
00000000
,
00000301
00000000
00000001
00000000
00001000
00000000
00000010
00020000
00001000
00000000
00031000
00000000
00010000
00000000
00001000
00000000
,
01001000
01001000
01010000
00000000
01100000
01100000
01100000
00000000
,
10000000
00000000
01000000
00000000
00100000
01000000
00100000
00000000
01000000
00010000
01000000
00000000
00010000
00001000
00010000
00000000
,
00001000
00000100
00001000
00000000
00000100
00000010
00000100
00000000
00000001
00000000
00001000
00000100
00000000
00000010
00000100
00000000
,
00000010
00000100
00001000
00000000
00000010
00000100
00001000
00000000
00010000
00100000
01000000
00000000
00010000
00100000
01000000
00000000
,
10000000
00100000
01000000
00000000
10000000
01000000
00100000
00000000
10000000
00000000
10000000
00000000
10010000
00000000
00000000
00000000
,
00010000
00000000
00100000
00000000
00001000
00010000
00001000
00000000
00010000
00000100
00010000
00000000
00000100
00001000
00000100
00000000
,
00001000
00000010
00001000
00000000
00000001
00000100
00000001
00000000
00001000
00000100
00001000
00000000
00000100
00010000
00000100
00000000
,
00010000
00001000
00010000
00001000
00100000
00010000
00100000
00000000
00010000
10000000
00010000
10000000
01000000
00100000
01000000
00000000
,
00100000
00010000
00100000
00001000
00010000
00001000
00010000
00000010
00001000
00000000
00000001
00000000
00001001
00000000
00000000
00000000
,
00000002
00000000
00000000
00000023
00000000
00000000
00000230
00000000
00000000
00002300
00000000
00000000
00023000
00000000
00000000
00000000
,
00100000
00000000
10000000
00000000
02030000
00000000
03100000
10000000
,
02000000
00000000
00000000
03020000
00000000
00000000
00032000
00000000
00000000
00000000
00000000
00000000
00000000
00000000
00000000
00000000
,
00023000
00000000
00000000
00000000
02030000
00000000
13000000
00100000
,
20000000
00000000
00000000
32000000
00000000
00000000
03200000
00000000
00000000
00320000
00000000
00000000
00032000
00000000
00000000
00000000
,
00000100
00000010
00003002
00000103
,
00000200
00000000
00000000
00002300
00000000
00000000
00023000
00000000
00000000
00000000
00000000
00000000
00000000
00000000
00000000
00000000
,
00000000
00000000
00130000
00000000
,
20200000
00000000
00000000
00000000
,
00000000
00000000
00000000
00300000
,
30020000
00000000
00000000
00000000
,
00000000
00000000
00000000
00000000
00000000
00000000
00000000
10030000
,
00010000
01000000
00010000
01000000
00001000
00000000
00010000
00000000
00000010
00001000
00000010
00001000
00000001
00000000
00000010
00000000
,
00000100
00001000
00000100
00010000
00001000
00000000
00010000
00000000
00001000
00010000
00001000
01000000
00010000
00000000
01000000
00000000
,
00010000
00000000
10000000
00000000
01000000
00000000
00010000
00000000
00001000
00000000
00000010
00000000
00000100
00000010
00000100
00000010
,
00000200
00000000
00000000
00000000
00000000
00000000
00000000
00000000
00002300
00000000
00000000
00003001
00000000
00000000
00000000
00000000
,
00001100
00000100
00010000
00001000
00011000
00010000
00100000
10000000
,
10010000
00010000
01010000
01000000
01001000
00001000
00011000
00000000
,
00010000
00000100
00001000
00000000
00000100
00000000
00001000
00000100
00000010
00000000
00000001
00000000
00000010
00000100
00001000
00000000
,
00000100
00010000
00001000
00000000
00010000
00000000
00001000
00100000
00010000
00000000
00100000
00010000
20000000
00000000
00000000
00000000
,
30100000
00000000
01000000
00000000
00010000
00000000
00100000
00001000
00010000
00000000
00001000
00010000
00001000
00010000
00000010
00000000
,
00001000
00000000
00000001
00000000
00001000
00000000
00000100
00000000
00010000
00001000
00010000
00001000
02000000
00000000
00000000
00000000
,
03010000
10000000
01000000
00000000
10000000
00000000
01000000
00100000
00010000
00000000
00100000
00000000
00001000
00010000
00001000
00000000
,
00010000
00000100
00010000
00000100
00001000
00000100
00001000
00000100
00000010
00000000
00000001
00000000
00001001
00000000
00000000
00000000
,
00000001
00000000
00000100
00000000
00001000
00000000
00010000
00100000
01000000
00000000
00010000
00000000
00100000
00000000
10000000
00100000
,
00010000
00000000
10000000
00000000
01000000
00000000
00010000
00001000
00010000
00001000
00010000
00000010
00001000
00000001
00000010
00000000
,
00000100
00000000
00000100
00000000
00010000
00000000
00001000
00000200
00000010
00000000
00000310
00000000
00000100
00000000
00001000
00000000
,
00010000
00000000
00010000
00000000
00100000
00000000
01000000
00020000
00100000
00000000
00130000
00000000
00010000
00000000
00000000
00000000
,
10000000
00000000
01000000
00000000
00010000
00000000
01000000
00010000
00001000
00000000
00010000
00001000
00010000
00000100
00001000
00000000
,
00000001
00000000
00000010
00000000
00001000
00000000
00000010
00001000
00010000
00000000
00001000
00010000
00002000
00000000
00000000
00000000
,
00103000
00000000
00100000
00000000
00001000
00000000
00010000
00200000
01000000
00000000
01300000
00000000
00100000
00000000
00010000
00000000
,
00011000
00010100
00001100
00000000
00001100
00001001
00000101
00000000
,
00001001
00000000
00000000
00000000
00001000
00000100
00001000
00000100
00010000
00000000
00001000
00010000
00000000
01000000
10000000
00000000
,
00010000
00000000
01000000
00000000
00001000
00010000
00001000
00010000
00001000
00000000
00100000
00010000
10000000
00000000
00000000
00000000
,
10010000
00000000
00000000
00000000
00010000
00100000
00010000
00100000
00001000
00000000
00010000
00001000
00000000
00000010
00000001
00000000
,
00001000
00000000
00000010
00000000
00010000
00001000
00010000
00001000
00010000
00000000
00000100
00001000
00000001
00000000
00000000
00000000
,
00000011
00000000
00000000
00000000
00000010
00000100
00001000
00000100
00001000
00000000
00000001
00000100
00000000
00001000
00010000
00000000
,
00100000
00000000
01000000
00000000
00010000
00100000
01000000
10000000
01000000
00000000
10000000
00010000
01000000
00000000
00000000
00000000
,
01100000
00000000
00000000
00000000
00100000
10000000
00010000
01000000
00100000
00000000
10000000
01000000
00000000
00010000
00001000
00000000
,
00010000
00001000
00010000
00001000
01000000
00010000
01000000
00010000
01000000
00001000
00010000
00000100
00001000
00000001
00000010
00000100
,
00001000
00000000
00000000
00000000
,
00000000
00000000
00000000
00000000
;
