
//----- song ID: asbo -----//
#TITLE:The Ashes of Boreas;
#ARTIST:Se-U-Ra;
#BANNER:The Ashes of Boreas.png;
#BACKGROUND:The Ashes of Boreas-bg.png;
#CDTITLE:./CDTitles/DDR WORLD.png;
#MUSIC:The Ashes of Boreas.ogg;
#SAMPLESTART:36.846;
#SAMPLELENGTH:15;
#BPMS:0=148;
#BGSTAGE:3;
#NOTES:
     dance-single:
     :
     Beginner:
     2:
     :
0000
0000
0000
0000
,
0000
0000
0000
0000
,
0000
0000
0000
0000
,
0000
0000
0000
0000
,
0000
0000
0000
0000
,
0000
0000
0000
0000
,
0001
0000
0000
0000
,
0010
0000
0000
0000
,
0001
0000
0000
0000
,
0100
0000
0000
0000
,
0020
0000
0000
0000
,
0030
0000
0000
0000
,
0200
0000
0000
0000
,
0300
0000
0000
0000
,
0010
0000
0000
0000
,
1000
0000
0000
0000
,
1000
0000
0000
0000
,
0100
0000
0000
0000
,
0000
0000
0000
0000
,
0100
0000
0000
0000
,
0100
0000
0000
0000
,
0010
0000
0000
0000
,
0000
0000
0000
0000
,
0010
0000
0000
0000
,
0001
0000
0000
0000
,
0002
0000
0000
0000
,
0003
0000
0000
0000
,
0001
0000
0000
0000
,
0001
0000
0000
0000
,
0200
0000
0000
0000
,
0300
0000
0000
0000
,
0010
0000
0000
0000
,
0000
0000
0000
0000
,
0100
0000
0000
0000
,
0000
0000
0000
0000
,
0010
0000
0000
0000
,
0000
0000
0000
0000
,
0100
0000
0000
0000
,
0000
0000
0000
0000
,
0020
0000
0000
0000
,
0030
0000
0000
0000
,
0200
0000
0000
0000
,
0300
0000
0000
0000
,
1000
0000
0000
0000
,
0010
0000
0000
0000
,
0100
0000
0000
0000
,
0001
0000
0000
0000
,
0020
0000
0000
0000
,
0030
0000
0000
0000
,
0002
0000
0000
0000
,
0003
0000
0000
0000
,
0000
0000
0000
0000
,
0100
0000
0000
0000
,
0100
0000
0000
0000
,
0010
0000
0000
0000
,
0000
0000
0000
0000
,
0010
0000
0000
0000
,
0010
0000
0000
0000
,
1000
0000
0000
0000
,
0000
0000
0000
0000
,
2000
0000
0000
0000
,
3000
0000
0000
0000
,
1000
0000
0000
0000
,
0010
0000
0000
0000
,
1000
0000
0000
0000
,
0100
0000
0000
0000
,
0200
0000
0000
0000
,
0300
0000
0000
0000
,
1000
0000
1000
0000
,
0100
0000
0000
0000
,
0010
0000
0010
0000
,
0002
0000
0000
0000
,
0003
0000
0000
0000
,
0000
0000
0000
0000
;
#NOTES:
     dance-single:
     :
     Easy:
     4:
     :
0000
0000
0000
0000
,
0000
0000
0000
0000
,
0000
0000
0000
0000
,
0000
0000
0000
0000
,
0000
0000
0000
0000
,
0000
0000
0000
0000
,
0001
0001
0010
0000
,
0010
0010
0100
0000
,
1000
1000
0010
0000
,
0010
0010
0100
0000
,
1001
0000
0000
0000
,
1000
0100
0010
0000
,
0001
1000
0001
1000
,
0002
0000
0000
0000
,
0003
0000
0000
0000
,
0001
0100
0001
0100
,
0010
0000
1001
0000
,
1000
0100
1000
0100
,
0010
0000
1001
0000
,
0001
1000
0010
1000
,
0010
0000
0110
0000
,
1000
0001
0010
0001
,
0010
0000
0110
0000
,
1000
0100
0010
0000
,
0100
0010
0001
0000
,
2000
0000
0000
0000
,
3000
0000
0000
0000
,
0001
0100
0010
0000
,
0100
0010
1000
0000
,
0002
0000
0000
0000
,
0003
0000
0000
0000
,
0001
0000
0010
0000
,
0110
0000
0000
0000
,
1000
0000
0010
0000
,
0110
0000
0000
0000
,
1000
0010
1000
0010
,
1000
0001
1000
0000
,
0001
0010
0001
0010
,
0001
1000
0001
0000
,
1001
0000
0000
0000
,
0000
0000
0000
0000
,
1001
0000
0000
0000
,
0000
0000
0000
0000
,
0010
0010
0010
0000
,
0100
0100
0100
0000
,
0010
0000
0100
0000
,
0110
0000
0000
0000
,
1000
0100
1000
0000
,
0100
0010
0100
0000
,
0010
0001
0010
0000
,
0001
1000
0001
1000
,
0000
0000
0000
0000
,
0002
0000
0000
0003
,
0200
0000
0000
0300
,
0010
1000
0010
0000
,
1000
0010
1000
0000
,
2000
0000
0000
3000
,
0020
0000
0000
0030
,
0100
0001
0100
0000
,
0001
0100
0001
0000
,
1001
0000
0000
0000
,
0000
0000
0000
0000
,
1000
0010
0100
0000
,
0001
0010
0100
0000
,
1000
0001
1000
0001
,
0100
0010
0100
0000
,
0110
0000
0000
0000
,
0000
0000
0000
0000
,
0001
0010
0100
1000
,
0001
0000
1001
0000
,
1000
0010
0100
0001
,
1000
1000
0001
0001
,
0000
0000
0000
0000
;
#NOTES:
     dance-single:
     :
     Medium:
     9:
     :
0000
0000
0000
0000
,
0000
0000
0000
0000
,
0000
0000
0000
0000
,
0000
0000
0000
0000
,
0000
0000
0000
0000
,
0000
0000
0000
0000
,
2000
3000
0020
0030
,
0200
0000
0000
0300
,
0001
0100
0001
0000
1000
0010
1000
0000
,
0100
0010
0100
0010
0100
0000
0110
0000
,
2002
0000
0000
3003
,
1000
0100
0010
0000
0100
0000
1000
0000
,
0001
0100
0010
0000
0100
0000
0001
0000
,
1000
0001
1000
0001
1000
0000
1001
0000
,
0000
0000
0000
0000
,
0001
0000
0100
0000
0010
1000
0010
0000
,
1000
0100
0001
0100
,
1000
0000
0010
0100
0001
0000
0010
0100
,
1000
0000
0010
0100
0002
0000
0003
0000
,
0001
0100
0001
0100
0020
0000
0030
0000
,
1000
0100
1000
0100
0020
0000
0030
0000
,
0001
0101
1000
1100
,
0001
1000
0001
0000
1001
0000
0000
0000
,
1000
0100
0010
0001
1000
0000
0000
0000
,
1010
0010
0110
0000
,
0001
0000
0100
0000
1000
0100
0001
0000
,
0010
0100
0010
0000
1001
0000
0000
0000
,
0001
0010
0100
1000
0001
0000
0000
0000
,
0101
0100
0110
0000
,
1000
0000
0010
0000
0001
0010
1000
0000
,
0100
0010
0100
0000
1001
0000
0000
0000
,
2000
3000
0020
0030
,
0200
0000
0000
0300
,
0002
0000
0003
0001
,
1000
0000
0000
0110
0000
0000
1000
0000
,
0002
0003
0020
0030
,
0200
0000
0000
0300
,
1000
0100
0010
0000
0001
0100
0010
0000
,
1000
0001
0100
0010
1000
0000
0000
0000
,
2001
0001
3001
0000
,
1002
1000
1003
0000
,
1000
0010
1000
0000
0001
0010
0001
0000
,
1000
0001
1000
0001
1000
0000
0000
0000
,
0001
0000
0000
0110
0000
0000
0000
0000
,
1000
0000
0000
0110
0000
0000
0000
0000
,
0010
0000
0000
1001
0000
0000
0000
0000
,
0100
0100
0110
0000
,
1000
0010
0100
0001
1000
0000
0000
0000
,
0001
0010
0100
1000
0001
0000
0000
0000
,
1000
0001
0100
0000
0001
1000
0100
0000
,
0010
0001
0100
0010
1000
0100
0010
0001
,
0000
0000
0000
0000
,
0011
0000
0000
1001
0000
0000
0000
0000
,
1010
0000
0000
1001
0000
0000
0000
0000
,
0001
0100
1000
0000
0100
0000
0001
0000
,
1000
0100
0001
0000
0100
0000
1000
0000
,
1100
0000
0000
1001
0000
0000
0000
0000
,
0101
0000
0000
1001
0000
0000
0000
0000
,
0001
0010
1000
0000
0010
0000
0001
0000
,
1000
0010
0001
0000
0010
0000
1000
0000
,
0002
0100
0100
0103
,
0001
0010
0100
1000
0001
0010
0100
0000
,
1000
0001
0100
0000
1010
0000
1001
0000
,
0001
1000
0100
0000
0011
0000
1001
0000
,
1000
0100
1000
0010
1000
0100
1000
0000
,
0001
0100
0001
0010
0001
0100
0001
0000
,
2002
0000
0000
3003
,
0001
0101
0110
1010
,
1000
0010
1000
0010
1000
0000
1001
0000
,
0001
0010
0001
0010
0001
0000
1001
0000
,
1000
0100
0010
0000
0001
0100
0010
0000
,
1000
0100
1000
0001
0100
0001
0100
0010
,
0000
0000
0000
0000
;
#NOTES:
     dance-single:
     :
     Hard:
     13:
     :
0000
0000
0000
0000
,
0000
0000
0000
0000
,
0000
0000
0000
0000
,
0000
0000
0000
0000
,
0000
0000
0000
0000
,
0000
0000
0000
0000
,
0001
0000
0001
0000
0001
0000
0001
0100
,
0010
0000
1000
0000
1000
0000
1000
0100
,
0010
0001
0100
0010
1000
0001
0010
0100
,
1000
0000
0000
0001
0000
0000
0100
0000
0000
0010
0000
0000
0100
0000
0000
0110
0000
0000
0000
0000
1001
0000
0000
0000
,
0002
0000
0010
0000
0100
0000
0013
0100
,
2000
0000
0010
0000
0100
0000
3010
0100
,
0001
1000
0010
0001
0010
1000
0100
0001
,
0100
0000
1000
0001
0000
1000
0001
0000
1000
0001
0000
1000
0200
0000
0000
0000
0000
0000
0320
0000
0000
0000
0000
0000
,
0032
0000
0003
1001
,
0001
0010
0100
1000
0001
0010
1000
0010
,
0001
0000
0000
0100
0000
0000
0010
0000
0000
1000
0000
0000
0001
0000
0000
0100
0000
0010
1000
0000
0000
0010
0000
0100
,
0001
0000
0000
0010
0000
0000
0011
0000
0000
0001
0000
0000
1000
0000
0100
0000
0000
0010
0001
0000
0000
0000
0000
0000
,
0010
0000
0000
0100
0000
0000
1001
0000
0000
1000
0000
0000
0001
0000
0100
0000
0000
0100
0010
0000
0000
0000
0000
0000
,
1000
0010
0100
0001
1000
0010
0001
0010
,
1000
0000
0000
0100
0000
0000
0010
0000
0000
0001
0000
0000
1000
0000
0000
0100
0000
0010
0001
0000
0000
0010
0000
0100
,
1000
0000
0000
0010
0000
0000
1010
0000
0000
1000
0000
0000
0001
0000
0100
0000
0000
0010
1000
0000
0000
0000
0000
0000
,
0010
0000
0000
0100
0000
0000
0001
0000
0000
1000
0000
0001
2000
0000
0000
0000
0000
0000
3001
0000
0000
0000
0000
0000
,
1000
0000
0000
0100
0000
0010
0001
0000
0000
0100
0000
0000
0002
0000
0000
0000
0000
0000
0103
0000
0000
0000
0000
0000
,
0110
0000
0000
0000
0000
0010
0100
0000
0000
0000
0000
0000
1001
0000
0000
0000
0000
0000
0110
0000
0000
0000
0000
0000
,
0001
0000
0000
0000
0000
0100
0020
0000
0000
0000
0000
0000
0001
0000
0000
0000
0000
0000
1000
0000
0000
0000
0000
0000
,
0130
0000
0000
0000
0000
0000
0110
0000
0000
0000
0000
0000
1000
0000
0000
0001
0000
0000
0000
0000
1001
0000
0000
0000
,
0001
0000
0000
0010
0000
0100
1000
0000
0000
0010
0000
0000
2000
0000
0000
0000
0000
0000
3020
0000
0000
0000
0000
0000
,
0130
0000
0000
0000
0000
0001
0010
0000
0000
0000
0000
0000
1001
0000
0000
0000
0000
0000
0001
0000
0100
0010
0000
0000
,
1000
0000
0000
0000
0000
0100
0010
0000
0000
0000
0000
0000
0001
0000
0000
0000
0000
0100
0010
0000
0000
0000
0000
0000
,
1000
0000
0000
0001
0000
0000
0110
0000
0000
1000
0000
0000
0001
0000
0010
0100
0000
1000
0001
0000
0000
0000
0000
0000
,
2000
0000
0000
0000
0000
0000
3000
0000
0000
0001
0000
0010
0002
0000
0000
0000
0000
0000
0003
0000
0000
0100
0000
0010
,
0100
0000
0000
0000
0000
0000
2002
0000
0000
0000
0000
0000
3003
0000
0000
0000
0000
0000
1000
0000
0100
0010
0000
0100
,
2000
0000
3000
0002
,
0203
0000
0000
0000
0000
0000
0300
0000
0000
0110
0000
0000
0000
0000
0000
0000
0000
0000
1000
0000
0010
0100
0000
0001
,
2000
0000
0000
0000
0000
0000
3000
0000
0000
0100
0000
0010
0002
0000
0000
0000
0000
0000
0003
0000
0000
0100
0000
0010
,
2000
0000
0000
0000
0000
0000
0000
0000
0000
0000
0000
0000
3000
0000
0000
0000
0000
0000
1000
0000
0001
0010
0000
0000
,
0001
0010
0100
0001
1000
0010
0100
1000
,
0002
0000
0000
0000
0000
0000
0203
0000
0000
0000
0000
0000
0310
0000
0000
1000
0000
0000
0000
0000
0110
0000
0000
0000
,
2002
0000
0000
3003
,
1000
0000
0000
0010
0000
0000
0100
0000
0000
0001
0000
1000
0000
0000
0100
0000
0000
0010
0000
0000
0100
1000
0000
0000
,
0001
0010
0100
0000
1000
0010
0100
0000
,
0001
0000
0000
0010
0000
0000
0100
0000
0000
1000
0000
0001
0000
0000
0100
0010
0000
0100
0010
0000
0000
0000
0000
0000
,
1000
0000
0000
0000
0000
0010
0000
0000
0000
1010
0000
0000
0000
0000
0000
0000
0000
0000
0000
0000
0000
1000
0000
0000
,
0001
0000
0000
0000
0000
0010
0000
0000
0000
0011
0000
0000
0000
0000
0000
0000
0000
0000
0000
0000
0000
0001
0000
0000
,
1000
0000
0000
0000
0000
0010
0000
0000
0000
0110
0000
0000
0000
0000
0000
1001
0000
0000
0000
0000
0000
1000
0000
0000
,
0001
0000
0000
0000
0000
0010
0000
0000
0000
0100
0000
0000
1000
0000
0001
0100
0000
0000
0001
0000
1000
0100
0000
0000
,
0010
0001
0101
0000
0100
0010
1010
0000
,
0001
0010
0110
0000
0100
1000
1001
0000
,
0001
1000
0010
0100
0001
1000
0100
0010
,
0001
0000
0010
0001
0000
0000
1000
0000
0100
1000
0000
0000
0002
0000
0000
0000
0000
0000
0103
0000
0000
0000
0000
0010
,
0000
0000
0000
0000
,
1010
0000
0000
0000
0000
0010
0000
0000
0000
0101
0000
0000
0000
0000
0001
0000
0000
0000
1001
0000
0000
0000
0000
0000
,
0011
0000
0000
0000
0000
0010
0000
0000
0000
1100
0000
0000
0000
0000
1000
0000
0000
0000
1001
0000
0000
0000
0000
0000
,
0001
0000
0000
0100
0000
0000
1000
0000
0000
0100
0000
0001
0000
0000
0010
0100
0000
0000
0110
0000
0000
0000
0000
0000
,
1000
0000
0000
0100
0000
0000
0001
0000
0000
0100
0000
1000
0000
0000
0010
0100
0000
0000
0110
0000
0000
0000
0000
0000
,
0101
0000
0000
0000
0000
0100
0000
0000
0000
1010
0000
0000
0000
0000
1000
0000
0000
0000
1001
0000
0000
0000
0000
0000
,
1100
0000
0000
0000
0000
0100
0000
0000
0000
0011
0000
0000
0000
0000
0001
0000
0000
1001
0000
0000
0000
0000
0000
0000
,
1000
0000
0000
0010
0000
0000
0001
0000
0000
0010
0000
1000
0000
0000
0100
0010
0000
0000
0110
0000
0000
0000
0000
0000
,
0001
0000
0000
0010
0000
0000
1000
0000
0000
0010
0000
0001
1000
0000
0000
0001
0000
0000
0001
0000
0000
0000
0000
0000
,
1000
0000
0000
0000
0000
0010
1000
0000
0000
0001
0000
0000
1000
0000
0100
0000
0000
0000
1001
0000
0000
0000
0000
0000
,
0001
0000
0000
0000
0000
0010
0001
0000
0000
1000
0000
0000
0001
0000
0100
0000
0000
0000
1001
0000
0000
1000
0000
0000
,
0001
0000
0000
0100
0000
0000
0010
0000
0000
1000
0000
0100
0000
0000
0010
0001
0000
0000
1001
0000
0000
0000
0000
0000
,
0001
0000
0000
0100
0000
0000
1000
0000
0000
0100
0000
0000
0001
0000
0000
0001
0000
1000
0001
0000
0000
0000
0000
0000
,
1000
0000
0000
0010
0000
0100
0010
0000
0000
0100
0000
0010
0100
0000
0000
0010
0000
0100
0010
0000
0000
1000
0000
0000
,
0001
0000
0000
0010
0000
0100
0010
0000
0000
0100
0000
0010
0100
0000
0000
0010
0000
0100
0010
0000
0000
0001
0000
0000
,
2000
0000
0000
3000
,
0001
0010
0100
0010
0100
1000
0001
1000
0001
1000
0000
0000
,
0001
0000
0100
0010
0000
1000
0001
0000
0000
0000
0000
0000
1001
0000
0000
0000
0000
0000
0110
0000
0000
0000
0000
0000
,
1000
0000
0000
0000
0000
0010
0100
0000
0000
0000
0000
0000
0001
0000
0000
0000
0000
0000
0110
0000
0000
0000
0000
0000
,
1000
0000
0010
1000
0000
0010
1000
0000
0000
0000
0000
0000
0001
0000
0100
0001
0000
0100
0001
0000
0000
0000
0000
0000
,
1000
0000
0100
0010
0000
0000
0001
0000
0100
0010
0000
0000
1000
0000
0010
0100
0000
0001
0100
0000
0010
1000
0000
0001
,
0000
0000
0000
0000
;
#NOTES:
     dance-double:
     :
     Easy:
     4:
     :
00000000
00000000
00000000
00000000
,
00000000
00000000
00000000
00000000
,
00000000
00000000
00000000
00000000
,
00000000
00000000
00000000
00000000
,
00000000
00000000
00000000
00000000
,
00000000
00000000
00000000
00000000
,
00000001
00000100
00000001
00000000
,
00001000
00000100
00001000
00000000
,
00000100
00010000
00000100
00000000
,
00010000
00001000
00010000
00000000
,
00011000
00000000
00000000
00000000
,
00001000
00010000
00001000
00000000
,
00001000
00100000
00010000
00100000
,
02000000
00000000
00000000
00000000
,
03000000
00000000
00000000
00000000
,
10000000
00100000
10000000
00100000
,
01000000
00000000
01100000
00000000
,
10000000
00000000
01000000
00000000
,
00100000
00001000
00010000
00000000
,
00001000
00010000
00001000
00000000
,
00010000
00000100
00001000
00000000
,
00001000
00000100
00000010
00000100
,
00000010
00000000
00000110
00000000
,
00000001
00000000
00000100
00000000
,
00001000
00010000
00001000
00000000
,
00020000
00000000
00000000
00000000
,
00030000
00000000
00000000
00000000
,
00001000
00010000
00001000
00000000
,
00001000
00010000
00001000
00000000
,
02000000
00000000
00000000
00000000
,
03000000
00000000
00000000
00000000
,
00100000
00000000
01000000
00000000
,
10010000
00000000
00000000
00000000
,
10000000
01000000
00100000
00000000
,
00001000
00010000
00001000
00000000
,
00010000
00010000
00000100
00000100
,
00001000
00000010
00001000
00000000
,
00000001
00000001
00000100
00000100
,
00000010
00001000
00000010
00000000
,
00000110
00000000
00000000
00000000
,
00000001
00000100
00001000
00000000
,
00010000
00000000
00000000
00000000
,
00001000
00010000
00100000
00000000
,
01100000
00000000
00000000
00000000
,
10010000
00000000
00000000
00000000
,
10000000
01000000
00100000
00000000
,
00020000
00000000
00000000
00030000
,
00010000
00100000
00010000
00000000
,
00100000
00001000
00100000
00000000
,
00001000
00010000
00001000
00000000
,
00010000
00000100
00010000
00001000
,
00000000
00000000
00000000
00000000
,
00020000
00000000
00000000
00030000
,
00000200
00000000
00000000
00000300
,
00001000
00000100
00000010
00000000
,
00000001
00000010
00000001
00000000
,
00000002
00000000
00000000
00000003
,
00002000
00000000
00000000
00003000
,
00000010
00001000
00000010
00000000
,
00001000
00000100
00010000
00000000
,
00011000
00000000
00000000
00000000
,
00000000
00000000
00000000
00000000
,
00010000
00001000
00010000
00001000
,
01000000
00010000
01000000
00000000
,
00200000
00000000
00000000
00300000
,
02000000
00000000
00000000
03000000
,
01100000
00000000
00000000
00000000
,
00000000
00000000
00000000
00000000
,
10000000
01000000
00010000
00000000
,
00010000
00001000
00000010
00000000
,
00000001
00000100
00000010
00010000
,
00001000
00010000
00001000
00001000
,
00000000
00000000
00000000
00000000
;
#NOTES:
     dance-double:
     :
     Medium:
     9:
     :
00000000
00000000
00000000
00000000
,
00000000
00000000
00000000
00000000
,
00000000
00000000
00000000
00000000
,
00000000
00000000
00000000
00000000
,
00000000
00000000
00000000
00000000
,
00000000
00000000
00000000
00000000
,
00000002
00000003
00002000
00003000
,
00000020
00000000
00000000
00000030
,
00001000
00000010
00001000
00000000
00000010
00010000
00000010
00000000
,
00010000
00001000
00010000
00001000
00010000
00000000
00001000
00000000
,
00100000
00010000
01000000
00000000
,
00100000
10000000
01000000
00000000
,
00100000
00010000
01000000
00000000
00100000
10000000
01000000
00000000
,
00100000
00010000
00100000
00001000
00010000
00000000
00011000
00000000
,
00000000
00000000
00000000
00000000
,
00001000
00000000
00010000
00000000
00000100
00001000
00000100
00000000
,
00001000
00000010
00000100
00000001
,
00000010
00000100
00001000
00000000
00000100
00000010
00000001
00000000
,
00001000
00000100
00020000
00030000
,
00001000
00100000
00001000
00000000
01000000
00010000
01000000
00000000
,
00001000
00100000
00001000
00000000
02000000
00000000
03000000
00000000
,
00010000
00110000
00100000
01100000
,
01000000
10000000
00010000
10000000
00010000
00000000
00000000
00000000
,
10000000
01000000
00010000
00000000
00001000
00000000
00000000
00000000
,
00010000
00001000
00100000
00001000
,
00020000
00031000
00020000
00030100
,
00002000
00003100
00000010
00000000
,
00000001
00000100
00001000
00000000
00010000
00000000
00000000
00000000
,
00001000
00010000
00000010
00010000
,
00002000
00013000
00002000
01003000
,
00020000
01030000
00100000
00000000
,
20000000
30000000
02000000
03000000
,
00200000
00000000
00000000
00300000
,
00002000
00000000
00003000
00001000
,
00010000
00000000
00000000
00011000
00000000
00000000
00010000
00000100
,
00002000
00003000
00000020
00000030
,
00000200
00000000
00000000
00000300
,
00000001
00000100
00000010
00000000
00000100
00000010
00001000
00000000
,
00000010
00010000
00001000
00010000
00001000
00000000
00000000
00000000
,
00010000
00100000
10000000
00000000
,
10000000
01000000
00010000
00000000
,
00001000
00000010
00000001
00000000
,
00000001
00000100
00001000
00000000
,
00010000
00000000
00000000
01100000
00000000
00000000
00000000
00000000
,
10000000
00000000
00000000
01100000
00000000
00000000
00000000
00000000
,
00011000
00000000
00000000
00011000
00000000
00000000
00000000
00000000
,
00010000
00001000
00000010
00000000
,
00000001
00000010
00000100
00001000
00000001
00000000
00000000
00000000
,
00000001
00000100
00000010
00000000
00010000
00000000
00000000
00000000
,
00001000
01000000
00010000
01000000
00100000
00000000
00000000
00000000
,
10000000
00100000
10000000
00100000
01000000
00010000
00100000
00010000
,
00000000
00000000
00000000
00000000
,
00110000
00000000
00000000
10010000
00000000
00000000
00000000
00000000
,
11000000
00000000
00000000
01100000
00000000
00000000
00000000
00000000
,
00100000
00001000
00010000
00000000
00001000
00000000
00010000
00000000
,
00000100
00010000
00001000
00000000
00010000
00000000
00000010
00000000
,
00001010
00000000
00000000
00001001
00000000
00000000
00000000
00000000
,
00000101
00000000
00000000
00000110
00000000
00000000
00000000
00000000
,
00000010
00010000
00001000
00000000
00010000
00000000
00001000
00000000
,
01000000
00001000
00010000
00000000
00001000
00000000
00100000
00000000
,
00002000
00023000
00230000
20300000
,
32000000
00000000
03020000
00000000
00031000
00010000
00001000
00000000
,
00010000
00000100
00001000
00000000
00001010
00000000
00001001
00000000
,
00000001
00000100
00000010
00000000
00001000
00000100
00000010
00000000
,
00000001
00001000
00000100
00010000
00001000
00000000
00011000
00000000
,
00010000
00001000
00100000
00010000
01000000
00000000
01100000
00000000
,
20020000
00000000
00000000
30030000
,
10000000
00100000
10000000
00000000
00100000
00010000
00100000
00000000
,
00010000
00001000
00010000
00001000
00010000
00000000
00000010
00001000
,
00000020
00000000
00000230
00000000
00000301
00001000
00000100
00000000
,
00000010
00000001
00000100
00000000
00001000
00000000
00010000
00000000
,
00100000
10000000
00100000
01000000
00010000
10000000
01000000
00100000
,
00000000
00000000
00000000
00000000
;
#NOTES:
     dance-double:
     :
     Hard:
     13:
     :
00000000
00000000
00000000
00000000
,
00000000
00000000
00000000
00000000
,
00000000
00000000
00000000
00000000
,
00000000
00000000
00000000
00000000
,
00000000
00000000
00000000
00000000
,
00000000
00000000
00000000
00000000
,
00000001
00000000
00000001
00000000
00000001
00000000
00000001
00000100
,
00001000
00000000
00001000
00000000
00001000
00000000
00001000
00010000
,
00001000
00010000
00100000
00010000
00100000
10000000
00010000
10000000
,
00010000
00000000
00000000
00100000
00000000
00000000
01000000
00000000
00000000
00100000
00000000
00000000
00001000
00000000
00000000
00010000
00000000
00000000
00000000
00000000
00001000
00000000
00000000
00000000
,
00020000
00000000
00030200
00000000
00002300
00000000
00003010
00000100
,
00000002
00000023
00002030
00023000
,
01030000
10000000
01000000
10000000
00100000
00010000
00100000
00010000
,
00001000
00000000
00010000
00001000
00000000
00000000
00010000
00000000
00001000
00010000
00000000
00000000
00002000
00000000
00000000
00023000
00000000
00000000
00030200
00000000
00000000
00002300
00000000
00000000
,
00003020
00000000
00000030
00000110
,
00000001
00000100
00001000
00000100
00000001
00000010
00001000
00000010
,
00000001
00000000
00000000
00000100
00000000
00000000
00000010
00000000
00000000
00010000
00000000
00000000
00001000
00000000
00000000
00100000
00000000
00010000
00100000
00000000
00000000
00010000
00000000
01000000
,
00010000
00000000
00000000
01000000
00000000
00000000
01100000
00000000
00000000
00100000
00000000
00000000
10000000
00000000
00100000
00000000
00000000
01000000
00010000
00000000
00000000
00000000
00000000
00000000
,
10000000
00000000
00000000
01000000
00000000
00000000
00010000
00000000
00000000
00001000
00000000
00000000
00010000
00000000
01000000
00000000
00000000
00100000
00010000
00000000
00000000
00000000
00000000
00000000
,
10000000
01000000
00010000
01000000
10000000
00100000
00010000
00100000
,
10000000
00000000
00000000
01000000
00000000
00000000
00100000
00000000
00000000
00001000
00000000
00000000
00010000
00000000
00000000
00000010
00000000
00001000
00000010
00000000
00000000
00001000
00000000
00000100
,
00001000
00000000
00000000
00000100
00000000
00000000
00000110
00000000
00000000
00000010
00000000
00000000
00000001
00000000
00000010
00000000
00000000
00000100
00001000
00000000
00000000
00000000
00000000
00000000
,
00000001
00000000
00000000
00000100
00000000
00000000
00001000
00000000
00000000
00010000
00000000
00001000
00020000
00000000
00000000
00000000
00000000
00000000
00030000
00000000
00000000
00000000
00000000
00000000
,
00001000
00100000
00010000
00100000
10000000
00100000
00010000
00000000
,
10000000
00000000
00000000
00000000
00000000
00100000
01000000
00000000
00000000
00000000
00000000
00000000
01100000
00000000
00000000
00000000
00000000
00000000
10010000
00000000
00000000
00000000
00000000
00000000
,
10000000
01000000
00100000
00010000
01000000
00100000
00010000
00001000
,
00010000
00000000
00000000
01000000
00000000
00000000
00100000
00000000
00000000
01000000
00000000
00000000
00010000
00000000
00000000
00001000
00000000
00000000
00000000
00000000
00001000
00000000
00000000
00000000
,
00010000
00000010
00001000
00000010
00000001
00000010
00001000
00000000
,
00000001
00000000
00000000
00000000
00000000
00000010
00000100
00000000
00000000
00000000
00000000
00000000
00000110
00000000
00000000
00000000
00000000
00000000
00001001
00000000
00000000
00000000
00000000
00000000
,
00000001
00000100
00000010
00001000
00000100
00000010
00001000
00010000
,
00001000
00000000
00000000
00000100
00000000
00000000
00000010
00000000
00000000
00000100
00000000
00000000
00001000
00000000
00000000
00010000
00000000
00000000
00100000
00000000
01000000
00100000
00000000
00000000
,
20000000
00000000
00000000
00000000
00000000
00000000
30000000
00000000
00000000
00010000
00000000
00100000
00020000
00000000
00000000
00000000
00000000
00000000
00030000
00000000
00000000
00100000
00000000
00001000
,
00010000
00000000
00000000
00000000
00000000
00000000
00022000
00000000
00000000
00000000
00000000
00000000
00033000
00000000
00000000
00000000
00000000
00000000
00010000
00000000
00000010
00001000
00000000
00000000
,
00000200
00000000
00000300
00000002
,
00000203
00000000
00000000
00000000
00000000
00000000
00000300
00000000
00000000
00000110
00000000
00000000
00000000
00000000
00000000
00000000
00000000
00000000
00000001
00000000
00000010
00000100
00000000
00000000
,
00002000
00000000
00000000
00000000
00000000
00000000
00003000
00000000
00000000
00000100
00000000
00010000
00002000
00000000
00000000
00000000
00000000
00000000
00003000
00000000
00000000
00010000
00000000
00001000
,
02000000
00000000
00000000
00000000
00000000
00000000
00000000
00000000
00000000
00000000
00000000
00000000
03000000
00000000
00000000
00000000
00000000
00000000
00010000
00000000
01000000
00100000
00000000
00000000
,
10000000
01000000
10000000
01000000
00100000
00010000
00100000
00010000
,
00001000
00000000
00000000
00000100
00000000
00000000
00001000
00000000
00000000
00000100
00000000
00000000
00000010
00000000
00000000
00000001
00000000
00000000
00000000
00000000
00000110
00000000
00000000
00000000
,
00002002
00000000
00000000
00003003
,
00000001
00000000
00000000
00000100
00000000
00000000
00001000
00000000
00000000
00010000
00000000
00001000
00000000
00000000
00010000
00000000
00000000
00001000
00000000
00000000
00010000
00001000
00000000
00000000
,
00010000
00100000
10000000
00000000
00010000
01000000
00100000
00000000
,
10000000
00000000
00000000
01000000
00000000
00000000
00010000
00000000
00000000
00001000
00000000
00010000
00000000
00000000
00001000
00010000
00000000
00001000
00010000
00000000
00000000
00000000
00000000
00000000
,
00001000
00000000
00000000
00000000
00000000
00000110
00000000
00000000
00000000
00000001
00000000
00000000
00000000
00000000
00000000
00000000
00000000
00000000
00000000
00000000
00000000
00000000
00000000
00000000
,
00000001
00000000
00000000
00000000
00000000
00000110
00000000
00000000
00000000
00001000
00000000
00000000
00000000
00000000
00000000
00000100
00000000
00000000
00010000
00000000
00000000
00001000
00000000
00000000
,
00010000
00000000
00000000
00000000
00000000
01100000
00000000
00000000
00000000
10000000
00000000
00000000
00000000
00000000
00000000
10010000
00000000
00000000
00000000
00000000
00000000
00010000
00000000
00000000
,
01000000
00000000
00000000
00000000
00000000
00100000
00000000
00000000
00000000
10000000
00000000
00000000
01000000
00000000
00100000
01000000
00000000
00000000
00100000
00000000
00010000
00100000
00000000
00000000
,
00001000
00010000
00001000
00010000
00000100
00001000
00000100
00000000
,
00000010
00000001
00000100
00000000
00000010
00001000
00000100
00000000
,
00000010
00000001
00000010
00000100
00000010
00001000
00010000
00000000
,
00001000
00000000
00000000
00010000
00000000
00000000
01000000
00000000
00100000
01000000
00000000
00000000
20000000
00000000
00000000
00000000
00000000
00000000
30010000
00000000
00000000
00000000
00000000
01000000
,
00000000
00000000
00000000
00000000
,
10100000
00000000
00000000
00000000
00000000
00100000
00000000
00000000
00000000
01010000
00000000
00000000
00000000
00000000
00010000
00000000
00000000
00000000
10010000
00000000
00000000
00000000
00000000
00000000
,
10000000
00000000
00000000
00000000
00000000
01000000
00000000
00000000
00000000
00010000
00000000
00000000
00000000
00000000
00001000
00000000
00000000
00000000
00000110
00000000
00000000
00000000
00000000
00000000
,
00000001
00000010
00001000
00010000
01000000
00100000
00001000
00010000
,
00001000
00000100
00000010
00010000
00000010
00000100
00000001
00000000
,
00000011
00000000
00000000
00000000
00000000
00000010
00000000
00000000
00000000
00001100
00000000
00000000
00000000
00000000
00001000
00000000
00000000
00000000
00001001
00000000
00000000
00000000
00000000
00000000
,
00000001
00000000
00000000
00000000
00000000
00000100
00000000
00000000
00000000
00001000
00000000
00000000
00000000
00000000
00010000
00000000
00000000
01100000
00000000
00000000
00000000
00000000
00000000
00000000
,
10000000
00100000
00010000
00001000
00000100
00000010
00010000
00001000
,
00010000
01000000
00100000
00001000
00100000
01000000
10000000
00000000
,
00010000
00000000
00000000
00000000
00000000
00100000
00010000
00000000
00000000
01000000
00000000
00000000
00001000
00000000
00010000
00000000
00000000
00000000
00011000
00000000
00000000
00000000
00000000
00000000
,
00010000
00000000
00000000
00000000
00000000
00000100
00001000
00000000
00000000
00000010
00000000
00000000
00000100
00000000
00000001
00000000
00000000
00000000
00001001
00000000
00000000
00000000
00000000
00000000
,
00001000
00000000
00000000
00000010
00000000
00000000
00000100
00000000
00000000
00000001
00000000
00000010
00000000
00000000
00000001
00000010
00000000
00000000
00000001
00000000
00000000
00001000
00000000
00000000
,
00000100
00000000
00000000
00010000
00000000
00000000
00001000
00000000
00000000
00100000
00000000
00000000
00010000
00000000
00000000
01000000
00000000
00100000
01000000
00000000
00000000
00000000
00000000
00000000
,
00010000
00000000
00000000
10000000
00000000
01000000
10000000
00000000
00000000
01000000
00000000
00100000
01000000
00000000
00000000
00100000
00000000
00010000
00100000
00000000
00000000
00000000
00000000
00000000
,
00001000
00000000
00000000
00010000
00000000
00001000
00010000
00000000
00000000
00000100
00000000
00001000
00000100
00000000
00000000
00000010
00000000
00000100
00000010
00000000
00000000
00000000
00000000
00000000
,
00000002
00000000
00000000
00000003
,
00000001
00000010
00000001
00001000
00000010
00001000
00000100
00010000
00000100
00010000
00000000
00000000
,
00001000
00000000
01000000
00010000
00000000
01000000
00100000
00000000
00000000
00000000
00000000
00000000
01100000
00000000
00000000
00000000
00000000
00000000
10010000
00000000
00000000
00000000
00000000
00000000
,
10000000
00000000
00000000
00000000
00000000
01000000
00010000
00000000
00000000
00000000
00000000
00000000
01000000
00000000
00000000
00000000
00000000
00000000
01100000
00000000
00000000
00000000
00000000
00000000
,
00100000
00000000
00001000
00100000
00000000
00001000
00100000
00000000
00000000
00000000
00000000
00000000
00001000
00000000
00010000
00001000
00000000
00010000
00001000
00000000
00000000
00000000
00000000
00000000
,
00010000
00000000
00000100
00001000
00000000
00000000
00000010
00000000
00000100
00000001
00000000
00000000
00000010
00000000
00000100
00001000
00000000
00000000
00000100
00000000
00010000
00001000
00000000
00010000
,
00000000
00000000
00000000
00000000
;
